osu file format v14

[General]
AudioFilename: audio 0.800x.mp3
AudioLeadIn: 0
PreviewTime: -1
Countdown: 0
SampleSet: None
StackLeniency: 0.7
Mode: 3
LetterboxInBreaks: 0
SpecialStyle: 0
WidescreenStoryboard: 0

[Editor]
DistanceSpacing: 1.5
BeatDivisor: 4
GridSize: 4
TimelineZoom: 1

[Metadata]
Title:SugarCrash! (wewewe Remix)
TitleUnicode:SugarCrash! (wewewe Remix)
Artist:ElyOtto
ArtistUnicode:ElyOtto
Creator:ark2000
Version:4k CRASH! 0.8x (160bpm)
Source:
Tags:beatsaber, frenchcore, hyperpop osutrainer
BeatmapID:4556951
BeatmapSetID:2160949

[Difficulty]
HPDrainRate:5
CircleSize:4
OverallDifficulty:2.9
ApproachRate:2.5
SliderMultiplier:1.4
SliderTickRate:1

[Events]
//Background and Video events
0,0,"gtcr.jpg",0,0
//Break Periods
2,49843,60187
//Storyboard Layer 0 (Background)
//Storyboard Layer 1 (Fail)
//Storyboard Layer 2 (Pass)
//Storyboard Layer 3 (Foreground)
//Storyboard Layer 4 (Overlay)
//Storyboard Sound Samples

[TimingPoints]
93,375,4,1,0,50,1,0
48937,-40,4,2,0,25,0,0
49031,-200,4,2,0,25,0,0
49312,-40,4,2,0,25,0,0
49312,-100,4,2,0,25,0,0
49382,-200,4,2,0,25,0,0
49593,-100,4,2,0,25,0,0

[HitObjects]
64,192,93,5,0,0:0:0:0:
192,192,93,1,0,0:0:0:0:
320,192,93,1,0,0:0:0:0:
448,192,93,1,0,0:0:0:0:
64,192,1593,1,0,0:0:0:0:
320,192,1593,1,0,0:0:0:0:
448,192,1593,1,0,0:0:0:0:
192,192,1687,1,0,0:0:0:0:
320,192,1781,1,0,0:0:0:0:
448,192,1875,1,0,0:0:0:0:
320,192,1968,1,0,0:0:0:0:
64,192,1968,1,0,0:0:0:0:
192,192,2062,1,0,0:0:0:0:
64,192,2156,1,0,0:0:0:0:
192,192,2250,1,0,0:0:0:0:
320,192,2343,1,0,0:0:0:0:
448,192,2343,1,0,0:0:0:0:
192,192,2437,1,0,0:0:0:0:
64,192,2531,1,0,0:0:0:0:
192,192,2625,1,0,0:0:0:0:
320,192,2718,1,0,0:0:0:0:
448,192,2812,1,0,0:0:0:0:
320,192,2906,1,0,0:0:0:0:
192,192,3000,1,0,0:0:0:0:
64,192,3093,1,0,0:0:0:0:
320,192,3187,1,0,0:0:0:0:
448,192,3281,1,0,0:0:0:0:
320,192,3375,1,0,0:0:0:0:
192,192,3468,1,0,0:0:0:0:
64,192,3468,1,0,0:0:0:0:
320,192,3562,1,0,0:0:0:0:
192,192,3656,1,0,0:0:0:0:
64,192,3750,1,0,0:0:0:0:
192,192,3843,1,0,0:0:0:0:
320,192,3843,1,0,0:0:0:0:
448,192,3843,1,0,0:0:0:0:
64,192,3937,1,0,0:0:0:0:
192,192,4031,1,0,0:0:0:0:
320,192,4125,1,0,0:0:0:0:
192,192,4218,1,0,0:0:0:0:
64,192,4218,1,0,0:0:0:0:
320,192,4312,1,0,0:0:0:0:
448,192,4406,1,0,0:0:0:0:
320,192,4500,1,0,0:0:0:0:
192,192,4593,1,0,0:0:0:0:
64,192,4593,1,0,0:0:0:0:
320,192,4687,1,0,0:0:0:0:
448,192,4781,1,0,0:0:0:0:
320,192,4875,1,0,0:0:0:0:
192,192,4968,1,0,0:0:0:0:
64,192,5062,1,0,0:0:0:0:
192,192,5156,1,0,0:0:0:0:
320,192,5250,1,0,0:0:0:0:
192,192,5343,1,0,0:0:0:0:
64,192,5343,1,0,0:0:0:0:
320,192,5531,1,0,0:0:0:0:
448,192,5531,1,0,0:0:0:0:
192,192,5718,1,0,0:0:0:0:
64,192,5718,1,0,0:0:0:0:
320,192,5812,1,0,0:0:0:0:
448,192,5906,1,0,0:0:0:0:
320,192,6000,1,0,0:0:0:0:
192,192,6093,1,0,0:0:0:0:
64,192,6093,1,0,0:0:0:0:
320,192,6187,1,0,0:0:0:0:
192,192,6281,1,0,0:0:0:0:
64,192,6375,1,0,0:0:0:0:
320,192,6468,1,0,0:0:0:0:
448,192,6468,1,0,0:0:0:0:
192,192,6468,1,0,0:0:0:0:
192,192,6656,1,0,0:0:0:0:
64,192,6656,1,0,0:0:0:0:
320,192,6843,1,0,0:0:0:0:
448,192,6843,1,0,0:0:0:0:
320,192,7031,1,0,0:0:0:0:
192,192,7031,1,0,0:0:0:0:
192,192,7218,1,0,0:0:0:0:
64,192,7218,1,0,0:0:0:0:
320,192,7312,1,0,0:0:0:0:
448,192,7406,1,0,0:0:0:0:
320,192,7500,1,0,0:0:0:0:
192,192,7593,1,0,0:0:0:0:
64,192,7593,128,0,7968:0:0:0:0:
448,192,7781,1,0,0:0:0:0:
320,192,7781,1,0,0:0:0:0:
192,192,7781,1,0,0:0:0:0:
320,192,7968,1,0,0:0:0:0:
448,192,7968,1,0,0:0:0:0:
192,192,8062,1,0,0:0:0:0:
64,192,8156,1,0,0:0:0:0:
192,192,8250,1,0,0:0:0:0:
320,192,8343,1,0,0:0:0:0:
448,192,8343,1,0,0:0:0:0:
192,192,8437,1,0,0:0:0:0:
320,192,8531,1,0,0:0:0:0:
192,192,8625,1,0,0:0:0:0:
320,192,8718,1,0,0:0:0:0:
448,192,8718,1,0,0:0:0:0:
192,192,9093,1,0,0:0:0:0:
64,192,9093,1,0,0:0:0:0:
320,192,9187,1,0,0:0:0:0:
448,192,9281,1,0,0:0:0:0:
320,192,9375,1,0,0:0:0:0:
192,192,9468,1,0,0:0:0:0:
64,192,9468,1,0,0:0:0:0:
448,192,9562,1,0,0:0:0:0:
320,192,9656,1,0,0:0:0:0:
192,192,9750,1,0,0:0:0:0:
320,192,9843,1,0,0:0:0:0:
448,192,9843,1,0,0:0:0:0:
320,192,10031,1,0,0:0:0:0:
192,192,10031,1,0,0:0:0:0:
192,192,10218,1,0,0:0:0:0:
64,192,10218,1,0,0:0:0:0:
320,192,10312,1,0,0:0:0:0:
448,192,10406,1,0,0:0:0:0:
320,192,10500,1,0,0:0:0:0:
192,192,10593,1,0,0:0:0:0:
64,192,10593,1,0,0:0:0:0:
320,192,10781,1,0,0:0:0:0:
448,192,10781,1,0,0:0:0:0:
192,192,10968,1,0,0:0:0:0:
320,192,10968,1,0,0:0:0:0:
192,192,11156,1,0,0:0:0:0:
64,192,11156,1,0,0:0:0:0:
192,192,11343,1,0,0:0:0:0:
320,192,11343,1,0,0:0:0:0:
448,192,11437,1,0,0:0:0:0:
192,192,11531,1,0,0:0:0:0:
320,192,11531,1,0,0:0:0:0:
64,192,11625,1,0,0:0:0:0:
320,192,11718,1,0,0:0:0:0:
192,192,11718,1,0,0:0:0:0:
448,192,11812,1,0,0:0:0:0:
320,192,11906,1,0,0:0:0:0:
192,192,11906,1,0,0:0:0:0:
64,192,12000,1,0,0:0:0:0:
192,192,12093,1,0,0:0:0:0:
320,192,12187,1,0,0:0:0:0:
448,192,12281,1,0,0:0:0:0:
320,192,12375,1,0,0:0:0:0:
192,192,12468,1,0,0:0:0:0:
64,192,12468,1,0,0:0:0:0:
320,192,12562,1,0,0:0:0:0:
192,192,12656,1,0,0:0:0:0:
64,192,12750,1,0,0:0:0:0:
64,192,12937,1,0,0:0:0:0:
192,192,12937,1,0,0:0:0:0:
320,192,12937,1,0,0:0:0:0:
448,192,12937,1,0,0:0:0:0:
64,192,13312,1,0,0:0:0:0:
192,192,13312,1,0,0:0:0:0:
320,192,13312,1,0,0:0:0:0:
448,192,13312,1,0,0:0:0:0:
320,192,13500,1,0,0:0:0:0:
64,192,13593,1,0,0:0:0:0:
192,192,13593,1,0,0:0:0:0:
320,192,13687,1,0,0:0:0:0:
448,192,13781,1,0,0:0:0:0:
320,192,13875,1,0,0:0:0:0:
192,192,13968,1,0,0:0:0:0:
64,192,13968,1,0,0:0:0:0:
320,192,14062,1,0,0:0:0:0:
448,192,14156,1,0,0:0:0:0:
64,192,14156,1,0,0:0:0:0:
192,192,14250,1,0,0:0:0:0:
320,192,14343,1,0,0:0:0:0:
192,192,14437,1,0,0:0:0:0:
320,192,14531,1,0,0:0:0:0:
448,192,14625,1,0,0:0:0:0:
192,192,14625,1,0,0:0:0:0:
64,192,14718,1,0,0:0:0:0:
192,192,14812,1,0,0:0:0:0:
320,192,14906,1,0,0:0:0:0:
192,192,15000,1,0,0:0:0:0:
320,192,15093,1,0,0:0:0:0:
192,192,15187,1,0,0:0:0:0:
448,192,15187,1,0,0:0:0:0:
64,192,15281,1,0,0:0:0:0:
192,192,15375,1,0,0:0:0:0:
320,192,15468,1,0,0:0:0:0:
448,192,15562,1,0,0:0:0:0:
192,192,15562,1,0,0:0:0:0:
64,192,15656,1,0,0:0:0:0:
192,192,15750,1,0,0:0:0:0:
64,192,15843,1,0,0:0:0:0:
320,192,15843,1,0,0:0:0:0:
448,192,15937,1,0,0:0:0:0:
192,192,16031,1,0,0:0:0:0:
64,192,16125,1,0,0:0:0:0:
320,192,16218,1,0,0:0:0:0:
448,192,16218,1,0,0:0:0:0:
192,192,16218,1,0,0:0:0:0:
64,192,16312,1,0,0:0:0:0:
320,192,16406,1,0,0:0:0:0:
192,192,16593,1,0,0:0:0:0:
64,192,16593,1,0,0:0:0:0:
320,192,16593,1,0,0:0:0:0:
320,192,16781,1,0,0:0:0:0:
448,192,16781,1,0,0:0:0:0:
320,192,16968,1,0,0:0:0:0:
192,192,16968,1,0,0:0:0:0:
64,192,17156,1,0,0:0:0:0:
192,192,17156,1,0,0:0:0:0:
448,192,17156,1,0,0:0:0:0:
320,192,17343,1,0,0:0:0:0:
192,192,17343,1,0,0:0:0:0:
64,192,17531,1,0,0:0:0:0:
320,192,17531,1,0,0:0:0:0:
448,192,17531,1,0,0:0:0:0:
64,192,17718,128,0,18093:0:0:0:0:
448,192,17718,128,0,18093:0:0:0:0:
320,192,18093,1,0,0:0:0:0:
192,192,18093,1,0,0:0:0:0:
64,192,18281,1,0,0:0:0:0:
320,192,18281,1,0,0:0:0:0:
448,192,18375,1,0,0:0:0:0:
320,192,18468,1,0,0:0:0:0:
192,192,18468,1,0,0:0:0:0:
64,192,18562,1,0,0:0:0:0:
192,192,18656,1,0,0:0:0:0:
320,192,18750,1,0,0:0:0:0:
448,192,18843,1,0,0:0:0:0:
320,192,18937,1,0,0:0:0:0:
64,192,19031,1,0,0:0:0:0:
192,192,19031,1,0,0:0:0:0:
64,192,19218,1,0,0:0:0:0:
192,192,19218,1,0,0:0:0:0:
320,192,19312,1,0,0:0:0:0:
448,192,19406,1,0,0:0:0:0:
64,192,19500,1,0,0:0:0:0:
320,192,19593,1,0,0:0:0:0:
192,192,19593,1,0,0:0:0:0:
448,192,19593,1,0,0:0:0:0:
64,192,19687,1,0,0:0:0:0:
192,192,19781,1,0,0:0:0:0:
320,192,19875,1,0,0:0:0:0:
192,192,19968,1,0,0:0:0:0:
64,192,19968,1,0,0:0:0:0:
448,192,20062,1,0,0:0:0:0:
320,192,20156,1,0,0:0:0:0:
192,192,20250,1,0,0:0:0:0:
64,192,20343,1,0,0:0:0:0:
448,192,20343,1,0,0:0:0:0:
320,192,20437,1,0,0:0:0:0:
448,192,20531,1,0,0:0:0:0:
64,192,20531,1,0,0:0:0:0:
192,192,20625,1,0,0:0:0:0:
320,192,20718,1,0,0:0:0:0:
448,192,20812,1,0,0:0:0:0:
64,192,20812,1,0,0:0:0:0:
192,192,20906,1,0,0:0:0:0:
320,192,21000,1,0,0:0:0:0:
192,192,21093,1,0,0:0:0:0:
320,192,21187,1,0,0:0:0:0:
448,192,21281,1,0,0:0:0:0:
64,192,21281,1,0,0:0:0:0:
192,192,21375,1,0,0:0:0:0:
320,192,21468,1,0,0:0:0:0:
448,192,21562,1,0,0:0:0:0:
64,192,21562,1,0,0:0:0:0:
192,192,21656,1,0,0:0:0:0:
320,192,21750,1,0,0:0:0:0:
448,192,21843,1,0,0:0:0:0:
64,192,21843,1,0,0:0:0:0:
192,192,21937,1,0,0:0:0:0:
320,192,22031,1,0,0:0:0:0:
448,192,22125,1,0,0:0:0:0:
64,192,22125,1,0,0:0:0:0:
192,192,22218,1,0,0:0:0:0:
320,192,22312,1,0,0:0:0:0:
448,192,22406,1,0,0:0:0:0:
64,192,22406,1,0,0:0:0:0:
192,192,22500,1,0,0:0:0:0:
320,192,22593,1,0,0:0:0:0:
448,192,22593,1,0,0:0:0:0:
192,192,22687,1,0,0:0:0:0:
64,192,22687,1,0,0:0:0:0:
320,192,22781,1,0,0:0:0:0:
448,192,22781,1,0,0:0:0:0:
192,192,22875,1,0,0:0:0:0:
64,192,22875,1,0,0:0:0:0:
320,192,22968,1,0,0:0:0:0:
448,192,22968,1,0,0:0:0:0:
192,192,23062,1,0,0:0:0:0:
64,192,23062,1,0,0:0:0:0:
320,192,23156,1,0,0:0:0:0:
448,192,23156,1,0,0:0:0:0:
192,192,23250,1,0,0:0:0:0:
64,192,23250,1,0,0:0:0:0:
320,192,23343,1,0,0:0:0:0:
448,192,23390,1,0,0:0:0:0:
192,192,23437,1,0,0:0:0:0:
64,192,23483,1,0,0:0:0:0:
320,192,23531,1,0,0:0:0:0:
448,192,23577,1,0,0:0:0:0:
192,192,23625,1,0,0:0:0:0:
64,192,23671,1,0,0:0:0:0:
320,192,23718,1,0,0:0:0:0:
448,192,23765,1,0,0:0:0:0:
192,192,23812,1,0,0:0:0:0:
64,192,23858,1,0,0:0:0:0:
320,192,23906,1,0,0:0:0:0:
448,192,23952,1,0,0:0:0:0:
192,192,24000,1,0,0:0:0:0:
64,192,24046,1,0,0:0:0:0:
320,192,24093,1,0,0:0:0:0:
448,192,24140,1,0,0:0:0:0:
64,192,25593,1,0,0:0:0:0:
192,192,25593,1,0,0:0:0:0:
448,192,25593,1,0,0:0:0:0:
320,192,25593,128,0,25781:0:0:0:0:
448,192,25968,1,0,0:0:0:0:
192,192,25968,1,0,0:0:0:0:
64,192,25968,128,0,26156:0:0:0:0:
320,192,26156,1,0,0:0:0:0:
64,192,26343,1,0,0:0:0:0:
320,192,26343,1,0,0:0:0:0:
448,192,26343,128,0,26531:0:0:0:0:
192,192,26531,1,0,0:0:0:0:
192,192,26718,1,0,0:0:0:0:
320,192,26718,1,0,0:0:0:0:
448,192,26718,1,0,0:0:0:0:
64,192,26718,128,0,26906:0:0:0:0:
320,192,27093,1,0,0:0:0:0:
192,192,27093,1,0,0:0:0:0:
64,192,27093,1,0,0:0:0:0:
448,192,27093,128,0,27281:0:0:0:0:
192,192,27468,1,0,0:0:0:0:
448,192,27468,1,0,0:0:0:0:
320,192,27468,128,0,27656:0:0:0:0:
320,192,27843,1,0,0:0:0:0:
192,192,27843,1,0,0:0:0:0:
64,192,27843,1,0,0:0:0:0:
448,192,27843,128,0,28031:0:0:0:0:
192,192,28031,1,0,0:0:0:0:
320,192,28218,1,0,0:0:0:0:
192,192,28218,1,0,0:0:0:0:
448,192,28218,1,0,0:0:0:0:
64,192,28218,128,0,28406:0:0:0:0:
320,192,28593,1,0,0:0:0:0:
192,192,28593,1,0,0:0:0:0:
64,192,28593,128,0,28781:0:0:0:0:
64,192,28968,1,0,0:0:0:0:
448,192,28968,1,0,0:0:0:0:
320,192,28968,128,0,29156:0:0:0:0:
320,192,29343,1,0,0:0:0:0:
448,192,29343,1,0,0:0:0:0:
192,192,29343,128,0,29531:0:0:0:0:
320,192,29531,1,0,0:0:0:0:
192,192,29718,1,0,0:0:0:0:
64,192,29718,1,0,0:0:0:0:
320,192,29718,128,0,29906:0:0:0:0:
192,192,30093,1,0,0:0:0:0:
320,192,30093,1,0,0:0:0:0:
448,192,30093,1,0,0:0:0:0:
64,192,30093,128,0,30281:0:0:0:0:
192,192,30281,1,0,0:0:0:0:
320,192,30281,1,0,0:0:0:0:
64,192,30468,1,0,0:0:0:0:
192,192,30468,1,0,0:0:0:0:
448,192,30468,1,0,0:0:0:0:
192,192,30656,1,0,0:0:0:0:
320,192,30843,1,0,0:0:0:0:
64,192,30843,1,0,0:0:0:0:
192,192,30843,1,0,0:0:0:0:
448,192,31031,1,0,0:0:0:0:
320,192,31031,1,0,0:0:0:0:
192,192,31031,1,0,0:0:0:0:
192,192,31218,1,0,0:0:0:0:
320,192,31218,1,0,0:0:0:0:
64,192,31218,128,0,31406:0:0:0:0:
64,192,31593,1,0,0:0:0:0:
320,192,31593,1,0,0:0:0:0:
448,192,31593,1,0,0:0:0:0:
192,192,31593,128,0,31781:0:0:0:0:
448,192,31968,1,0,0:0:0:0:
320,192,31968,1,0,0:0:0:0:
192,192,31968,1,0,0:0:0:0:
64,192,31968,128,0,32156:0:0:0:0:
64,192,32343,1,0,0:0:0:0:
320,192,32343,1,0,0:0:0:0:
192,192,32343,128,0,32531:0:0:0:0:
448,192,32531,1,0,0:0:0:0:
320,192,32718,1,0,0:0:0:0:
192,192,32718,1,0,0:0:0:0:
64,192,32718,128,0,32906:0:0:0:0:
320,192,33093,1,0,0:0:0:0:
448,192,33093,1,0,0:0:0:0:
192,192,33093,128,0,33281:0:0:0:0:
192,192,33468,1,0,0:0:0:0:
64,192,33468,1,0,0:0:0:0:
320,192,33468,128,0,33656:0:0:0:0:
320,192,33843,1,0,0:0:0:0:
192,192,33843,1,0,0:0:0:0:
448,192,33843,1,0,0:0:0:0:
192,192,34031,1,0,0:0:0:0:
320,192,34218,1,0,0:0:0:0:
64,192,34218,1,0,0:0:0:0:
448,192,34218,128,0,34406:0:0:0:0:
192,192,34593,1,0,0:0:0:0:
320,192,34593,1,0,0:0:0:0:
64,192,34593,128,0,34781:0:0:0:0:
192,192,34968,1,0,0:0:0:0:
64,192,34968,1,0,0:0:0:0:
320,192,34968,128,0,35156:0:0:0:0:
448,192,35343,1,0,0:0:0:0:
320,192,35343,1,0,0:0:0:0:
64,192,35343,128,0,35531:0:0:0:0:
192,192,35531,1,0,0:0:0:0:
192,192,35718,1,0,0:0:0:0:
448,192,35718,1,0,0:0:0:0:
320,192,35718,128,0,35906:0:0:0:0:
320,192,36093,1,0,0:0:0:0:
192,192,36093,1,0,0:0:0:0:
64,192,36093,128,0,36281:0:0:0:0:
448,192,36281,128,0,36468:0:0:0:0:
320,192,36468,128,0,36656:0:0:0:0:
64,192,36468,1,0,0:0:0:0:
192,192,36468,1,0,0:0:0:0:
192,192,36656,128,0,36937:0:0:0:0:
448,192,36937,1,0,0:0:0:0:
320,192,36937,1,0,0:0:0:0:
64,192,36937,1,0,0:0:0:0:
320,192,37312,1,0,0:0:0:0:
192,192,37312,1,0,0:0:0:0:
64,192,37312,1,0,0:0:0:0:
448,192,37312,1,0,0:0:0:0:
64,192,37593,1,0,0:0:0:0:
320,192,37593,1,0,0:0:0:0:
192,192,37593,128,0,37781:0:0:0:0:
448,192,37781,1,0,0:0:0:0:
320,192,37968,1,0,0:0:0:0:
192,192,37968,1,0,0:0:0:0:
448,192,37968,128,0,38156:0:0:0:0:
64,192,38156,1,0,0:0:0:0:
192,192,38343,1,0,0:0:0:0:
320,192,38343,1,0,0:0:0:0:
448,192,38343,128,0,38531:0:0:0:0:
192,192,38531,1,0,0:0:0:0:
192,192,38718,1,0,0:0:0:0:
448,192,38718,1,0,0:0:0:0:
320,192,38718,128,0,38906:0:0:0:0:
448,192,38906,1,0,0:0:0:0:
320,192,39093,1,0,0:0:0:0:
64,192,39093,1,0,0:0:0:0:
192,192,39093,128,0,39281:0:0:0:0:
64,192,39281,1,0,0:0:0:0:
192,192,39468,1,0,0:0:0:0:
320,192,39468,1,0,0:0:0:0:
448,192,39468,128,0,39656:0:0:0:0:
64,192,39656,1,0,0:0:0:0:
192,192,39843,1,0,0:0:0:0:
320,192,39843,1,0,0:0:0:0:
64,192,39843,128,0,40031:0:0:0:0:
320,192,40031,1,0,0:0:0:0:
64,192,40218,1,0,0:0:0:0:
192,192,40218,1,0,0:0:0:0:
448,192,40218,1,0,0:0:0:0:
320,192,40218,128,0,40593:0:0:0:0:
192,192,40593,1,0,0:0:0:0:
64,192,40593,1,0,0:0:0:0:
448,192,40593,1,0,0:0:0:0:
64,192,40781,1,0,0:0:0:0:
192,192,40781,1,0,0:0:0:0:
192,192,40968,1,0,0:0:0:0:
320,192,40968,1,0,0:0:0:0:
448,192,40968,1,0,0:0:0:0:
64,192,40968,128,0,41156:0:0:0:0:
448,192,41156,1,0,0:0:0:0:
320,192,41343,1,0,0:0:0:0:
192,192,41343,1,0,0:0:0:0:
192,192,41531,1,0,0:0:0:0:
320,192,41531,1,0,0:0:0:0:
448,192,41718,1,0,0:0:0:0:
64,192,41718,1,0,0:0:0:0:
192,192,41718,128,0,41906:0:0:0:0:
320,192,41718,128,0,41906:0:0:0:0:
64,192,42093,1,0,0:0:0:0:
320,192,42093,1,0,0:0:0:0:
192,192,42093,128,0,42281:0:0:0:0:
448,192,42281,1,0,0:0:0:0:
192,192,42468,1,0,0:0:0:0:
320,192,42468,1,0,0:0:0:0:
448,192,42468,128,0,42656:0:0:0:0:
64,192,42656,128,0,42843:0:0:0:0:
448,192,42843,1,0,0:0:0:0:
320,192,42843,1,0,0:0:0:0:
192,192,42843,128,0,43031:0:0:0:0:
448,192,43031,1,0,0:0:0:0:
320,192,43031,128,0,43218:0:0:0:0:
64,192,43218,1,0,0:0:0:0:
192,192,43218,1,0,0:0:0:0:
448,192,43218,128,0,43406:0:0:0:0:
320,192,43406,1,0,0:0:0:0:
448,192,43593,1,0,0:0:0:0:
192,192,43593,1,0,0:0:0:0:
64,192,43781,1,0,0:0:0:0:
192,192,43968,1,0,0:0:0:0:
320,192,43968,1,0,0:0:0:0:
448,192,43968,128,0,44156:0:0:0:0:
192,192,44156,1,0,0:0:0:0:
320,192,44156,1,0,0:0:0:0:
448,192,44343,1,0,0:0:0:0:
320,192,44343,1,0,0:0:0:0:
64,192,44343,128,0,44531:0:0:0:0:
192,192,44531,1,0,0:0:0:0:
320,192,44531,1,0,0:0:0:0:
192,192,44718,1,0,0:0:0:0:
64,192,44718,1,0,0:0:0:0:
320,192,44718,128,0,45093:0:0:0:0:
448,192,45093,1,0,0:0:0:0:
192,192,45093,1,0,0:0:0:0:
64,192,45093,1,0,0:0:0:0:
448,192,45281,1,0,0:0:0:0:
192,192,45281,1,0,0:0:0:0:
320,192,45468,1,0,0:0:0:0:
192,192,45468,1,0,0:0:0:0:
320,192,45656,1,0,0:0:0:0:
192,192,45656,1,0,0:0:0:0:
320,192,45843,1,0,0:0:0:0:
448,192,45843,1,0,0:0:0:0:
320,192,46031,1,0,0:0:0:0:
192,192,46031,1,0,0:0:0:0:
192,192,46218,1,0,0:0:0:0:
64,192,46218,1,0,0:0:0:0:
320,192,46218,128,0,46593:0:0:0:0:
192,192,46593,1,0,0:0:0:0:
448,192,46593,1,0,0:0:0:0:
192,192,46781,1,0,0:0:0:0:
64,192,46781,1,0,0:0:0:0:
448,192,46968,1,0,0:0:0:0:
320,192,46968,1,0,0:0:0:0:
448,192,47156,1,0,0:0:0:0:
192,192,47156,1,0,0:0:0:0:
64,192,47343,1,0,0:0:0:0:
192,192,47343,1,0,0:0:0:0:
320,192,47531,1,0,0:0:0:0:
64,192,47531,1,0,0:0:0:0:
448,192,47718,1,0,0:0:0:0:
192,192,47718,1,0,0:0:0:0:
448,192,47906,1,0,0:0:0:0:
64,192,47906,1,0,0:0:0:0:
192,192,48093,1,0,0:0:0:0:
320,192,48093,1,0,0:0:0:0:
64,192,48187,1,0,0:0:0:0:
448,192,48187,1,0,0:0:0:0:
320,192,48281,1,0,0:0:0:0:
192,192,48281,1,0,0:0:0:0:
64,192,48375,1,0,0:0:0:0:
448,192,48375,1,0,0:0:0:0:
192,192,48468,1,0,0:0:0:0:
320,192,48468,1,0,0:0:0:0:
64,192,48656,1,0,0:0:0:0:
448,192,48656,1,0,0:0:0:0:
448,192,48843,1,0,0:0:0:0:
64,192,48843,1,0,0:0:0:0:
192,192,48937,128,0,49312:0:0:0:0:
320,192,48937,128,0,49312:0:0:0:0:
64,192,49312,128,0,49593:0:0:0:0:
448,192,49312,128,0,49593:0:0:0:0:
64,192,61687,5,0,0:0:0:0:
320,192,61687,1,0,0:0:0:0:
448,192,61687,1,0,0:0:0:0:
192,192,61781,1,0,0:0:0:0:
320,192,61875,1,0,0:0:0:0:
448,192,61968,1,0,0:0:0:0:
192,192,62062,1,0,0:0:0:0:
320,192,62156,1,0,0:0:0:0:
64,192,62250,1,0,0:0:0:0:
192,192,62343,1,0,0:0:0:0:
320,192,62437,1,0,0:0:0:0:
448,192,62437,1,0,0:0:0:0:
64,192,62531,1,0,0:0:0:0:
192,192,62625,1,0,0:0:0:0:
448,192,62718,1,0,0:0:0:0:
320,192,62718,1,0,0:0:0:0:
64,192,62718,1,0,0:0:0:0:
192,192,62812,1,0,0:0:0:0:
320,192,62906,1,0,0:0:0:0:
448,192,63000,1,0,0:0:0:0:
64,192,63093,1,0,0:0:0:0:
320,192,63093,1,0,0:0:0:0:
192,192,63281,1,0,0:0:0:0:
448,192,63468,1,0,0:0:0:0:
64,192,63468,1,0,0:0:0:0:
320,192,63562,1,0,0:0:0:0:
192,192,63656,1,0,0:0:0:0:
64,192,63750,1,0,0:0:0:0:
320,192,63843,1,0,0:0:0:0:
192,192,63843,1,0,0:0:0:0:
448,192,63937,1,0,0:0:0:0:
320,192,64031,1,0,0:0:0:0:
192,192,64125,1,0,0:0:0:0:
448,192,64218,1,0,0:0:0:0:
64,192,64218,1,0,0:0:0:0:
320,192,64218,1,0,0:0:0:0:
192,192,64312,1,0,0:0:0:0:
320,192,64406,1,0,0:0:0:0:
448,192,64500,1,0,0:0:0:0:
192,192,64593,1,0,0:0:0:0:
64,192,64593,1,0,0:0:0:0:
320,192,64687,1,0,0:0:0:0:
448,192,64781,1,0,0:0:0:0:
192,192,64781,1,0,0:0:0:0:
64,192,64875,1,0,0:0:0:0:
320,192,64968,1,0,0:0:0:0:
448,192,64968,1,0,0:0:0:0:
192,192,65062,1,0,0:0:0:0:
64,192,65156,1,0,0:0:0:0:
320,192,65156,1,0,0:0:0:0:
448,192,65250,1,0,0:0:0:0:
320,192,65343,1,0,0:0:0:0:
448,192,65437,1,0,0:0:0:0:
64,192,65531,1,0,0:0:0:0:
320,192,65531,1,0,0:0:0:0:
192,192,65625,1,0,0:0:0:0:
320,192,65718,1,0,0:0:0:0:
448,192,65718,1,0,0:0:0:0:
64,192,65718,1,0,0:0:0:0:
64,192,66093,1,0,0:0:0:0:
320,192,66093,1,0,0:0:0:0:
192,192,66187,1,0,0:0:0:0:
320,192,66281,1,0,0:0:0:0:
448,192,66375,1,0,0:0:0:0:
192,192,66468,1,0,0:0:0:0:
64,192,66468,1,0,0:0:0:0:
320,192,66562,1,0,0:0:0:0:
448,192,66656,1,0,0:0:0:0:
320,192,66750,1,0,0:0:0:0:
192,192,66750,1,0,0:0:0:0:
64,192,66750,1,0,0:0:0:0:
448,192,66843,1,0,0:0:0:0:
320,192,66937,1,0,0:0:0:0:
192,192,67031,1,0,0:0:0:0:
64,192,67031,1,0,0:0:0:0:
448,192,67125,1,0,0:0:0:0:
320,192,67218,1,0,0:0:0:0:
64,192,67218,1,0,0:0:0:0:
192,192,67312,1,0,0:0:0:0:
64,192,67406,1,0,0:0:0:0:
192,192,67500,1,0,0:0:0:0:
320,192,67593,1,0,0:0:0:0:
448,192,67593,1,0,0:0:0:0:
192,192,67687,1,0,0:0:0:0:
64,192,67781,1,0,0:0:0:0:
192,192,67875,1,0,0:0:0:0:
320,192,67875,1,0,0:0:0:0:
448,192,67968,1,0,0:0:0:0:
64,192,67968,1,0,0:0:0:0:
192,192,68062,1,0,0:0:0:0:
320,192,68156,1,0,0:0:0:0:
448,192,68250,1,0,0:0:0:0:
64,192,68250,1,0,0:0:0:0:
320,192,68343,1,0,0:0:0:0:
192,192,68343,1,0,0:0:0:0:
64,192,68437,1,0,0:0:0:0:
192,192,68531,1,0,0:0:0:0:
320,192,68625,1,0,0:0:0:0:
448,192,68625,1,0,0:0:0:0:
192,192,68718,1,0,0:0:0:0:
64,192,68812,1,0,0:0:0:0:
320,192,68812,1,0,0:0:0:0:
448,192,68906,1,0,0:0:0:0:
320,192,69000,1,0,0:0:0:0:
192,192,69093,1,0,0:0:0:0:
64,192,69093,1,0,0:0:0:0:
320,192,69187,1,0,0:0:0:0:
448,192,69281,1,0,0:0:0:0:
192,192,69281,1,0,0:0:0:0:
64,192,69375,1,0,0:0:0:0:
192,192,69468,1,0,0:0:0:0:
320,192,69562,1,0,0:0:0:0:
448,192,69562,1,0,0:0:0:0:
192,192,69656,1,0,0:0:0:0:
64,192,69750,1,0,0:0:0:0:
320,192,69750,1,0,0:0:0:0:
448,192,69843,1,0,0:0:0:0:
192,192,69843,1,0,0:0:0:0:
64,192,69937,1,0,0:0:0:0:
192,192,70031,1,0,0:0:0:0:
320,192,70125,1,0,0:0:0:0:
448,192,70218,1,0,0:0:0:0:
192,192,70218,1,0,0:0:0:0:
64,192,70218,1,0,0:0:0:0:
320,192,70312,1,0,0:0:0:0:
192,192,70406,1,0,0:0:0:0:
64,192,70500,1,0,0:0:0:0:
192,192,70593,1,0,0:0:0:0:
320,192,70593,1,0,0:0:0:0:
448,192,70593,1,0,0:0:0:0:
64,192,70687,1,0,0:0:0:0:
192,192,70781,1,0,0:0:0:0:
320,192,70875,1,0,0:0:0:0:
448,192,70968,1,0,0:0:0:0:
64,192,70968,1,0,0:0:0:0:
320,192,71062,1,0,0:0:0:0:
448,192,71156,1,0,0:0:0:0:
192,192,71156,1,0,0:0:0:0:
64,192,71250,1,0,0:0:0:0:
320,192,71250,1,0,0:0:0:0:
192,192,71343,1,0,0:0:0:0:
64,192,71437,1,0,0:0:0:0:
448,192,71437,1,0,0:0:0:0:
320,192,71437,1,0,0:0:0:0:
192,192,71531,1,0,0:0:0:0:
320,192,71625,1,0,0:0:0:0:
448,192,71718,1,0,0:0:0:0:
64,192,71718,1,0,0:0:0:0:
320,192,71812,1,0,0:0:0:0:
192,192,71906,1,0,0:0:0:0:
64,192,72000,1,0,0:0:0:0:
320,192,72000,1,0,0:0:0:0:
320,192,72187,1,0,0:0:0:0:
448,192,72187,1,0,0:0:0:0:
192,192,72187,1,0,0:0:0:0:
64,192,72187,1,0,0:0:0:0:
64,192,73687,128,0,73968:0:0:0:0:
192,192,73687,1,0,0:0:0:0:
64,192,74062,128,0,74437:0:0:0:0:
320,192,74062,1,0,0:0:0:0:
192,192,74437,128,0,74812:0:0:0:0:
448,192,74437,1,0,0:0:0:0:
64,192,74812,1,0,0:0:0:0:
320,192,74812,1,0,0:0:0:0:
448,192,74812,128,0,75187:0:0:0:0:
64,192,75187,128,0,75468:0:0:0:0:
192,192,75187,1,0,0:0:0:0:
64,192,75562,128,0,75750:0:0:0:0:
448,192,75562,1,0,0:0:0:0:
192,192,75750,128,0,75937:0:0:0:0:
320,192,75937,1,0,0:0:0:0:
448,192,75937,128,0,76312:0:0:0:0:
64,192,76312,128,0,76687:0:0:0:0:
192,192,76312,1,0,0:0:0:0:
320,192,76312,1,0,0:0:0:0:
192,192,76687,128,0,77062:0:0:0:0:
320,192,77062,1,0,0:0:0:0:
64,192,77062,1,0,0:0:0:0:
448,192,77062,128,0,77437:0:0:0:0:
64,192,77437,128,0,77718:0:0:0:0:
320,192,77437,1,0,0:0:0:0:
64,192,77812,128,0,78187:0:0:0:0:
192,192,77812,1,0,0:0:0:0:
448,192,77812,1,0,0:0:0:0:
192,192,78187,128,0,78562:0:0:0:0:
448,192,78187,1,0,0:0:0:0:
448,192,78562,128,0,78937:0:0:0:0:
64,192,78562,1,0,0:0:0:0:
320,192,78937,128,0,79312:0:0:0:0:
192,192,78937,128,0,79312:0:0:0:0:
64,192,78937,1,0,0:0:0:0:
448,192,79312,128,0,79687:0:0:0:0:
64,192,79687,128,0,79968:0:0:0:0:
192,192,79687,1,0,0:0:0:0:
320,192,79687,1,0,0:0:0:0:
64,192,80062,128,0,80437:0:0:0:0:
320,192,80062,128,0,80437:0:0:0:0:
448,192,80062,128,0,80437:0:0:0:0:
192,192,80437,128,0,80812:0:0:0:0:
448,192,80812,128,0,81187:0:0:0:0:
320,192,80812,1,0,0:0:0:0:
64,192,81187,128,0,81468:0:0:0:0:
192,192,81187,1,0,0:0:0:0:
64,192,81562,128,0,81750:0:0:0:0:
192,192,81750,128,0,81937:0:0:0:0:
448,192,81937,128,0,82312:0:0:0:0:
320,192,82312,128,0,82687:0:0:0:0:
64,192,82312,1,0,0:0:0:0:
192,192,82312,128,0,82687:0:0:0:0:
448,192,82687,128,0,82968:0:0:0:0:
448,192,83062,128,0,83437:0:0:0:0:
64,192,83062,1,0,0:0:0:0:
192,192,83062,1,0,0:0:0:0:
320,192,83062,1,0,0:0:0:0:
64,192,83437,128,0,83812:0:0:0:0:
448,192,83812,128,0,84187:0:0:0:0:
320,192,84187,128,0,84468:0:0:0:0:
192,192,84187,1,0,0:0:0:0:
320,192,84562,128,0,84750:0:0:0:0:
192,192,84750,128,0,84937:0:0:0:0:
448,192,84937,128,0,85312:0:0:0:0:
320,192,85312,128,0,85687:0:0:0:0:
192,192,85312,1,0,0:0:0:0:
448,192,85687,128,0,85968:0:0:0:0:
64,192,85687,1,0,0:0:0:0:
320,192,85968,1,0,0:0:0:0:
192,192,85968,1,0,0:0:0:0:
64,192,86437,128,0,86812:0:0:0:0:
192,192,86437,1,0,0:0:0:0:
320,192,86437,1,0,0:0:0:0:
320,192,86812,128,0,87187:0:0:0:0:
192,192,86812,1,0,0:0:0:0:
192,192,87187,128,0,87562:0:0:0:0:
64,192,87187,1,0,0:0:0:0:
448,192,87562,128,0,87937:0:0:0:0:
320,192,87562,1,0,0:0:0:0:
320,192,87937,128,0,88312:0:0:0:0:
192,192,87937,1,0,0:0:0:0:
192,192,88312,128,0,88593:0:0:0:0:
448,192,88312,1,0,0:0:0:0:
192,192,88687,128,0,88968:0:0:0:0:
448,192,88687,1,0,0:0:0:0:
192,192,89062,128,0,89437:0:0:0:0:
320,192,89062,1,0,0:0:0:0:
64,192,89437,128,0,89812:0:0:0:0:
320,192,89437,1,0,0:0:0:0:
192,192,89812,128,0,90187:0:0:0:0:
320,192,90187,128,0,90562:0:0:0:0:
448,192,90187,1,0,0:0:0:0:
64,192,90562,128,0,90937:0:0:0:0:
192,192,90562,1,0,0:0:0:0:
320,192,90937,128,0,91312:0:0:0:0:
448,192,90937,1,0,0:0:0:0:
192,192,91312,128,0,91687:0:0:0:0:
64,192,91312,1,0,0:0:0:0:
448,192,91687,128,0,92062:0:0:0:0:
320,192,91687,1,0,0:0:0:0:
64,192,91687,1,0,0:0:0:0:
448,192,92437,128,0,92812:0:0:0:0:
320,192,92437,1,0,0:0:0:0:
192,192,92437,1,0,0:0:0:0:
320,192,92812,128,0,93093:0:0:0:0:
192,192,92812,1,0,0:0:0:0:
320,192,93187,128,0,93468:0:0:0:0:
192,192,93187,1,0,0:0:0:0:
320,192,93562,128,0,93937:0:0:0:0:
192,192,93562,1,0,0:0:0:0:
192,192,93937,128,0,94312:0:0:0:0:
64,192,93937,1,0,0:0:0:0:
448,192,94312,128,0,94500:0:0:0:0:
320,192,94500,128,0,94687:0:0:0:0:
64,192,94687,128,0,94968:0:0:0:0:
192,192,94687,1,0,0:0:0:0:
64,192,95062,128,0,95437:0:0:0:0:
192,192,95437,128,0,95718:0:0:0:0:
320,192,95437,1,0,0:0:0:0:
192,192,95812,128,0,96187:0:0:0:0:
64,192,95812,1,0,0:0:0:0:
320,192,96187,128,0,96562:0:0:0:0:
448,192,96187,1,0,0:0:0:0:
64,192,96187,1,0,0:0:0:0:
192,192,96562,128,0,96937:0:0:0:0:
64,192,96562,1,0,0:0:0:0:
320,192,96937,128,0,97312:0:0:0:0:
448,192,96937,1,0,0:0:0:0:
448,192,97312,128,0,97687:0:0:0:0:
192,192,97312,1,0,0:0:0:0:
64,192,97687,1,0,0:0:0:0:
192,192,97687,1,0,0:0:0:0:
320,192,97687,1,0,0:0:0:0:
64,192,98062,1,0,0:0:0:0:
448,192,98062,128,0,98437:0:0:0:0:
64,192,98437,1,0,0:0:0:0:
320,192,98437,128,0,98812:0:0:0:0:
64,192,98812,1,0,0:0:0:0:
448,192,98812,128,0,99187:0:0:0:0:
64,192,99187,1,0,0:0:0:0:
320,192,99187,128,0,99562:0:0:0:0:
64,192,99562,1,0,0:0:0:0:
448,192,99562,128,0,99937:0:0:0:0:
64,192,99937,1,0,0:0:0:0:
320,192,99937,128,0,100218:0:0:0:0:
64,192,100312,1,0,0:0:0:0:
320,192,100312,128,0,100687:0:0:0:0:
64,192,100687,1,0,0:0:0:0:
448,192,100687,128,0,100968:0:0:0:0:
64,192,101062,1,0,0:0:0:0:
448,192,101062,128,0,101437:0:0:0:0:
64,192,101437,1,0,0:0:0:0:
320,192,101437,128,0,101531:0:0:0:0:
320,192,101625,128,0,101718:0:0:0:0:
64,192,101812,1,0,0:0:0:0:
320,192,101812,128,0,102187:0:0:0:0:
64,192,102187,1,0,0:0:0:0:
448,192,102187,128,0,102468:0:0:0:0:
64,192,102562,1,0,0:0:0:0:
448,192,102562,128,0,102937:0:0:0:0:
64,192,102937,1,0,0:0:0:0:
320,192,102937,128,0,103312:0:0:0:0:
64,192,103312,1,0,0:0:0:0:
448,192,103312,128,0,103687:0:0:0:0:
64,192,103687,1,0,0:0:0:0:
320,192,103687,128,0,103968:0:0:0:0:
64,192,104062,1,0,0:0:0:0:
320,192,104062,128,0,104437:0:0:0:0:
64,192,104437,1,0,0:0:0:0:
448,192,104437,128,0,104718:0:0:0:0:
64,192,104812,1,0,0:0:0:0:
448,192,104812,128,0,105187:0:0:0:0:
64,192,105187,1,0,0:0:0:0:
320,192,105187,128,0,105281:0:0:0:0:
320,192,105375,128,0,105468:0:0:0:0:
64,192,105562,1,0,0:0:0:0:
320,192,105562,128,0,105937:0:0:0:0:
64,192,105937,1,0,0:0:0:0:
448,192,105937,128,0,106312:0:0:0:0:
64,192,106312,1,0,0:0:0:0:
320,192,106312,128,0,106687:0:0:0:0:
64,192,106687,1,0,0:0:0:0:
448,192,106687,128,0,106781:0:0:0:0:
448,192,106875,128,0,106968:0:0:0:0:
64,192,107062,1,0,0:0:0:0:
320,192,107062,128,0,107156:0:0:0:0:
320,192,107250,128,0,107343:0:0:0:0:
64,192,107437,1,0,0:0:0:0:
448,192,107437,128,0,107531:0:0:0:0:
448,192,107625,128,0,107718:0:0:0:0:
64,192,107812,1,0,0:0:0:0:
320,192,107812,128,0,107906:0:0:0:0:
320,192,108000,128,0,108562:0:0:0:0:
64,192,108187,1,0,0:0:0:0:
64,192,108562,1,0,0:0:0:0:
64,192,108937,1,0,0:0:0:0:
448,192,108937,128,0,109218:0:0:0:0:
320,192,108937,128,0,109218:0:0:0:0:
64,192,109312,1,0,0:0:0:0:
320,192,109312,128,0,109500:0:0:0:0:
448,192,109312,128,0,109500:0:0:0:0:
320,192,109687,1,0,0:0:0:0:
448,192,109687,1,0,0:0:0:0:
192,192,109687,1,0,0:0:0:0:
64,192,109781,1,0,0:0:0:0:
192,192,109875,1,0,0:0:0:0:
320,192,109968,1,0,0:0:0:0:
448,192,110062,1,0,0:0:0:0:
320,192,110156,1,0,0:0:0:0:
64,192,110250,1,0,0:0:0:0:
192,192,110343,1,0,0:0:0:0:
320,192,110437,1,0,0:0:0:0:
192,192,110531,1,0,0:0:0:0:
64,192,110625,1,0,0:0:0:0:
448,192,110625,1,0,0:0:0:0:
192,192,110718,1,0,0:0:0:0:
320,192,110812,1,0,0:0:0:0:
64,192,110906,1,0,0:0:0:0:
448,192,111000,1,0,0:0:0:0:
192,192,111000,1,0,0:0:0:0:
320,192,111093,1,0,0:0:0:0:
192,192,111187,1,0,0:0:0:0:
64,192,111281,1,0,0:0:0:0:
192,192,111375,1,0,0:0:0:0:
320,192,111468,1,0,0:0:0:0:
448,192,111562,1,0,0:0:0:0:
320,192,111656,1,0,0:0:0:0:
64,192,111656,1,0,0:0:0:0:
448,192,111750,1,0,0:0:0:0:
192,192,111750,1,0,0:0:0:0:
320,192,111843,1,0,0:0:0:0:
192,192,111937,1,0,0:0:0:0:
64,192,112031,1,0,0:0:0:0:
192,192,112125,1,0,0:0:0:0:
448,192,112125,1,0,0:0:0:0:
320,192,112218,1,0,0:0:0:0:
64,192,112312,1,0,0:0:0:0:
448,192,112312,1,0,0:0:0:0:
192,192,112406,1,0,0:0:0:0:
320,192,112500,1,0,0:0:0:0:
448,192,112593,1,0,0:0:0:0:
64,192,112593,1,0,0:0:0:0:
320,192,112687,1,0,0:0:0:0:
192,192,112687,1,0,0:0:0:0:
448,192,112781,1,0,0:0:0:0:
320,192,112875,1,0,0:0:0:0:
192,192,112968,1,0,0:0:0:0:
64,192,113062,1,0,0:0:0:0:
320,192,113062,1,0,0:0:0:0:
448,192,113156,1,0,0:0:0:0:
320,192,113250,1,0,0:0:0:0:
64,192,113250,1,0,0:0:0:0:
448,192,113343,1,0,0:0:0:0:
192,192,113343,1,0,0:0:0:0:
64,192,113437,1,0,0:0:0:0:
192,192,113531,1,0,0:0:0:0:
320,192,113531,1,0,0:0:0:0:
448,192,113625,1,0,0:0:0:0:
320,192,113718,1,0,0:0:0:0:
192,192,113812,1,0,0:0:0:0:
64,192,113812,1,0,0:0:0:0:
64,192,114093,1,0,0:0:0:0:
320,192,114093,1,0,0:0:0:0:
448,192,114187,1,0,0:0:0:0:
320,192,114281,1,0,0:0:0:0:
192,192,114375,1,0,0:0:0:0:
320,192,114468,1,0,0:0:0:0:
64,192,114468,1,0,0:0:0:0:
448,192,114562,1,0,0:0:0:0:
192,192,114562,1,0,0:0:0:0:
64,192,114656,1,0,0:0:0:0:
192,192,114750,1,0,0:0:0:0:
320,192,114843,1,0,0:0:0:0:
192,192,114937,1,0,0:0:0:0:
64,192,114937,1,0,0:0:0:0:
448,192,114937,1,0,0:0:0:0:
320,192,115031,1,0,0:0:0:0:
192,192,115125,1,0,0:0:0:0:
64,192,115218,1,0,0:0:0:0:
192,192,115312,1,0,0:0:0:0:
320,192,115312,1,0,0:0:0:0:
448,192,115312,1,0,0:0:0:0:
64,192,115593,1,0,0:0:0:0:
192,192,115593,1,0,0:0:0:0:
320,192,115687,1,0,0:0:0:0:
448,192,115687,1,0,0:0:0:0:
192,192,115781,1,0,0:0:0:0:
64,192,115781,1,0,0:0:0:0:
320,192,115875,1,0,0:0:0:0:
448,192,115875,1,0,0:0:0:0:
192,192,115968,1,0,0:0:0:0:
64,192,115968,1,0,0:0:0:0:
448,192,116062,1,0,0:0:0:0:
320,192,116062,1,0,0:0:0:0:
192,192,116156,1,0,0:0:0:0:
64,192,116156,1,0,0:0:0:0:
320,192,116250,1,0,0:0:0:0:
448,192,116250,1,0,0:0:0:0:
64,192,116343,1,0,0:0:0:0:
192,192,116343,1,0,0:0:0:0:
320,192,116437,1,0,0:0:0:0:
448,192,116437,1,0,0:0:0:0:
64,192,116531,1,0,0:0:0:0:
192,192,116531,1,0,0:0:0:0:
448,192,116625,1,0,0:0:0:0:
320,192,116625,1,0,0:0:0:0:
192,192,116718,1,0,0:0:0:0:
64,192,116718,1,0,0:0:0:0:
448,192,116812,1,0,0:0:0:0:
320,192,116812,1,0,0:0:0:0:
192,192,116906,1,0,0:0:0:0:
64,192,116906,1,0,0:0:0:0:
320,192,117000,1,0,0:0:0:0:
448,192,117000,1,0,0:0:0:0:
64,192,117093,1,0,0:0:0:0:
192,192,117093,1,0,0:0:0:0:
320,192,117187,1,0,0:0:0:0:
448,192,117187,1,0,0:0:0:0:
64,192,117281,1,0,0:0:0:0:
192,192,117281,1,0,0:0:0:0:
448,192,117375,1,0,0:0:0:0:
320,192,117375,1,0,0:0:0:0:
192,192,117468,1,0,0:0:0:0:
64,192,117468,1,0,0:0:0:0:
448,192,117562,1,0,0:0:0:0:
320,192,117562,1,0,0:0:0:0:
192,192,117656,1,0,0:0:0:0:
64,192,117656,1,0,0:0:0:0:
320,192,117750,1,0,0:0:0:0:
448,192,117750,1,0,0:0:0:0:
64,192,117843,1,0,0:0:0:0:
192,192,117843,1,0,0:0:0:0:
320,192,117937,1,0,0:0:0:0:
448,192,117937,1,0,0:0:0:0:
64,192,118031,1,0,0:0:0:0:
192,192,118031,1,0,0:0:0:0:
448,192,118125,1,0,0:0:0:0:
320,192,118125,1,0,0:0:0:0:
192,192,118218,1,0,0:0:0:0:
64,192,118218,1,0,0:0:0:0:
448,192,118312,1,0,0:0:0:0:
320,192,118312,1,0,0:0:0:0:
192,192,118406,1,0,0:0:0:0:
64,192,118406,1,0,0:0:0:0:
320,192,118500,1,0,0:0:0:0:
448,192,118500,1,0,0:0:0:0:
64,192,118593,1,0,0:0:0:0:
192,192,118640,1,0,0:0:0:0:
448,192,118687,1,0,0:0:0:0:
320,192,118733,1,0,0:0:0:0:
64,192,118781,1,0,0:0:0:0:
192,192,118827,1,0,0:0:0:0:
448,192,118875,1,0,0:0:0:0:
320,192,118921,1,0,0:0:0:0:
64,192,118968,1,0,0:0:0:0:
192,192,119015,1,0,0:0:0:0:
448,192,119062,1,0,0:0:0:0:
320,192,119108,1,0,0:0:0:0:
64,192,119156,1,0,0:0:0:0:
192,192,119202,1,0,0:0:0:0:
448,192,119250,1,0,0:0:0:0:
320,192,119296,1,0,0:0:0:0:
64,192,119343,1,0,0:0:0:0:
192,192,119390,1,0,0:0:0:0:
448,192,119437,1,0,0:0:0:0:
320,192,119483,1,0,0:0:0:0:
64,192,119531,1,0,0:0:0:0:
192,192,119577,1,0,0:0:0:0:
448,192,119625,1,0,0:0:0:0:
320,192,119671,1,0,0:0:0:0:
64,192,119718,1,0,0:0:0:0:
192,192,119765,1,0,0:0:0:0:
448,192,119812,1,0,0:0:0:0:
320,192,119858,1,0,0:0:0:0:
64,192,119906,1,0,0:0:0:0:
192,192,119952,1,0,0:0:0:0:
448,192,120000,1,0,0:0:0:0:
320,192,120046,1,0,0:0:0:0:
64,192,121593,128,0,121875:0:0:0:0:
192,192,121593,1,0,0:0:0:0:
320,192,121593,1,0,0:0:0:0:
320,192,121781,1,0,0:0:0:0:
64,192,121968,128,0,122343:0:0:0:0:
320,192,121968,1,0,0:0:0:0:
448,192,121968,1,0,0:0:0:0:
192,192,122156,1,0,0:0:0:0:
192,192,122343,128,0,122718:0:0:0:0:
448,192,122343,1,0,0:0:0:0:
320,192,122343,1,0,0:0:0:0:
64,192,122531,1,0,0:0:0:0:
64,192,122718,1,0,0:0:0:0:
320,192,122718,1,0,0:0:0:0:
448,192,122718,128,0,123093:0:0:0:0:
192,192,122906,1,0,0:0:0:0:
64,192,123093,128,0,123375:0:0:0:0:
192,192,123093,1,0,0:0:0:0:
320,192,123093,1,0,0:0:0:0:
448,192,123281,1,0,0:0:0:0:
64,192,123468,128,0,123656:0:0:0:0:
448,192,123468,1,0,0:0:0:0:
192,192,123468,1,0,0:0:0:0:
320,192,123468,1,0,0:0:0:0:
192,192,123656,128,0,123843:0:0:0:0:
320,192,123656,1,0,0:0:0:0:
320,192,123843,1,0,0:0:0:0:
448,192,123843,128,0,124218:0:0:0:0:
192,192,124031,1,0,0:0:0:0:
64,192,124218,128,0,124593:0:0:0:0:
192,192,124218,1,0,0:0:0:0:
320,192,124218,1,0,0:0:0:0:
320,192,124406,1,0,0:0:0:0:
192,192,124593,128,0,124968:0:0:0:0:
448,192,124593,1,0,0:0:0:0:
320,192,124593,1,0,0:0:0:0:
64,192,124781,1,0,0:0:0:0:
320,192,124968,1,0,0:0:0:0:
64,192,124968,1,0,0:0:0:0:
448,192,124968,128,0,125343:0:0:0:0:
192,192,125156,1,0,0:0:0:0:
64,192,125343,128,0,125625:0:0:0:0:
320,192,125343,1,0,0:0:0:0:
192,192,125343,1,0,0:0:0:0:
320,192,125531,1,0,0:0:0:0:
64,192,125718,128,0,126093:0:0:0:0:
448,192,125718,1,0,0:0:0:0:
320,192,125718,1,0,0:0:0:0:
448,192,125906,1,0,0:0:0:0:
192,192,126093,128,0,126468:0:0:0:0:
448,192,126093,1,0,0:0:0:0:
320,192,126093,1,0,0:0:0:0:
64,192,126281,1,0,0:0:0:0:
448,192,126468,128,0,126843:0:0:0:0:
64,192,126468,1,0,0:0:0:0:
320,192,126468,1,0,0:0:0:0:
192,192,126656,1,0,0:0:0:0:
320,192,126843,128,0,127218:0:0:0:0:
64,192,126843,1,0,0:0:0:0:
192,192,126843,1,0,0:0:0:0:
64,192,127031,1,0,0:0:0:0:
448,192,127218,128,0,127593:0:0:0:0:
64,192,127218,1,0,0:0:0:0:
192,192,127218,1,0,0:0:0:0:
320,192,127406,1,0,0:0:0:0:
64,192,127593,128,0,127875:0:0:0:0:
192,192,127593,1,0,0:0:0:0:
320,192,127593,1,0,0:0:0:0:
448,192,127781,1,0,0:0:0:0:
64,192,127968,128,0,128343:0:0:0:0:
192,192,127968,1,0,0:0:0:0:
320,192,127968,1,0,0:0:0:0:
448,192,127968,1,0,0:0:0:0:
320,192,128156,1,0,0:0:0:0:
192,192,128343,128,0,128718:0:0:0:0:
320,192,128343,1,0,0:0:0:0:
448,192,128343,1,0,0:0:0:0:
64,192,128531,1,0,0:0:0:0:
448,192,128718,128,0,129093:0:0:0:0:
320,192,128718,1,0,0:0:0:0:
64,192,128718,1,0,0:0:0:0:
192,192,128906,1,0,0:0:0:0:
64,192,129093,128,0,129375:0:0:0:0:
192,192,129093,1,0,0:0:0:0:
320,192,129093,1,0,0:0:0:0:
64,192,129468,128,0,129656:0:0:0:0:
192,192,129468,1,0,0:0:0:0:
320,192,129468,1,0,0:0:0:0:
192,192,129656,128,0,129843:0:0:0:0:
320,192,129656,1,0,0:0:0:0:
448,192,129843,128,0,130218:0:0:0:0:
320,192,129843,1,0,0:0:0:0:
64,192,130031,1,0,0:0:0:0:
320,192,130218,128,0,130593:0:0:0:0:
64,192,130218,1,0,0:0:0:0:
192,192,130218,1,0,0:0:0:0:
448,192,130406,1,0,0:0:0:0:
448,192,130593,128,0,130875:0:0:0:0:
64,192,130593,1,0,0:0:0:0:
192,192,130593,1,0,0:0:0:0:
64,192,130781,1,0,0:0:0:0:
448,192,130968,128,0,131343:0:0:0:0:
64,192,130968,1,0,0:0:0:0:
192,192,130968,1,0,0:0:0:0:
320,192,130968,1,0,0:0:0:0:
320,192,131156,1,0,0:0:0:0:
64,192,131343,128,0,131718:0:0:0:0:
192,192,131343,1,0,0:0:0:0:
320,192,131343,1,0,0:0:0:0:
448,192,131531,1,0,0:0:0:0:
448,192,131718,128,0,132093:0:0:0:0:
192,192,131718,1,0,0:0:0:0:
320,192,131718,1,0,0:0:0:0:
192,192,131906,1,0,0:0:0:0:
320,192,132093,128,0,132375:0:0:0:0:
192,192,132093,1,0,0:0:0:0:
64,192,132093,1,0,0:0:0:0:
64,192,132281,1,0,0:0:0:0:
320,192,132468,128,0,132656:0:0:0:0:
192,192,132468,1,0,0:0:0:0:
448,192,132468,1,0,0:0:0:0:
192,192,132656,128,0,132843:0:0:0:0:
448,192,132656,1,0,0:0:0:0:
64,192,132656,1,0,0:0:0:0:
448,192,132843,128,0,133218:0:0:0:0:
320,192,132843,1,0,0:0:0:0:
192,192,133031,1,0,0:0:0:0:
320,192,133218,128,0,133593:0:0:0:0:
192,192,133218,1,0,0:0:0:0:
64,192,133218,1,0,0:0:0:0:
64,192,133406,1,0,0:0:0:0:
448,192,133593,128,0,133875:0:0:0:0:
64,192,133593,1,0,0:0:0:0:
192,192,133593,1,0,0:0:0:0:
64,192,133968,1,0,0:0:0:0:
192,192,134156,1,0,0:0:0:0:
64,192,134343,128,0,134718:0:0:0:0:
320,192,134343,1,0,0:0:0:0:
448,192,134343,1,0,0:0:0:0:
448,192,134531,1,0,0:0:0:0:
320,192,134718,128,0,135093:0:0:0:0:
192,192,134718,1,0,0:0:0:0:
448,192,134906,1,0,0:0:0:0:
192,192,135093,128,0,135468:0:0:0:0:
64,192,135093,1,0,0:0:0:0:
320,192,135281,1,0,0:0:0:0:
448,192,135468,128,0,135843:0:0:0:0:
64,192,135468,1,0,0:0:0:0:
320,192,135656,1,0,0:0:0:0:
320,192,135843,128,0,136218:0:0:0:0:
192,192,135843,1,0,0:0:0:0:
64,192,135843,1,0,0:0:0:0:
448,192,136031,1,0,0:0:0:0:
192,192,136218,128,0,136500:0:0:0:0:
64,192,136218,1,0,0:0:0:0:
320,192,136406,1,0,0:0:0:0:
192,192,136593,128,0,136875:0:0:0:0:
448,192,136593,1,0,0:0:0:0:
320,192,136781,1,0,0:0:0:0:
192,192,136968,128,0,137343:0:0:0:0:
64,192,136968,1,0,0:0:0:0:
448,192,136968,1,0,0:0:0:0:
320,192,137156,1,0,0:0:0:0:
64,192,137343,128,0,137718:0:0:0:0:
448,192,137343,1,0,0:0:0:0:
320,192,137531,1,0,0:0:0:0:
192,192,137718,128,0,138093:0:0:0:0:
448,192,137718,1,0,0:0:0:0:
320,192,137718,1,0,0:0:0:0:
64,192,137906,1,0,0:0:0:0:
320,192,138093,128,0,138468:0:0:0:0:
448,192,138093,1,0,0:0:0:0:
192,192,138281,1,0,0:0:0:0:
64,192,138468,128,0,138843:0:0:0:0:
448,192,138468,1,0,0:0:0:0:
320,192,138656,1,0,0:0:0:0:
320,192,138843,128,0,139218:0:0:0:0:
192,192,138843,1,0,0:0:0:0:
448,192,138843,1,0,0:0:0:0:
