osu file format v14

[General]
AudioFilename: audio.mp3
AudioLeadIn: 0
PreviewTime: 19560
Countdown: 0
SampleSet: Soft
StackLeniency: 0.7
Mode: 0
LetterboxInBreaks: 0
WidescreenStoryboard: 0

[Editor]
Bookmarks: 29463,39284,49105,58926,68747
DistanceSpacing: 2
BeatDivisor: 4
GridSize: 32
TimelineZoom: 1.8

[Metadata]
Title:SugarCrash!
TitleUnicode:SugarCrash!
Artist:ElyOtto
ArtistUnicode:ElyOtto
Creator:Mimari
Version:Sylas' Expert!
Source:
Tags:english hyperpop hip hop pop jamesjan jamesjan3 vanchanical ancel ancelysia sylas thekoala tiktok sugarcrush
BeatmapID:2856411
BeatmapSetID:1376120

[Difficulty]
HPDrainRate:5.5
CircleSize:3.8
OverallDifficulty:8.5
ApproachRate:9.3
SliderMultiplier:2.5
SliderTickRate:1

[Events]
//Background and Video events
0,0,"som.jpg",0,0
//Break Periods
2,58816,65735
//Storyboard Layer 0 (Background)
//Storyboard Layer 1 (Fail)
//Storyboard Layer 2 (Pass)
//Storyboard Layer 3 (Foreground)
//Storyboard Layer 4 (Overlay)
//Storyboard Sound Samples

[TimingPoints]
9819,613.81074168798,4,3,1,60,1,0
9819,-50,4,3,1,60,0,0
10432,-50,4,2,1,60,0,0
19332,-50,4,2,1,80,0,0
19640,-33.3333333333334,4,2,0,80,0,0
19870,-38.4615384615385,4,2,0,80,0,0
19946,-33.3333333333334,4,2,0,80,0,0
20023,-38.4615384615385,4,2,0,5,0,0
20100,-33.3333333333334,4,2,0,80,0,0
20177,-38.4615384615385,4,2,0,5,0,0
20253,-33.3333333333334,4,2,0,80,0,0
20560,-29.4117647058824,4,2,0,80,0,0
20637,-38.4615384615385,4,2,0,5,0,0
20714,-29.4117647058824,4,2,0,80,0,0
20790,-38.4615384615385,4,2,0,5,0,0
20867,-29.4117647058824,4,2,0,80,0,0
21481,-66.6666666666665,4,2,0,80,0,0
21558,-38.4615384615385,4,2,0,5,0,0
21634,-33.3333333333334,4,2,0,80,0,0
21711,-38.4615384615385,4,2,0,5,0,0
21788,-41.6666666666667,4,2,0,80,0,0
21826,-41.6666666666667,4,2,0,50,0,0
22018,-38.4615384615385,4,2,0,5,0,0
22095,-33.3333333333334,4,2,0,80,0,0
22171,-38.4615384615385,4,2,0,5,0,0
22248,-33.3333333333334,4,2,0,80,0,0
22478,-38.4615384615385,4,2,0,5,0,0
22555,-33.3333333333334,4,2,0,80,0,0
23246,-38.4615384615385,4,2,0,5,0,0
23322,-26.3157894736842,4,2,0,80,0,0
23859,-38.4615384615385,4,2,0,5,0,0
23936,-29.4117647058824,4,2,0,80,0,0
24243,-166.666666666666,4,2,0,80,0,0
24473,-38.4615384615385,4,2,0,5,0,0
24550,-27.7777777777778,4,2,0,80,0,0
24627,-38.4615384615385,4,2,0,5,0,0
24703,-35.7142857142857,4,2,0,80,0,0
24780,-38.4615384615385,4,2,0,5,0,0
24857,-33.3333333333334,4,2,0,80,0,0
24934,-38.4615384615385,4,2,0,5,0,0
25010,-45.4545454545455,4,2,0,80,0,0
25087,-38.4615384615385,4,2,0,5,0,0
25164,-33.3333333333334,4,2,0,80,0,0
25471,-33.3333333333334,4,2,0,80,0,0
25701,-38.4615384615385,4,2,0,5,0,0
25778,-33.3333333333334,4,2,0,80,0,0
26161,-38.4615384615385,4,2,0,5,0,0
26238,-33.3333333333334,4,2,0,80,0,0
26315,-38.4615384615385,4,2,0,5,0,0
26391,-33.3333333333334,4,2,0,80,0,0
26622,-38.4615384615385,4,2,0,5,0,0
26698,-50,4,2,0,80,0,0
26737,-50,4,2,0,50,0,0
26929,-38.4615384615385,4,2,0,5,0,0
27005,-27.7777777777778,4,2,0,80,0,0
27235,-38.4615384615385,4,2,0,5,0,0
27312,-27.7777777777778,4,2,0,80,0,0
27542,-38.4615384615385,4,2,0,5,0,0
27619,-27.7777777777778,4,2,0,80,0,0
27696,-38.4615384615385,4,2,0,5,0,0
27772,-27.7777777777778,4,2,0,80,0,0
28156,-38.4615384615385,4,2,0,5,0,0
28233,-41.6666666666667,4,2,0,80,0,0
28463,-38.4615384615385,4,2,0,5,0,0
28540,-41.6666666666667,4,2,0,80,0,0
28770,-38.4615384615385,4,2,0,5,0,0
28847,-250,4,2,0,80,0,0
29460,-38.4615384615385,4,2,0,70,0,0
29844,-38.4615384615385,4,2,0,5,0,0
29921,-38.4615384615385,4,2,0,70,0,0
29998,-38.4615384615385,4,2,0,5,0,0
30074,-38.4615384615385,4,2,0,70,0,0
31302,-38.4615384615385,4,2,0,70,0,0
31379,-38.4615384615385,4,2,0,5,0,0
31455,-38.4615384615385,4,2,0,70,0,0
31532,-38.4615384615385,4,2,0,5,0,0
31609,-50,4,2,0,70,0,0
31839,-38.4615384615385,4,2,0,5,0,0
31916,-38.4615384615385,4,2,0,70,0,0
32146,-38.4615384615385,4,2,0,5,0,0
32223,-38.4615384615385,4,2,0,70,0,0
32453,-38.4615384615385,4,2,0,5,0,0
32530,-38.4615384615385,4,2,0,70,0,0
33067,-38.4615384615385,4,2,0,5,0,0
33143,-38.4615384615385,4,2,0,70,0,0
33680,-38.4615384615385,4,2,0,5,0,0
33757,-38.4615384615385,4,2,0,70,0,0
33987,-38.4615384615385,4,2,0,70,0,0
34064,-45.4545454545455,4,2,0,70,0,0
34294,-38.4615384615385,4,2,0,5,0,0
34371,-38.4615384615385,4,2,0,70,0,0
34448,-38.4615384615385,4,2,0,5,0,0
34524,-38.4615384615385,4,2,0,70,0,0
34755,-38.4615384615385,4,2,0,5,0,0
34831,-38.4615384615385,4,2,0,70,0,0
34985,-38.4615384615385,4,2,0,70,0,0
35522,-100,4,2,0,5,0,0
35599,-38.4615384615385,4,2,0,70,0,0
36212,-38.4615384615385,4,2,0,70,0,0
36289,-100,4,2,0,5,0,0
36366,-38.4615384615385,4,2,0,70,0,0
36443,-100,4,2,0,5,0,0
36519,-38.4615384615385,4,2,0,70,0,0
36749,-100,4,2,0,5,0,0
36826,-38.4615384615385,4,2,0,70,0,0
37056,-100,4,2,0,5,0,0
37133,-38.4615384615385,4,2,0,70,0,0
37210,-100,4,2,0,5,0,0
37287,-38.4615384615385,4,2,0,70,0,0
37363,-100,4,2,0,5,0,0
37440,-38.4615384615385,4,2,0,70,0,0
37670,-100,4,2,0,5,0,0
37747,-38.4615384615385,4,2,0,70,0,0
37824,-100,4,2,0,5,0,0
37900,-38.4615384615385,4,2,0,70,0,0
37977,-100,4,2,0,5,0,0
38054,-38.4615384615385,4,2,0,70,0,0
38591,-100,4,2,0,5,0,0
38668,-38.4615384615385,4,2,0,70,0,0
38898,-100,4,2,0,5,0,0
38975,-100,4,2,0,70,0,0
39205,-100,4,2,0,5,0,0
39281,-38.4615384615385,4,3,2,70,0,0
39358,-45.4545454545455,4,3,2,5,0,0
39435,-38.4615384615385,4,2,0,70,0,0
39512,-45.4545454545455,4,2,0,5,0,0
39588,-38.4615384615385,4,2,0,70,0,0
40432,-45.4545454545455,4,2,0,5,0,0
40509,-38.4615384615385,4,2,0,70,0,0
40893,-45.4545454545455,4,2,0,5,0,0
40969,-38.4615384615385,4,2,0,70,0,0
41046,-45.4545454545455,4,2,0,5,0,0
41123,-38.4615384615385,4,2,0,70,0,0
41353,-45.4545454545455,4,2,0,5,0,0
41430,-38.4615384615385,4,2,0,70,0,0
41660,-45.4545454545455,4,2,0,5,0,0
41737,-38.4615384615385,4,2,0,70,0,0
41813,-45.4545454545455,4,2,0,5,0,0
41890,-38.4615384615385,4,2,0,70,0,0
41967,-45.4545454545455,4,2,0,5,0,0
42044,-38.4615384615385,4,2,0,70,0,0
42657,-50,4,2,0,70,0,0
42888,-45.4545454545455,4,2,0,5,0,0
42964,-38.4615384615385,4,2,0,70,0,0
43655,-45.4545454545455,4,2,0,5,0,0
43732,-38.4615384615385,4,2,0,70,0,0
43808,-45.4545454545455,4,2,0,5,0,0
43885,-50,4,2,0,70,0,0
44115,-45.4545454545455,4,2,0,5,0,0
44192,-38.4615384615385,4,2,0,70,0,0
44729,-45.4545454545455,4,2,0,5,0,0
44806,-38.4615384615385,4,2,0,70,0,0
45957,-45.4545454545455,4,2,0,5,0,0
46033,-38.4615384615385,4,2,0,70,0,0
46724,-45.4545454545455,4,2,0,5,0,0
46801,-38.4615384615385,4,2,0,70,0,0
46877,-45.4545454545455,4,2,0,5,0,0
46954,-38.4615384615385,4,2,0,70,0,0
47721,-45.4545454545455,4,2,0,70,0,0
47798,-45.4545454545455,4,2,0,5,0,0
47875,-45.4545454545455,4,2,0,70,0,0
48412,-45.4545454545455,4,2,0,5,0,0
48489,-250,4,2,0,80,0,0
49102,-33.3333333333334,4,2,0,80,0,0
49332,-38.4615384615385,4,2,0,5,0,0
49408,-33.3333333333334,4,2,0,80,0,0
49485,-38.4615384615385,4,2,0,5,0,0
49562,-33.3333333333334,4,2,0,80,0,0
49639,-38.4615384615385,4,2,0,5,0,0
49715,-33.3333333333334,4,2,0,80,0,0
50022,-25,4,2,0,80,0,0
50099,-38.4615384615385,4,2,0,5,0,0
50176,-25,4,2,0,80,0,0
50252,-38.4615384615385,4,2,0,5,0,0
50329,-29.4117647058824,4,2,0,80,0,0
50943,-66.6666666666665,4,2,0,80,0,0
51020,-38.4615384615385,4,2,0,5,0,0
51096,-33.3333333333334,4,2,0,80,0,0
51173,-38.4615384615385,4,2,0,5,0,0
51250,-41.6666666666667,4,2,0,80,0,0
51289,-41.6666666666667,4,2,0,50,0,0
51480,-38.4615384615385,4,2,0,5,0,0
51557,-33.3333333333334,4,2,0,80,0,0
51633,-38.4615384615385,4,2,0,5,0,0
51710,-33.3333333333334,4,2,0,80,0,0
51940,-38.4615384615385,4,2,0,5,0,0
52017,-33.3333333333334,4,2,0,80,0,0
52708,-38.4615384615385,4,2,0,5,0,0
52784,-26.3157894736842,4,2,0,80,0,0
53321,-38.4615384615385,4,2,0,5,0,0
53398,-29.4117647058824,4,2,0,80,0,0
53705,-166.666666666666,4,2,0,80,0,0
53935,-38.4615384615385,4,2,0,5,0,0
54012,-27.7777777777778,4,2,0,80,0,0
54089,-38.4615384615385,4,2,0,5,0,0
54165,-35.7142857142857,4,2,0,80,0,0
54242,-38.4615384615385,4,2,0,5,0,0
54319,-33.3333333333334,4,2,0,80,0,0
54396,-38.4615384615385,4,2,0,5,0,0
54472,-45.4545454545455,4,2,0,80,0,0
54549,-38.4615384615385,4,2,0,5,0,0
54626,-33.3333333333334,4,2,0,80,0,0
54933,-27.7777777777778,4,2,0,80,0,0
55163,-38.4615384615385,4,2,0,5,0,0
55240,-27.7777777777778,4,2,0,80,0,0
55623,-38.4615384615385,4,2,0,5,0,0
55700,-27.7777777777778,4,2,0,80,0,0
55777,-38.4615384615385,4,2,0,5,0,0
55853,-27.7777777777778,4,2,0,80,0,0
56084,-38.4615384615385,4,2,0,5,0,0
56160,-50,4,2,0,80,0,0
56200,-50,4,2,0,50,0,0
56391,-38.4615384615385,4,2,0,5,0,0
56467,-27.7777777777778,4,2,0,70,0,0
56697,-38.4615384615385,4,2,0,5,0,0
56774,-27.7777777777778,4,2,0,70,0,0
57004,-38.4615384615385,4,2,0,5,0,0
57081,-27.7777777777778,4,2,0,70,0,0
57158,-38.4615384615385,4,2,0,5,0,0
57234,-27.7777777777778,4,2,0,70,0,0
57618,-38.4615384615385,4,2,0,5,0,0
57695,-41.6666666666667,4,2,0,70,0,0
57925,-38.4615384615385,4,2,0,5,0,0
58002,-41.6666666666667,4,2,0,70,0,0
58232,-38.4615384615385,4,2,0,5,0,0
58309,-250,4,2,0,70,0,0
58922,-38.4615384615385,4,2,0,50,0,0
62606,-38.4615384615385,4,2,1,70,0,0
62913,-38.4615384615385,4,3,2,70,0,0
62932,-38.4615384615385,4,2,1,70,0,0
63834,-38.4615384615385,4,3,2,70,0,0
63853,-38.4615384615385,4,2,1,70,0,0
65368,-38.4615384615385,4,3,2,70,0,0
65387,-38.4615384615385,4,2,1,70,0,0
65829,-38.4615384615385,4,3,2,70,0,0
65848,-38.4615384615385,4,2,1,70,0,0
66136,-38.4615384615385,4,3,2,70,0,0
66155,-38.4615384615385,4,2,1,70,0,0
66289,-38.4615384615385,4,3,2,70,0,0
66308,-38.4615384615385,4,2,1,70,0,0
66366,-38.4615384615385,4,2,1,70,0,0
67517,-38.4615384615385,4,2,0,70,0,0
68437,-38.4615384615385,4,2,0,50,0,0
68744,-66.6666666666665,4,2,0,70,0,0
69051,-66.6666666666665,4,3,2,70,0,0
69070,-66.6666666666665,4,2,0,70,0,0
69588,-66.6666666666665,4,2,0,5,0,0
69665,-66.6666666666665,4,2,0,70,0,0
70279,-66.6666666666665,4,3,2,70,0,0
70298,-66.6666666666665,4,2,0,70,0,0
70663,-66.6666666666665,4,2,0,5,0,0
70739,-66.6666666666665,4,3,2,70,0,0
70758,-66.6666666666665,4,2,0,70,0,0
71200,-66.6666666666665,4,3,2,70,0,0
71219,-66.6666666666665,4,2,0,70,0,0
71430,-66.6666666666665,4,2,0,5,0,0
71507,-66.6666666666665,4,3,2,70,0,0
71525,-66.6666666666665,4,2,0,70,0,0
71737,-66.6666666666665,4,2,0,5,0,0
71813,-66.6666666666665,4,2,0,70,0,0
72120,-66.6666666666665,4,3,2,70,0,0
72139,-66.6666666666665,4,2,0,70,0,0
72350,-66.6666666666665,4,2,0,5,0,0
72427,-66.6666666666665,4,2,0,70,0,0
72657,-66.6666666666665,4,2,0,5,0,0
72734,-66.6666666666665,4,3,2,70,0,0
72753,-66.6666666666665,4,2,0,70,0,0
73348,-66.6666666666665,4,3,2,70,0,0
73367,-66.6666666666665,4,2,0,70,0,0
73578,-66.6666666666665,4,2,0,5,0,0
73655,-66.6666666666665,4,3,2,70,0,0
73674,-66.6666666666665,4,2,0,70,0,0
73808,-66.6666666666665,4,2,0,70,0,0
73885,-66.6666666666665,4,2,0,5,0,0
73962,-66.6666666666665,4,2,0,70,0,0
74192,-66.6666666666665,4,2,0,5,0,0
74269,-66.6666666666665,4,2,0,70,0,0
74576,-66.6666666666665,4,3,2,70,0,0
74595,-66.6666666666665,4,2,0,70,0,0
74806,-66.6666666666665,4,2,0,5,0,0
74882,-66.6666666666665,4,2,0,70,0,0
75266,-66.6666666666665,4,2,0,5,0,0
75343,-66.6666666666665,4,2,0,70,0,0
75726,-66.6666666666665,4,2,0,5,0,0
75803,-66.6666666666665,4,3,2,70,0,0
75822,-66.6666666666665,4,2,0,70,0,0
75880,-66.6666666666665,4,2,0,5,0,0
75957,-66.6666666666665,4,2,0,70,0,0
76110,-66.6666666666665,4,3,2,70,0,0
76129,-66.6666666666665,4,2,0,70,0,0
76340,-66.6666666666665,4,2,0,5,0,0
76417,-66.6666666666665,4,2,0,70,0,0
76647,-66.6666666666665,4,2,0,5,0,0
76724,-66.6666666666665,4,2,0,70,0,0
77031,-66.6666666666665,4,3,2,70,0,0
77050,-66.6666666666665,4,2,0,70,0,0
77261,-66.6666666666665,4,2,0,5,0,0
77338,-66.6666666666665,4,2,0,70,0,0
77952,-250,4,2,0,70,0,0
78565,-250,4,2,0,5,0,0

[Colours]
Combo1 : 203,168,251
Combo2 : 242,168,215
Combo3 : 157,203,249

[HitObjects]
93,120,19640,6,0,B|90:97|90:97|81:34|170:21|176:91|176:91|189:235,1,281.250010728836,8|0,1:3|0:0,0:0:0:0:
215,268,19946,2,0,P|147:265|119:202,1,93.7500035762788,8|0,1:3|0:0,0:0:0:0:
64,279,20100,2,0,P|66:211|129:183,1,93.7500035762788,2|0,0:0|0:0,0:0:0:0:
257,97,20253,5,8,1:2:0:0:
280,98,20329,1,2,0:3:0:0:
303,100,20406,1,2,0:3:0:0:
327,102,20483,1,2,0:3:0:0:
350,103,20560,2,0,B|367:104|367:104|374:33|374:33|356:32,1,106.250002026558,2|0,1:0|0:0,0:0:0:0:
186,69,20714,2,0,B|168:70|168:70|174:141|174:141|192:139,1,106.250002026558,2|0,1:0|0:0,0:0:0:0:
266,184,20867,5,2,3:2:0:0:
266,184,21174,2,0,B|317:178|335:248|335:248|358:327|430:312,1,212.500004053116,8|2,1:3|0:0,0:0:0:0:
426,311,21404,1,0,0:0:0:0:
435,302,21481,2,0,P|440:270|421:257,1,46.8750017881394,10|0,1:2|0:0,0:0:0:0:
487,211,21634,2,0,P|437:185|381:208,1,93.7500035762788,8|0,3:0|0:0,0:0:0:0:
253,260,21788,6,0,B|174:301|192:422|300:391|286:325,1,224.999993133545,2|0,0:3|0:0,0:0:0:0:
266,184,22095,6,0,L|246:67,1,93.7500035762788,8|0,1:3|0:0,0:0:0:0:
232,18,22248,1,2,3:2:0:0:
182,155,22402,6,0,L|162:38,1,93.7500035762788,8|0,1:3|0:0,0:0:0:0:
232,18,22555,1,2,3:2:0:0:
201,240,22709,5,8,1:2:0:0:
180,245,22785,1,0,1:2:0:0:
161,248,22862,1,2,3:2:0:0:
142,251,22939,1,0,1:2:0:0:
123,254,23015,2,0,B|60:246|60:246|-10:238|-14:166|-14:166|-6:180|-6:180|54:174|66:228,1,281.250010728836,2|0,1:0|0:0,0:0:0:0:
56,28,23322,5,2,1:0:0:0:
79,68,23399,1,4,1:3:0:0:
48,106,23476,1,4,1:3:0:0:
3,87,23553,1,4,1:3:0:0:
8,37,23629,1,4,1:3:0:0:
154,96,23783,6,0,B|209:110|209:110|210:116|210:116|281:137,1,118.749996829033,4|0,1:3|0:0,0:0:0:0:
307,64,23936,2,0,B|246:53|229:116|229:116|207:188|135:172,1,212.500004053116,10|0,1:2|3:0,0:0:0:0:
266,210,24166,5,0,0:0:0:0:
278,208,24243,2,0,L|344:194,1,56.2499982833863,4|0,3:2|0:0,0:0:0:0:
439,236,24550,6,0,P|442:196|394:148,1,112.499996566773,8|0,1:3|0:0,0:0:0:0:
385,74,24703,2,0,P|348:83|318:143,1,87.499997329712,2|0,3:2|0:0,0:0:0:0:
319,277,24857,6,0,P|338:301|396:301,1,93.7500035762788,8|0,1:3|0:0,0:0:0:0:
438,364,25010,2,0,P|461:343|467:289,1,68.7500020980836,2|0,3:2|0:0,0:0:0:0:
278,208,25164,6,0,B|198:224|198:224|183:244|183:244|97:263,1,187.500007152558,10|2,1:2|3:2,0:0:0:0:
40,305,25394,1,0,0:0:0:0:
34,295,25471,2,0,B|6:224|85:183|85:183|172:140|132:45,1,281.250010728836,6|0,1:3|0:0,0:0:0:0:
79,15,25778,5,2,3:2:0:0:
79,15,26085,2,0,P|58:56|66:102,1,93.7500035762788,2|0,1:0|0:0,0:0:0:0:
10,155,26238,2,0,P|24:199|62:225,1,93.7500035762788,2|0,0:0|0:0,0:0:0:0:
114,285,26391,5,10,1:2:0:0:
252,184,26545,2,0,P|273:143|265:97,1,93.7500035762788,2|0,3:2|0:0,0:0:0:0:
139,65,26698,6,0,P|171:165|184:270,1,187.5,2|0,1:2|0:0,0:0:0:0:
356,256,27005,6,0,B|394:244|378:148|274:168|265:253|265:253|267:261|267:261|246:334|173:330,1,337.499989700318,4|0,1:3|0:0,0:0:0:0:
114,285,27312,2,0,P|279:315|437:374,1,337.499989700318,4|0,1:3|0:0,0:0:0:0:
484,169,27619,6,0,B|475:144|436:149|439:206|467:233,1,112.499996566773,2|0,1:3|0:0,0:0:0:0:
481,306,27772,1,2,3:2:0:0:
494,303,27849,1,0,3:2:0:0:
506,295,27926,1,8,1:3:0:0:
501,87,28079,2,0,P|465:80|383:134,1,112.499996566773,2|0,3:2|0:0,0:0:0:0:
309,207,28233,6,0,B|288:38|288:38|366:31,1,224.999993133545,8|0,1:3|0:0,0:0:0:0:
363,33,28540,2,0,B|383:201|383:201|305:208,1,224.999993133545,8|0,1:3|0:0,0:0:0:0:
305,285,28847,6,0,L|301:335,1,50,8|2,1:2|3:0,0:0:0:0:
301,334,29460,5,0,1:0:0:0:
222,232,29614,1,2,0:0:0:0:
72,244,29767,2,0,P|95:259|143:244,1,81.2499962806703,0|0,1:0|0:0,0:0:0:0:
222,232,29921,2,0,P|241:211|234:161,1,81.2499962806703,2|0,0:0|0:0,0:0:0:0:
167,87,30074,5,10,1:2:0:0:
161,106,30150,1,0,0:0:0:0:
158,126,30227,1,2,3:2:0:0:
156,146,30304,1,0,0:0:0:0:
157,167,30380,1,0,1:0:0:0:
199,307,30535,1,0,0:0:0:0:
296,101,30688,5,2,0:0:0:0:
296,101,30995,2,0,B|246:93|221:129|221:129|183:184|114:157,1,162.499992561341,8|2,1:3|0:0,0:0:0:0:
87,135,31225,1,0,0:0:0:0:
90,124,31302,2,0,P|118:96|158:87,1,81.2499962806703,10|0,1:2|0:0,0:0:0:0:
287,177,31455,2,0,P|314:204|323:244,1,81.2499962806703,8|0,3:0|0:0,0:0:0:0:
263,295,31609,6,0,P|189:294|73:246,1,187.5,2|0,3:2|0:0,0:0:0:0:
12,326,31916,6,0,B|-32:283|14:207|115:249|107:367,1,243.749988842011,0|0,1:0|0:0,0:0:0:0:
263,295,32223,2,0,B|263:356|177:377|135:276|224:198,1,243.749988842011,0|0,1:0|0:0,0:0:0:0:
148,153,32530,5,10,1:2:0:0:
146,137,32606,1,0,0:0:0:0:
145,121,32683,1,2,3:2:0:0:
143,104,32760,1,0,0:0:0:0:
142,87,32836,2,0,B|136:40|136:40|231:51|231:51|236:57|236:57|340:68,1,243.749988842011,0|0,1:0|0:0,0:0:0:0:
454,93,33143,5,0,1:0:0:0:
411,85,33219,1,0,1:0:0:0:
389,121,33297,1,0,1:0:0:0:
418,153,33374,1,0,1:0:0:0:
458,136,33450,1,0,1:0:0:0:
328,66,33604,6,0,B|304:105|304:105|313:142,1,81.2499962806703,0|0,1:0|0:0,0:0:0:0:
304,214,33757,2,0,B|264:215|244:175|244:175|220:124|151:136,1,162.499992561341,10|2,1:2|0:0,0:0:0:0:
103,197,33987,5,0,0:0:0:0:
113,192,34064,2,0,P|211:159|312:139,1,206.250006294251,2|0,3:0|0:0,0:0:0:0:
379,195,34371,6,0,P|365:268|303:286,1,81.2499962806703,0|0,1:0|0:0,0:0:0:0:
290,296,34524,1,0,0:0:0:0:
420,323,34678,6,0,P|388:346|348:347,1,81.2499962806703,0|0,1:0|0:0,0:0:0:0:
290,296,34831,1,0,0:0:0:0:
189,357,34985,6,0,P|110:323|24:316,1,162.499992561341,10|2,1:2|3:2,0:0:0:0:
20,321,35215,1,0,0:0:0:0:
11,332,35292,2,0,P|95:339|124:188,1,243.749988842011,0|0,1:0|0:0,0:0:0:0:
106,142,35599,5,2,0:0:0:0:
106,142,35905,2,0,B|144:118|188:149|188:149|230:179|287:145,1,162.499992561341,8|2,1:3|0:0,0:0:0:0:
310,102,36136,5,0,0:0:0:0:
311,90,36212,2,0,L|319:-16,1,81.2499962806703,10|0,1:2|0:0,0:0:0:0:
241,4,36366,2,0,L|233:110,1,81.2499962806703,8|0,3:0|0:0,0:0:0:0:
336,179,36519,6,0,B|318:242|405:294|478:174|380:99,1,243.749988842011,2|0,3:0|0:0,0:0:0:0:
484,69,36826,6,8,P|444:176|451:341,1,243.749988842011,8|0,1:3|0:0,0:0:0:0:
287,352,37133,6,0,L|279:246,1,81.2499962806703,8|0,1:3|0:0,0:0:0:0:
357,266,37287,2,0,L|365:372,1,81.2499962806703,2|0,3:2|0:0,0:0:0:0:
205,243,37441,6,0,B|141:260|90:174|209:100|285:199,1,243.749988842011,10|2,1:2|0:0,0:0:0:0:
363,272,37747,6,0,L|355:353,1,81.2499962806703,8|0,1:3|0:0,0:0:0:0:
280,345,37900,2,0,L|288:264,1,81.2499962806703
249,84,38054,5,10,1:3:0:0:
287,95,38130,1,2,3:0:0:0:
321,118,38207,1,2,3:0:0:0:
346,149,38284,1,2,3:0:0:0:
359,188,38360,1,10,1:3:0:0:
197,322,38514,2,0,B|160:328|160:328|156:333|156:333|93:344,1,81.2499962806703,0|0,1:0|0:0,0:0:0:0:
44,348,38668,6,0,B|31:290|101:258|101:258|180:232|162:130,1,243.749988842011,10|0,1:2|0:0,0:0:0:0:
126,95,38975,2,0,P|94:129|87:173,1,93.75,2|0,1:3|0:0,0:0:0:0:
228,241,39281,6,0,B|244:257|244:257|347:234,1,81.2499962806703,4|0,1:3|0:0,0:0:0:0:
371,275,39435,2,0,B|378:253|378:253|481:231,1,81.2499962806703,2|0,3:2|0:0,0:0:0:0:
511,226,39588,5,0,3:0:0:0:
311,325,39742,1,0,3:0:0:0:
287,60,39895,6,0,B|327:53|327:53|356:216,1,162.499992561341,10|0,1:2|0:0,0:0:0:0:
462,80,40202,2,0,B|405:59|362:116|362:116|311:187|203:132,1,243.749988842011,0|0,1:0|0:0,0:0:0:0:
189,95,40509,5,2,0:0:0:0:
189,95,40816,2,0,L|179:-7,1,81.2499962806703,8|0,1:3|0:0,0:0:0:0:
112,130,40969,2,0,L|102:28,1,81.2499962806703,2|0,3:2|0:0,0:0:0:0:
247,150,41123,5,10,3:2:0:0:
27,84,41276,2,0,L|34:164,1,81.2499962806703,8|0,1:3|0:0,0:0:0:0:
196,313,41430,2,0,B|262:319|265:229|202:226|202:226|88:216,1,243.749988842011,0|0,1:0|0:0,0:0:0:0:
30,241,41737,6,0,P|55:278|110:289,1,81.2499962806703,8|0,1:3|0:0,0:0:0:0:
54,358,41890,2,0,P|97:366|144:335,1,81.2499962806703,0|0,3:0|0:0,0:0:0:0:
196,313,42044,1,10,3:0:0:0:
114,132,42197,1,2,3:0:0:0:
275,280,42350,5,10,1:2:0:0:
275,280,42657,2,0,B|333:298|362:253|362:253|405:200|485:236,1,187.5,0|0,1:0|0:0,0:0:0:0:
428,302,42964,5,2,0:0:0:0:
298,205,43118,1,2,0:0:0:0:
384,64,43271,1,8,1:3:0:0:
415,135,43425,1,0,0:0:0:0:
222,221,43578,6,0,P|219:182|239:147,1,81.2499962806703,10|0,1:2|0:0,0:0:0:0:
170,112,43732,2,0,P|195:82|234:71,1,81.2499962806703,0|0,3:0|0:0,0:0:0:0:
298,205,43885,2,0,P|279:277|177:287,1,187.5,8|0,1:3|0:0,0:0:0:0:
140,221,44192,5,2,1:0:0:0:
293,300,44345,1,0,3:0:0:0:
451,267,44499,1,0,1:0:0:0:
455,190,44652,2,0,P|412:196|385:222,1,81.2499962806703,0|0,3:0|0:0,0:0:0:0:
356,360,44806,5,10,1:2:0:0:
433,343,44959,1,0,3:0:0:0:
451,267,45113,1,4,1:3:0:0:
107,42,45420,5,0,3:0:0:0:
205,169,45573,1,2,3:0:0:0:
140,310,45726,1,8,1:3:0:0:
74,264,45880,2,0,P|55:219|59:166,1,81.2499962806703,0|0,3:0|0:0,0:0:0:0:
167,95,46033,5,10,1:2:0:0:
243,99,46187,1,8,1:3:0:0:
290,166,46340,1,0,1:0:0:0:
290,166,46647,6,0,B|293:209|293:209|244:240,1,81.2499962806703,0|0,1:0|0:0,0:0:0:0:
260,304,46801,2,0,B|217:307|217:307|186:258,1,81.2499962806703,0|0,3:0|0:0,0:0:0:0:
243,99,46954,1,0,1:0:0:0:
339,277,47108,1,0,0:0:0:0:
121,284,47261,5,10,1:2:0:0:
119,263,47337,1,0,0:0:0:0:
118,243,47414,1,0,3:0:0:0:
133,231,47491,1,0,0:0:0:0:
150,220,47567,1,2,1:2:0:0:
339,277,47721,6,0,P|352:316|352:371,1,68.7500020980836
290,166,47875,2,0,P|296:112|326:12,1,137.500004196167,2|0,0:0|0:0,0:0:0:0:
448,218,48182,2,0,B|488:209|500:139|421:120|371:145|357:221,1,206.250006294251,8|0,1:3|0:0,0:0:0:0:
339,277,48489,6,0,P|363:283|390:275,1,50,10|2,1:2|3:0,0:0:0:0:
386,276,49102,6,0,B|379:235|332:218|332:218|328:222|328:222|262:191|232:306|130:226,1,281.250010728836,8|0,1:3|0:0,0:0:0:0:
72,228,49409,2,0,P|106:169|175:174,1,93.7500035762788,8|0,1:3|0:0,0:0:0:0:
167,97,49563,2,0,P|206:152|172:212,1,93.7500035762788,2|0,0:0|0:0,0:0:0:0:
158,346,49715,5,10,1:2:0:0:
135,347,49793,1,2,3:0:0:0:
112,349,49870,1,2,3:0:0:0:
88,351,49946,1,2,3:0:0:0:
65,352,50023,6,0,B|55:358|55:358|9:346|9:346|38:308|38:308|56:308,1,125,2|0,1:0|0:0,0:0:0:0:
274,210,50177,2,0,B|283:216|283:216|329:204|329:204|300:166|300:166|282:166,1,125,2|0,1:0|0:0,0:0:0:0:
167,97,50330,5,2,3:2:0:0:
167,97,50637,2,0,B|95:80|51:144|70:225|166:196|164:159,1,212.500004053116,8|2,1:3|0:0,0:0:0:0:
233,141,50866,1,0,0:0:0:0:
240,127,50944,2,0,P|247:100|244:82,1,46.8750017881394,10|0,1:2|0:0,0:0:0:0:
279,16,51097,2,0,P|226:5|187:29,1,93.7500035762788,0|0,3:0|0:0,0:0:0:0:
240,267,51251,6,0,B|287:298|348:247|348:247|403:193|468:250,1,224.999993133545,2|0,0:3|0:0,0:0:0:0:
456,368,51558,6,0,P|410:337|418:280,1,93.7500035762788,4|0,1:3|0:0,0:0:0:0:
483,161,51711,1,2,3:2:0:0:
276,200,51865,6,0,P|307:153|364:162,1,93.7500035762788,4|0,1:3|0:0,0:0:0:0:
483,161,52018,1,2,3:2:0:0:
332,347,52171,5,10,1:2:0:0:
311,352,52247,1,0,3:2:0:0:
292,355,52324,1,0,3:0:0:0:
273,358,52402,1,0,3:2:0:0:
254,361,52478,2,0,B|179:352|179:352|119:344|103:301|103:301|181:325|225:246,1,281.250010728836,2|0,1:0|0:0,0:0:0:0:
97,156,52785,5,2,1:0:0:0:
92,206,52862,1,4,1:3:0:0:
137,225,52939,1,4,1:3:0:0:
168,187,53015,1,4,1:3:0:0:
145,147,53092,1,4,1:3:0:0:
19,182,53246,6,0,B|9:237|9:237|70:295,1,118.749996829033,4|0,1:3|0:0,0:0:0:0:
216,115,53399,2,0,B|188:54|117:70|117:70|-24:113,1,212.500004053116,10|0,1:2|3:0,0:0:0:0:
212,256,53628,5,0,0:0:0:0:
224,258,53705,2,0,L|290:272,1,56.2499982833863,4|0,3:2|0:0,0:0:0:0:
393,190,54013,6,0,L|370:68,1,112.499996566773,4|0,1:3|0:0,0:0:0:0:
316,192,54166,2,0,L|293:70,1,87.499997329712,2|0,3:2|0:0,0:0:0:0:
417,358,54320,6,0,L|433:265,1,93.7500035762788,4|0,1:3|0:0,0:0:0:0:
345,332,54473,2,0,L|357:264,1,68.7500020980836,2|0,3:2|0:0,0:0:0:0:
457,52,54627,6,0,B|472:26|520:36|534:58|523:107|523:107|502:212,1,187.500007152558,10|2,1:2|3:2,0:0:0:0:
512,253,54857,1,0,0:0:0:0:
502,247,54934,2,0,B|418:198|350:284|350:284|280:367|190:310,1,337.499989700318,6|0,1:3|0:0,0:0:0:0:
150,259,55241,5,2,3:2:0:0:
150,259,55547,2,0,B|151:234|136:221|136:221|106:248|126:291,1,112.499996566773,2|0,1:0|0:0,0:0:0:0:
43,228,55701,2,0,B|26:209|7:211|7:211|5:251|48:267,1,112.499996566773
228,234,55853,5,10,1:2:0:0:
66,342,56008,2,0,B|41:346|32:364|32:364|65:387|102:358,1,112.499996566773,2|0,3:2|0:0,0:0:0:0:
228,234,56160,6,0,P|260:134|273:29,1,187.5,2|0,1:2|0:0,0:0:0:0:
103,124,56468,6,0,B|44:105|11:212|108:229|162:178|162:178|216:120|320:187,1,337.499989700318,4|0,1:3|0:0,0:0:0:0:
403,274,56775,2,0,B|462:293|495:186|398:169|344:220|344:220|290:278|186:211,1,337.499989700318,4|0,1:3|0:0,0:0:0:0:
171,80,57082,6,0,P|222:70|299:89,1,112.499996566773,10|0,1:2|0:0,0:0:0:0:
358,93,57235,1,2,3:2:0:0:
355,110,57312,1,0,3:2:0:0:
348,124,57389,1,8,1:3:0:0:
103,124,57542,2,0,P|87:77|117:18,1,112.499996566773,2|0,3:2|0:0,0:0:0:0:
274,272,57696,6,0,B|270:308|270:308|120:295|120:295|123:258,1,224.999993133545,4|0,1:3|0:0,0:0:0:0:
123,247,58003,2,0,B|126:210|126:210|276:223|276:223|273:260,1,224.999993133545,4|0,1:3|0:0,0:0:0:0:
353,277,58310,6,0,L|410:273,1,50,10|2,3:2|3:0,0:0:0:0:
256,192,66289,12,0,68437,0:0:0:0:
238,87,68744,6,0,B|190:82|190:82|130:114,1,93.7500035762788,0|0,3:0|0:0,0:0:0:0:
178,270,69051,2,0,B|226:275|226:275|286:243,1,93.7500035762788,4|0,1:3|0:0,0:0:0:0:
275,167,69358,2,0,B|217:180|217:180|202:178|202:178|107:199,1,140.625005364418,10|0,1:2|0:0,0:0:0:0:
81,139,69665,2,0,B|48:149|48:149|93:339,1,187.500007152558,2|2,1:0|0:0,0:0:0:0:
442,147,70279,5,4,1:3:0:0:
381,74,70432,1,0,0:0:0:0:
366,187,70586,2,0,L|361:233,1,46.8750017881394,10|0,1:2|0:0,0:0:0:0:
306,290,70739,2,0,B|346:311|346:311|394:306,1,93.7500035762788,4|2,1:3|3:0,0:0:0:0:
474,248,71046,1,0,0:0:0:0:
305,118,71200,6,0,B|274:116|274:116|259:238,1,140.625005364418,4|0,1:3|0:0,0:0:0:0:
186,204,71507,2,0,B|162:224|162:224|238:321,1,140.625005364418,4|0,1:3|0:0,0:0:0:0:
284,367,71813,5,10,1:2:0:0:
203,128,72120,2,0,B|182:104|182:104|85:180,1,140.625005364418,4|0,1:3|0:0,0:0:0:0:
85,180,72427,5,2,3:2:0:0:
94,73,72581,2,0,L|98:26,1,46.8750017881394,2|0,3:0|0:0,0:0:0:0:
28,121,72734,5,4,1:3:0:0:
186,204,72888,1,0,0:0:0:0:
338,108,73041,2,0,B|342:70|342:70|349:64|349:64|358:14,1,93.7500035762788,8|2,1:2|0:3,0:0:0:0:
250,82,73348,2,0,B|262:150|262:150|272:159|272:159|282:216,1,140.625005364418,4|0,1:3|0:0,0:0:0:0:
366,221,73655,6,0,B|344:286|344:286|264:297,1,140.625005364418,4|0,1:3|0:0,0:0:0:0:
267,376,73962,2,0,B|202:354|202:354|191:274,1,140.625005364418,0|0,1:0|0:0,0:0:0:0:
186,204,74269,5,10,1:2:0:0:
329,318,74422,1,2,3:2:0:0:
104,198,74576,2,0,B|126:133|126:133|206:122,1,140.625005364418,4|0,1:3|0:0,0:0:0:0:
278,120,74882,5,0,1:0:0:0:
278,120,75189,2,0,L|290:49,1,46.8750017881394,8|0,1:3|0:0,0:0:0:0:
305,0,75343,1,2,3:2:0:0:
358,132,75496,1,10,1:2:0:0:
239,251,75650,6,0,L|227:180,1,46.8750017881394,8|0,1:3|0:0,0:0:0:0:
306,191,75803,2,0,L|318:262,1,46.8750017881394,4|0,1:3|0:0,0:0:0:0:
291,309,75957,1,0,0:3:0:0:
197,110,76110,6,0,B|129:98|129:98|120:88|120:88|63:78,1,140.625005364418,4|0,1:3|0:0,0:0:0:0:
105,10,76417,2,0,B|162:20|162:20|171:30|171:30|239:42,1,140.625005364418,2|0,3:2|0:0,0:0:0:0:
316,56,76724,5,2,3:2:0:0:
268,326,77031,2,0,B|258:269|258:269|248:260|248:260|236:192,1,140.625005364418,4|0,1:3|0:0,0:0:0:0:
280,128,77338,5,6,3:0:0:0:
280,128,77645,1,6,3:0:0:0:
350,337,77952,6,0,P|344:362|328:389,1,50,2|6,3:0|3:0,0:0:0:0:
