osu file format v14

[General]
AudioFilename: audio.mp3
AudioLeadIn: 0
PreviewTime: 19560
Countdown: 0
SampleSet: Soft
StackLeniency: 0.7
Mode: 0
LetterboxInBreaks: 0
WidescreenStoryboard: 1

[Editor]
Bookmarks: 9808,19640,29460,39281,49102,58923,62606,68744,78258
DistanceSpacing: 1
BeatDivisor: 4
GridSize: 16
TimelineZoom: 1.4

[Metadata]
Title:SugarCrash!
TitleUnicode:SugarCrash!
Artist:ElyOtto
ArtistUnicode:ElyOtto
Creator:Mimari
Version:Normal!
Source:
Tags:english hyperpop hip hop pop jamesjan jamesjan3 vanchanical ancel ancelysia sylas thekoala tiktok sugarcrush
BeatmapID:2854356
BeatmapSetID:1376120

[Difficulty]
HPDrainRate:3
CircleSize:3
OverallDifficulty:4
ApproachRate:6
SliderMultiplier:2
SliderTickRate:1

[Events]
//Background and Video events
0,0,"som.jpg",0,0
//Break Periods
2,59122,61556
//Storyboard Layer 0 (Background)
//Storyboard Layer 1 (Fail)
//Storyboard Layer 2 (Pass)
//Storyboard Layer 3 (Foreground)
//Storyboard Layer 4 (Overlay)
//Storyboard Sound Samples

[TimingPoints]
9819,613.81074168798,4,3,1,60,1,0
9819,-111.111111111111,4,3,1,60,0,0
10432,-111.111111111111,4,2,1,60,0,0
19332,-111.111111111111,4,2,1,80,0,0
19640,-100,4,2,0,80,0,0
21826,-100,4,2,0,50,0,0
22095,-100,4,2,0,80,0,0
26737,-100,4,2,0,50,0,0
27005,-100,4,2,0,80,0,0
29460,-105.263157894737,4,2,0,70,0,0
39281,-105.263157894737,4,3,2,70,0,0
39435,-105.263157894737,4,2,0,70,0,0
48489,-105.263157894737,4,2,0,80,0,0
49102,-100,4,2,0,80,0,0
51289,-100,4,2,0,50,0,0
51558,-100,4,2,0,80,0,0
56200,-100,4,2,0,50,0,0
56468,-100,4,2,0,70,0,0
58923,-100,4,2,0,50,0,0
62606,-111.111111111111,4,2,1,70,0,0
62913,-111.111111111111,4,3,2,70,0,0
62932,-111.111111111111,4,2,1,70,0,0
63834,-111.111111111111,4,3,2,70,0,0
63853,-111.111111111111,4,2,1,70,0,0
65368,-111.111111111111,4,3,2,70,0,0
65387,-111.111111111111,4,2,1,70,0,0
65829,-111.111111111111,4,3,2,70,0,0
65848,-111.111111111111,4,2,1,70,0,0
66136,-111.111111111111,4,3,2,70,0,0
66155,-111.111111111111,4,2,1,70,0,0
66289,-111.111111111111,4,3,2,70,0,0
66308,-111.111111111111,4,2,1,70,0,0
67517,-111.111111111111,4,2,0,70,0,0
68437,-111.111111111111,4,2,0,50,0,0
68744,-105.263157894737,4,2,0,70,0,0
69051,-105.263157894737,4,3,2,70,0,0
69070,-105.263157894737,4,2,0,70,0,0
70279,-105.263157894737,4,3,2,70,0,0
70298,-105.263157894737,4,2,0,70,0,0
70739,-105.263157894737,4,3,2,70,0,0
70758,-105.263157894737,4,2,0,70,0,0
71200,-105.263157894737,4,3,2,70,0,0
71219,-105.263157894737,4,2,0,70,0,0
71506,-105.263157894737,4,3,2,70,0,0
71525,-105.263157894737,4,2,0,70,0,0
72120,-105.263157894737,4,3,2,70,0,0
72139,-105.263157894737,4,2,0,70,0,0
72734,-105.263157894737,4,3,2,70,0,0
72753,-105.263157894737,4,2,0,70,0,0
73348,-105.263157894737,4,3,2,70,0,0
73367,-105.263157894737,4,2,0,70,0,0
73655,-105.263157894737,4,3,2,70,0,0
73674,-105.263157894737,4,2,0,70,0,0
74576,-105.263157894737,4,3,2,70,0,0
74595,-105.263157894737,4,2,0,70,0,0
75803,-105.263157894737,4,3,2,70,0,0
75822,-105.263157894737,4,2,0,70,0,0
76110,-105.263157894737,4,3,2,70,0,0
76129,-105.263157894737,4,2,0,70,0,0
77031,-105.263157894737,4,3,2,70,0,0
77050,-105.263157894737,4,2,0,70,0,0
78565,-105.263157894737,4,2,0,5,0,0

[Colours]
Combo1 : 203,168,251
Combo2 : 242,168,215
Combo3 : 157,203,249

[HitObjects]
452,93,9819,6,0,L|441:198,1,89.9999972534181,2|2,3:2|2:0,0:0:0:0:
372,238,10432,2,0,P|330:212|281:217,1,89.9999972534181,2|2,0:0|0:0,2:0:0:0:
255,241,10893,1,2,0:0:0:0:
255,241,11046,2,0,B|219:255|201:280|201:280|145:306|77:258,1,179.999994506836,2|2,3:2|0:0,0:0:0:0:
46,192,11966,1,2,0:0:0:0:
91,114,12274,6,0,P|104:52|111:16,1,89.9999972534181,2|2,3:2|0:2,0:0:0:0:
198,37,12887,2,0,P|233:17|291:25,1,89.9999972534181,2|2,0:0|0:0,0:0:0:0:
321,50,13347,1,2,0:0:0:0:
321,50,13501,2,0,B|384:75|439:38|439:38|507:95|464:178,1,269.999991760254,2|0,3:2|0:0,0:0:0:0:
488,257,14729,6,0,P|444:246|394:235,1,89.9999972534181,2|2,3:2|0:0,0:0:0:0:
332,295,15343,2,0,P|288:305|238:317,1,89.9999972534181,2|2,0:0|0:0,0:0:0:0:
206,296,15803,1,2,0:0:0:0:
206,296,15957,2,0,B|179:247|207:207|207:207|229:158|205:118,1,179.999994506836,2|2,3:2|0:0,0:0:0:0:
150,55,16877,1,2,0:0:0:0:
61,38,17184,6,0,P|43:77|53:136,1,89.9999972534181,2|2,3:2|0:0,0:0:0:0:
91,201,17798,2,0,P|109:240|99:299,1,89.9999972534181,2|2,3:2|0:0,0:0:0:0:
88,329,18259,1,2,0:0:0:0:
88,329,18412,2,0,B|42:338|50:244|128:257|128:257|259:281,1,269.999991760254,2|0,3:2|0:0,0:0:0:0:
337,339,19640,6,0,P|356:297|347:241,1,100,8|8,1:3|1:3,0:0:0:0:
322,202,20100,1,2,0:0:0:0:
297,158,20253,1,8,1:2:0:0:
323,61,20560,1,2,1:0:0:0:
414,20,20867,6,0,P|470:34|491:81,1,100,2|8,3:2|1:3,0:0:0:0:
496,117,21327,1,2,0:0:0:0:
485,166,21481,1,10,1:2:0:0:
505,263,21788,1,2,0:3:0:0:
461,353,22095,6,0,L|394:336,1,50,8|2,1:3|3:2,0:0:0:0:
363,350,22402,2,0,L|296:333,1,50,8|2,1:3|3:2,0:0:0:0:
269,346,22709,1,8,1:2:0:0:
225,260,23015,1,2,1:0:0:0:
241,161,23322,6,0,P|251:131|254:92,1,50,2|4,1:0|1:3,0:0:0:0:
224,72,23629,2,0,P|210:43|185:13,1,50,4|4,1:3|1:3,0:0:0:0:
152,12,23936,1,10,1:2:0:0:
55,37,24243,1,4,3:2:0:0:
19,130,24550,6,0,L|32:235,1,100,8|8,1:3|1:3,0:0:0:0:
39,278,25010,1,2,3:2:0:0:
48,326,25164,1,10,1:2:0:0:
135,374,25471,1,6,1:3:0:0:
219,320,25778,6,0,B|281:310|281:310|327:334,1,100,2|2,3:2|1:0,0:0:0:0:
354,356,26238,1,2,0:0:0:0:
399,375,26391,1,10,1:2:0:0:
477,312,26698,1,2,1:2:0:0:
432,222,27005,6,0,L|424:166,1,50,4|2,1:3|3:2,0:0:0:0:
403,126,27312,2,0,L|395:70,1,50,4|2,1:3|3:2,0:0:0:0:
375,30,27619,1,2,1:3:0:0:
278,5,27926,1,8,1:3:0:0:
204,72,28233,6,0,P|189:116|198:179,1,100,8|8,1:3|1:3,0:0:0:0:
262,242,28847,1,8,1:2:0:0:
359,220,29154,1,2,3:0:0:0:
450,245,29460,6,0,B|472:281|472:281|447:346,1,94.9999974632264,0|0,1:0|1:0,0:0:0:0:
423,368,29921,1,2,0:0:0:0:
423,368,30074,2,0,L|359:355,1,47.4999987316132,10|2,1:2|3:2,0:0:0:0:
334,336,30381,1,0,1:0:0:0:
242,360,30688,6,0,P|194:364|159:322,1,94.9999974632264,2|8,0:0|1:3,0:0:0:0:
151,286,31148,1,2,0:0:0:0:
151,286,31302,1,10,1:2:0:0:
207,209,31609,1,2,3:2:0:0:
196,114,31916,6,0,L|140:104,1,47.4999987316132,0|2,1:0|3:2,0:0:0:0:
101,111,32223,2,0,L|45:101,1,47.4999987316132,0|2,1:0|3:2,0:0:0:0:
10,120,32530,1,10,1:2:0:0:
47,207,32836,1,0,1:0:0:0:
5,292,33143,6,0,P|17:330|28:352,1,47.4999987316132,0|0,1:0|1:0,1:0:0:0:
63,357,33450,1,0,1:0:0:0:
152,324,33757,1,10,1:2:0:0:
236,368,34064,1,2,3:0:0:0:
321,326,34371,6,0,P|352:257|342:224,1,94.9999974632264,0|0,1:0|1:0,0:0:0:0:
325,199,34831,1,0,0:0:0:0:
325,199,34985,1,10,1:2:0:0:
230,169,35292,1,0,1:0:0:0:
242,74,35599,6,0,L|295:59,1,47.4999987316132,2|2,0:0|0:0,0:0:0:0:
333,73,35905,2,0,L|386:58,1,47.4999987316132,8|2,1:3|0:0,0:0:0:0:
423,43,36212,1,10,1:2:0:0:
478,120,36519,1,2,3:0:0:0:
444,209,36826,6,8,P|430:261|428:317,1,94.9999974632264,8|8,1:3|1:3,0:0:0:0:
451,349,37287,1,2,3:2:0:0:
451,349,37440,1,10,1:2:0:0:
359,374,37747,2,0,L|305:363,1,47.4999987316132,8|0,1:3|0:0,0:0:0:0:
287,323,38054,6,0,L|225:337,1,47.4999987316132,10|2,1:3|3:0,0:0:0:0:
194,320,38361,1,10,1:3:0:0:
230,232,38668,1,10,1:2:0:0:
167,160,38975,1,2,1:3:0:0:
232,91,39281,6,0,P|237:51|203:5,1,94.9999974632264,4|0,1:3|3:0,0:0:0:0:
112,10,39895,2,0,L|45:23,1,47.4999987316132,10|0,1:2|0:0,0:0:0:0:
18,29,40202,1,0,1:0:0:0:
3,122,40509,6,0,P|12:182|26:224,1,94.9999974632264,2|8,0:0|1:3,0:0:0:0:
58,244,40969,1,2,3:2:0:0:
58,244,41123,1,10,3:2:0:0:
42,337,41430,1,0,1:0:0:0:
133,362,41737,6,0,L|195:349,1,47.4999987316132,8|0,1:3|3:0,0:0:0:0:
225,364,42044,2,0,L|287:351,1,47.4999987316132,10|2,3:0|3:0,0:0:0:0:
318,361,42350,1,10,1:2:0:0:
395,306,42657,1,0,1:0:0:0:
473,358,42964,6,0,P|481:326|490:249,1,94.9999974632264,2|8,0:0|1:3,0:0:0:0:
439,183,43578,2,0,L|426:123,1,47.4999987316132,10|0,1:2|3:0,0:0:0:0:
415,90,43885,1,8,1:3:0:0:
343,27,44192,6,0,P|292:30|260:67,1,94.9999974632264,2|0,1:0|1:0,0:0:0:0:
243,103,44652,1,0,3:0:0:0:
243,103,44806,1,10,1:2:0:0:
271,193,45113,1,4,1:3:0:0:
229,278,45420,6,0,L|118:255,1,94.9999974632264,0|8,3:0|1:3,0:0:0:0:
54,308,46033,2,0,L|43:252,1,47.4999987316132,10|8,1:2|1:3,0:0:0:0:
34,214,46340,1,0,1:0:0:0:
80,131,46647,6,0,P|88:71|102:28,1,94.9999974632264,0|0,1:0|1:0,0:0:0:0:
140,17,47108,1,0,0:0:0:0:
140,17,47261,1,10,1:2:0:0:
215,67,47568,2,0,L|272:53,1,47.4999987316132,2|0,1:2|0:0,0:0:0:0:
308,47,47875,5,2,0:0:0:0:
396,80,48182,1,8,1:3:0:0:
417,172,48489,1,10,1:2:0:0:
358,246,48796,1,2,3:0:0:0:
259,229,49102,6,0,L|147:214,1,100,8|8,1:3|1:3,0:0:0:0:
110,212,49563,1,2,0:0:0:0:
65,234,49716,1,10,1:2:0:0:
17,321,50023,1,2,1:0:0:0:
102,372,50330,6,0,L|206:349,1,100,2|8,3:2|1:3,0:0:0:0:
247,338,50790,1,2,0:0:0:0:
295,351,50944,1,10,1:2:0:0:
389,383,51251,1,2,0:3:0:0:
459,312,51558,6,0,P|471:285|471:245,1,50,4|2,1:3|3:2,0:0:0:0:
472,214,51865,2,0,P|465:188|446:153,1,50,4|2,1:3|3:2,0:0:0:0:
425,126,52171,1,10,1:2:0:0:
348,190,52478,1,2,1:0:0:0:
252,160,52785,6,0,L|246:107,1,50,2|4,1:0|1:3,0:0:0:0:
218,68,53092,2,0,L|212:15,1,50,4|4,1:3|1:3,0:0:0:0:
163,9,53399,1,10,1:2:0:0:
79,64,53706,1,4,3:2:0:0:
27,150,54013,6,0,P|84:155|142:175,1,100,4|4,1:3|1:3,0:0:0:0:
162,200,54473,1,2,3:2:0:0:
204,226,54627,1,10,1:2:0:0:
298,193,54934,1,6,1:3:0:0:
397,200,55241,6,0,B|407:262|407:262|383:308,1,100,2|2,3:2|1:0,0:0:0:0:
366,338,55701,1,0,0:0:0:0:
322,362,55854,1,10,1:2:0:0:
231,318,56161,1,2,1:2:0:0:
141,361,56468,6,0,L|85:353,1,50,4|2,1:3|3:2,0:0:0:0:
41,348,56775,2,0,L|23:294,1,50,4|2,1:3|3:2,0:0:0:0:
10,252,57082,1,10,1:2:0:0:
64,168,57389,1,8,1:3:0:0:
6,86,57696,6,0,P|50:71|113:80,1,100,4|4,1:3|1:3,0:0:0:0:
189,125,58310,1,10,3:2:0:0:
280,84,58616,2,0,P|329:78|376:94,1,100,2|0,3:0|0:0,0:0:0:0:
376,94,62606,6,0,L|363:199,1,89.9999972534181,2|4,0:0|0:0,0:0:0:0:
409,250,63220,2,0,B|362:276|322:251|322:251|278:219|235:238,1,179.999994506836,0|4,0:0|0:0,0:0:0:0:
94,316,64448,2,0,L|107:217,1,89.9999972534181
52,165,65061,6,0,B|39:83|93:50|93:50|107:74|148:86,1,179.999994506836,2|0,0:0|0:0,0:0:0:0:
202,119,65982,1,0,0:0:0:0:
266,69,66289,6,0,L|357:54,1,89.9999972534181,4|0,0:0|0:0,0:0:0:0:
398,48,66749,1,0,0:0:0:0:
398,48,66903,1,0,0:0:0:0:
463,109,67210,2,0,P|469:156|450:206,1,89.9999972534181
408,271,67824,1,0,0:0:0:0:
324,236,68131,2,0,P|281:223|237:229,1,89.9999972534181
156,279,68744,6,0,L|145:174,1,94.9999974632264,0|4,3:0|1:3,0:0:0:0:
199,105,69358,1,10,1:2:0:0:
136,38,69665,2,0,P|82:36|40:68,1,94.9999974632264,2|2,1:0|0:0,0:0:0:0:
3,140,70279,2,0,L|12:201,1,47.4999987316132,4|0,1:3|0:0,0:0:0:0:
19,233,70586,1,10,1:2:0:0:
87,298,70893,1,2,3:0:0:0:
174,261,71200,6,0,P|212:258|270:297,1,94.9999974632264,4|4,1:3|1:3,0:0:0:0:
331,347,71813,1,10,1:2:0:0:
418,309,72120,2,0,P|436:272|425:201,1,94.9999974632264,4|2,1:3|3:2,0:0:0:0:
414,175,72581,1,2,3:0:0:0:
414,175,72735,1,4,1:3:0:0:
449,86,73041,1,8,1:2:0:0:
395,7,73348,1,4,1:3:0:0:
310,50,73655,6,0,L|202:27,1,94.9999974632264,4|0,1:3|1:0,0:0:0:0:
137,82,74269,1,10,1:2:0:0:
195,156,74576,1,4,1:3:0:0:
168,247,74882,2,0,P|160:288|116:344,1,94.9999974632264,0|8,1:0|1:3,0:0:0:0:
91,354,75343,1,2,3:2:0:0:
91,354,75496,1,10,1:2:0:0:
34,277,75803,1,4,1:3:0:0:
48,183,76110,6,0,L|64:77,1,94.9999974632264,4|2,1:3|3:2,0:0:0:0:
143,38,76724,2,0,P|181:16|237:33,1,94.9999974632264,2|4,3:2|1:3,0:0:0:0:
277,108,77338,1,6,3:0:0:0:
339,36,77645,1,6,3:0:0:0:
416,91,77952,2,0,P|442:139|457:192,1,94.9999974632264,2|6,3:0|3:0,0:0:0:0:
