osu file format v14

[General]
AudioFilename: audio.mp3
AudioLeadIn: 0
PreviewTime: 14950
Countdown: 0
SampleSet: Normal
StackLeniency: 0.7
Mode: 0
LetterboxInBreaks: 0
WidescreenStoryboard: 1

[Editor]
Bookmarks: 15082,23502,33986,50724,67063,81940,110925
DistanceSpacing: 1.7
BeatDivisor: 4
GridSize: 8
TimelineZoom: 1.900006

[Metadata]
Title:A Little Less Conversation
TitleUnicode:A Little Less Conversation
Artist:Elvis Presley
ArtistUnicode:Elvis Presley
Creator:muza
Version:Satisfactory Extra AR 10
Source:
Tags:satisfy me baby more action
BeatmapID:1748948
BeatmapSetID:834984

[Difficulty]
HPDrainRate:6
CircleSize:4
OverallDifficulty:8.3
ApproachRate:10
SliderMultiplier:1.4
SliderTickRate:1

[Events]
//Background and Video events
0,0,"osu-map-a-little-less-conversation-elvis-bg.png",0,0
//Break Periods
//Storyboard Layer 0 (Background)
//Storyboard Layer 1 (Fail)
//Storyboard Layer 2 (Pass)
//Storyboard Layer 3 (Foreground)
//Storyboard Sound Samples

[TimingPoints]
8830,259.74025974026,4,1,1,40,1,0
12967,-133.333333333333,4,1,1,40,0,0
12986,263.020689655172,4,1,1,40,1,0
15090,265.486725663717,4,1,1,60,1,0
19337,260.869565217391,4,1,1,60,1,0
23510,261.576666666667,4,1,1,60,1,0
24030,-66.6666666666667,4,1,1,60,0,0
24421,-100,4,1,1,60,0,0
25072,-66.6666666666667,4,1,1,60,0,0
25463,-100,4,1,1,60,0,0
26114,-66.6666666666667,4,1,1,60,0,0
26504,-100,4,1,1,60,0,0
27695,266.055388026608,4,1,1,60,1,0
31952,255.31914893617,4,1,1,60,1,0
33994,261.3518744551,4,1,1,60,1,0
38175,259.179265658747,4,1,1,60,1,0
42321,263.736263736264,4,1,1,60,1,0
42848,-62.5,4,1,1,60,0,1
43244,-83.3333333333333,4,1,1,60,0,1
44958,-66.6666666666667,4,1,1,60,0,1
45353,-83.3333333333333,4,1,1,60,0,1
46540,262.008733624454,4,1,1,60,1,1
50732,262.008733624454,4,1,1,60,1,0
51256,-62.5,4,1,1,60,0,0
51649,-100,4,1,1,60,0,0
52304,-62.5,4,1,1,60,0,0
52697,-100,4,1,1,60,0,0
53352,-58.8235294117647,4,1,1,60,0,0
54400,-66.6666666666667,4,1,1,60,0,0
54793,-58.8235294117647,4,1,1,60,0,0
54924,265.008733624454,4,1,1,60,1,1
57044,-100,4,1,1,60,0,0
58369,-66.6666666666667,4,1,1,60,0,0
59164,260.869565217391,4,1,1,60,1,0
60468,-66.6666666666667,4,1,1,60,0,0
61250,263.157894736842,4,1,1,60,1,0
61250,-133.333333333333,4,1,1,60,0,0
63092,-133.333333333333,4,1,1,20,0,0
63355,265.486725663717,4,1,1,60,1,0
63355,-200,4,1,1,50,0,0
65388,-333.333333333333,4,1,1,40,0,0
67565,-100,4,1,1,50,0,0
69726,263.157894736842,4,1,1,40,1,0
71304,-100,4,1,1,15,0,0
71831,255.31914893617,4,1,1,40,1,0
73362,-100,4,1,1,15,0,0
73873,253.164556962025,4,1,1,40,1,0
75391,-100,4,1,1,15,0,0
75898,264.200840336134,4,1,1,40,1,0
75898,-133.333333333333,4,1,1,30,0,0
76954,249.200840336134,4,1,1,40,1,0
76954,-117.647058823529,4,1,1,40,0,0
77950,251.400840336134,4,1,1,50,1,0
77950,-100,4,1,1,50,0,0
78955,-80,4,1,1,60,0,0
79961,248.400840336134,4,1,1,70,1,0
79961,-57.1428571428571,4,1,1,70,0,1
81948,264.31718061674,4,1,1,65,1,0
82476,-100,4,1,1,65,0,1
84062,259.74025974026,4,1,1,60,1,1
84581,-66.6666666666667,4,1,1,60,0,1
84971,-100,4,1,1,60,0,1
85360,-57.1428571428571,4,1,1,60,0,1
85620,-100,4,1,1,60,0,1
85880,-57.1428571428571,4,1,1,60,0,1
86139,260.869565217391,4,1,1,60,1,1
86139,-80,4,1,1,60,0,1
88617,-100,4,1,1,60,0,1
89139,-80,4,1,1,60,0,1
89530,-66.6666666666667,4,1,1,60,0,1
89791,-80,4,1,1,60,0,1
89921,-66.6666666666667,4,1,1,60,0,1
90182,-80,4,1,1,60,0,1
90312,260.869565217391,4,1,1,60,1,0
90833,-66.6666666666667,4,1,1,60,0,0
91225,-100,4,1,1,60,0,0
91877,-66.6666666666667,4,1,1,60,0,0
92268,-100,4,1,1,60,0,0
92920,-66.6666666666667,4,1,1,60,0,0
93312,-100,4,1,1,60,0,0
94485,259.74025974026,4,1,1,60,1,1
94485,-66.6666666666667,4,1,1,60,0,1
96562,-100,4,1,1,60,0,0
98640,258.620689655172,4,1,1,60,1,0
98640,-57.1428571428571,4,1,1,60,0,1
102777,253.592561284869,4,1,1,60,1,0
102777,-80,4,1,1,60,0,0
104044,-57.1428571428571,4,1,1,60,0,0
104805,-66.6666666666667,4,1,1,60,0,0
106454,-100,4,1,1,60,0,0
106834,256.191289496157,4,1,1,60,1,0
108883,-66.6666666666667,4,1,1,60,0,0
110933,252.100840336134,4,1,1,60,1,0
111059,-100,4,1,1,5,0,0
114966,252.100840336134,4,1,1,60,1,0

[HitObjects]
143,123,8830,5,0,0:0:0:0:
201,217,9089,1,0,0:0:0:0:
267,307,9349,1,0,0:0:0:0:
304,128,10128,5,0,0:0:0:0:
304,128,10258,1,0,0:0:0:0:
352,248,10518,1,0,0:0:0:0:
352,248,10648,1,0,0:0:0:0:
96,200,10907,1,0,0:0:0:0:
96,200,11167,1,0,0:0:0:0:
96,200,11427,1,0,0:0:0:0:
338,73,11817,5,8,0:0:0:0:
394,114,11946,1,8,0:0:0:0:
389,183,12076,1,8,0:0:0:0:
333,225,12206,1,8,0:0:0:0:
291,168,12336,1,8,0:0:0:0:
220,165,12466,1,8,0:0:0:0:
186,226,12596,1,8,0:0:0:0:
219,287,12726,1,8,0:0:0:0:
288,282,12855,1,8,0:0:0:0:
333,225,12985,5,4,0:0:0:0:
167,174,13249,5,0,0:0:0:0:
136,184,13380,1,0,0:0:0:0:
104,192,13512,1,0,0:0:0:0:
72,200,13643,1,0,0:0:0:0:
180,314,13906,2,2,L|344:325,2,140
383,71,14695,5,0,0:0:0:0:
312,192,14827,1,8,0:0:0:0:
277,56,14958,1,0,0:0:0:0:
204,174,15090,5,4,0:0:0:0:
160,200,15222,1,0,0:0:0:0:
120,224,15355,2,0,L|136:291,1,70
80,56,15620,1,8,0:0:0:0:
204,174,15886,5,0,0:0:0:0:
240,152,16019,2,0,L|224:85,1,70
304,272,16284,2,0,L|320:339,1,70
424,328,16550,1,0,0:0:0:0:
464,232,16682,1,8,0:0:0:0:
448,184,16815,1,0,0:0:0:0:
432,136,16948,1,0,0:0:0:0:
424,328,17213,5,4,0:0:0:0:
248,304,17479,2,0,L|145:291,1,70
423,327,17744,2,0,P|477:285|497:219,1,140,8|0,0:0|0:0,0:0:0:0:
416,112,18143,1,0,0:0:0:0:
128,280,18408,5,0,0:0:0:0:
147,73,18541,1,0,0:0:0:0:
281,233,18674,1,0,0:0:0:0:
147,73,18806,5,8,0:0:0:0:
89,157,18939,1,0,0:0:0:0:
185,194,19072,1,0,0:0:0:0:
128,280,19205,1,0,0:0:0:0:
227,332,19337,1,4,0:0:0:0:
147,73,19597,5,0,0:0:0:0:
316,118,19858,2,0,P|375:83|407:22,1,140,8|0,0:0|0:0,0:0:0:0:
480,192,20250,2,0,L|513:296,1,70
408,23,20510,5,0,0:0:0:0:
369,120,20641,2,0,L|329:222,1,70
168,23,20902,5,8,0:0:0:0:
207,120,21032,2,0,L|247:222,1,70
280,304,21293,1,0,0:0:0:0:
280,304,21554,5,0,0:0:0:0:
96,280,21684,1,0,0:0:0:0:
326,118,21945,6,0,B|287:80|287:80|274:56|274:56|231:16,1,140,8|0,0:0|0:0,0:0:0:0:
400,200,22336,1,0,0:0:0:0:
488,280,22467,5,8,0:0:0:0:
488,280,22597,1,8,0:0:0:0:
472,128,22728,1,8,0:0:0:0:
472,128,22858,1,8,0:0:0:0:
344,272,22989,1,0,0:0:0:0:
344,272,23119,1,0,0:0:0:0:
256,192,23250,5,0,0:0:0:0:
216,192,23380,1,0,0:0:0:0:
176,192,23510,2,0,L|64:192,2,70,4|0|0,0:0|0:0|0:0,0:0:0:0:
488,128,24033,6,0,P|456:56|296:64,1,210.000008010865,10|0,0:0|0:0,0:0:0:0:
256,192,24425,1,0,0:0:0:0:
256,232,24556,1,0,0:0:0:0:
256,272,24687,2,0,L|256:384,2,70
175,33,25079,6,0,P|75:40|24:127,1,210.000008010865,10|0,0:0|0:0,0:0:0:0:
112,296,25471,1,0,0:0:0:0:
256,192,25602,1,0,0:0:0:0:
256,152,25733,1,0,0:0:0:0:
256,112,25864,2,0,L|256:0,1,70
488,255,26125,6,0,P|436:342|336:350,1,210.000008010865,10|0,0:0|0:0,0:0:0:0:
400,88,26518,1,0,0:0:0:0:
216,216,26648,5,0,0:0:0:0:
192,80,26779,1,0,0:0:0:0:
96,168,26910,2,0,L|51:113,1,70
48,256,27172,2,0,L|92:310,1,70,10|0,0:0|0:0,0:0:0:0:
192,344,27433,1,0,0:0:0:0:
192,344,27564,1,0,0:0:0:0:
232,96,27695,5,4,0:0:0:0:
144,160,27828,1,0,0:0:0:0:
320,32,27961,1,0,0:0:0:0:
232,256,28094,1,0,0:0:0:0:
152,40,28227,1,8,0:0:0:0:
400,216,28360,2,0,L|494:283,2,70
112,160,28759,6,0,L|40:120,1,70,4|0,0:0|0:0,0:0:0:0:
96,272,29025,2,0,L|158:306,1,70
240,224,29291,1,8,0:0:0:0:
240,224,29424,2,0,L|416:328,1,140
320,376,29823,5,4,0:0:0:0:
320,376,30089,1,0,0:0:0:0:
400,72,30355,2,0,B|394:130|394:130|399:156|399:156|395:211,1,140,8|0,0:0|0:0,0:0:0:0:
394,211,30754,2,0,P|352:176|256:192,1,140
184,256,31153,5,0,0:0:0:0:
184,280,31286,2,0,L|237:325,1,70
88,304,31552,1,0,0:0:0:0:
88,328,31685,2,0,L|141:373,1,70
316,267,31951,5,0,0:0:0:0:
316,267,32207,1,0,0:0:0:0:
144,112,32462,2,0,B|85:106|85:106|59:111|59:111|4:107,1,140,8|0,0:0|0:0,0:0:0:0:
376,112,32845,6,0,L|272:256,1,140
192,24,33228,1,8,0:0:0:0:
144,192,33356,1,8,0:0:0:0:
320,96,33483,1,8,0:0:0:0:
72,88,33611,1,8,0:0:0:0:
184,288,33739,1,8,0:0:0:0:
280,48,33866,1,8,0:0:0:0:
56,184,33994,5,6,0:0:0:0:
48,208,34124,1,0,0:0:0:0:
40,232,34255,1,0,0:0:0:0:
32,256,34386,1,0,0:0:0:0:
24,280,34516,2,0,B|74:311|74:311|99:318|99:318|147:345,1,140,8|0,0:0|0:0,0:0:0:0:
352,272,34908,6,0,P|274:173|213:171,1,140
240,272,35300,1,0,0:0:0:0:
152,192,35431,1,0,0:0:0:0:
184,88,35562,2,0,P|306:58|355:93,1,140,2|0,0:0|0:0,0:0:0:0:
408,128,35954,1,0,0:0:0:0:
408,128,36084,5,0,0:0:0:0:
200,280,36346,1,0,0:0:0:0:
200,280,36476,1,0,0:0:0:0:
200,280,36607,2,0,L|224:400,2,70,8|0|0,0:0|0:0|0:0,0:0:0:0:
160,152,36999,6,0,P|228:149|285:188,1,140,2|0,0:0|0:0,0:0:0:0:
360,296,37391,1,0,0:0:0:0:
360,296,37522,2,0,L|384:416,1,70,0|8,0:0|0:0,0:0:0:0:
416,200,37783,1,0,0:0:0:0:
416,200,37914,2,0,L|392:80,1,70
504,264,38175,6,0,L|528:352,1,70
376,368,38434,1,0,0:0:0:0:
376,368,38563,1,0,0:0:0:0:
256,199,38693,2,0,B|207:164|207:164|191:143|191:143|148:110,1,140,8|0,0:0|0:0,0:0:0:0:
54,150,39082,1,0,0:0:0:0:
54,150,39211,2,0,L|110:191,1,70
336,152,39470,2,0,L|279:110,1,70
277,284,39730,2,0,P|340:311|408:298,1,140,8|0,0:0|0:0,0:0:0:0:
478,230,40118,1,0,0:0:0:0:
406,93,40248,5,2,0:0:0:0:
352,59,40378,1,0,0:0:0:0:
289,57,40507,2,0,P|260:78|239:106,1,70
299,247,40766,5,2,0:0:0:0:
245,281,40896,1,0,0:0:0:0:
182,283,41025,2,0,P|153:262|132:233,1,70
95,45,41285,6,0,P|206:35|262:79,1,140,2|0,0:0|0:0,0:0:0:0:
225,243,41673,5,8,0:0:0:0:
177,141,41803,1,8,0:0:0:0:
269,346,41933,1,8,0:0:0:0:
335,219,42062,1,8,0:0:0:0:
159,370,42192,1,8,0:0:0:0:
67,165,42321,1,0,0:0:0:0:
67,165,42452,1,0,0:0:0:0:
67,165,42584,1,0,0:0:0:0:
296,24,42848,6,0,B|329:45|336:124|305:127|273:130|280:210|316:240,1,224,4|0,0:0|0:0,0:0:0:0:
384,176,43244,2,0,L|488:136,1,83.9999974365235
226,79,43507,2,0,L|122:119,1,83.9999974365235
120,224,43771,1,0,0:0:0:0:
256,312,43903,5,8,0:0:0:0:
296,320,44035,1,0,0:0:0:0:
336,328,44167,1,0,0:0:0:0:
336,328,44430,5,4,0:0:0:0:
368,136,44694,2,0,L|232:104,1,83.9999974365235
88,328,44958,2,0,P|156:325|222:197,1,210.000008010865,8|0,0:0|0:0,0:0:0:0:
368,224,45353,1,0,0:0:0:0:
368,224,45617,5,0,0:0:0:0:
400,104,45749,1,2,0:0:0:0:
336,352,45881,1,0,0:0:0:0:
400,104,46013,5,8,0:0:0:0:
368,224,46145,1,2,0:0:0:0:
266,145,46277,1,0,0:0:0:0:
233,267,46408,1,0,0:0:0:0:
128,192,46540,5,4,0:0:0:0:
128,192,46802,2,0,L|128:88,1,70
0,248,47064,1,8,0:0:0:0:
266,145,47326,5,0,0:0:0:0:
266,305,47457,2,0,L|266:375,1,70,2|0,0:0|0:0,0:0:0:0:
351,274,47719,5,2,0:0:0:0:
179,175,47850,2,0,L|104:132,1,70
135,300,48112,5,8,0:0:0:0:
396,149,48243,1,8,0:0:0:0:
135,300,48505,5,4,0:0:0:0:
396,149,48767,5,4,0:0:0:0:
135,300,48898,1,4,0:0:0:0:
294,54,49160,2,0,B|332:93|332:93|356:106|356:106|396:149,1,140,8|0,0:0|0:0,0:0:0:0:
416,24,49553,1,0,0:0:0:0:
191,111,49684,5,0,0:0:0:0:
208,172,49815,1,8,0:0:0:0:
277,250,49946,1,10,0:0:0:0:
336,266,50077,1,8,0:0:0:0:
174,271,50208,1,8,0:0:0:0:
131,314,50339,2,0,L|49:395,2,70,10|8|0,0:0|0:0|0:0,0:0:0:0:
256,192,50732,5,4,0:0:0:0:
284,163,50863,1,0,0:0:0:0:
312,135,50994,2,0,L|391:55,1,70
56,271,51256,2,0,P|16:169|48:64,1,224,2|0,0:0|0:0,0:0:0:0:
149,86,51649,1,0,0:0:0:0:
256,192,51780,5,0,0:0:0:0:
227,164,51911,1,0,0:0:0:0:
199,136,52042,2,0,L|119:56,1,70
455,271,52304,2,0,P|495:169|464:64,1,224,2|0,0:0|0:0,0:0:0:0:
363,86,52697,1,0,0:0:0:0:
256,192,52828,5,0,0:0:0:0:
256,232,52959,1,0,0:0:0:0:
256,272,53090,2,0,L|256:384,1,70
48,256,53352,6,0,P|72:128|224:128,1,238.00000453949,10|0,0:0|0:0,0:0:0:0:
160,216,53745,1,0,0:0:0:0:
40,40,53876,5,0,0:0:0:0:
232,40,54007,1,0,0:0:0:0:
280,72,54138,1,0,0:0:0:0:
336,72,54269,1,0,0:0:0:0:
384,32,54400,2,0,P|464:24|504:56,1,105.000004005432,10|0,0:0|0:0,0:0:0:0:
350,164,54662,2,0,L|312:262,1,105.000004005432,2|0,0:0|0:0,0:0:0:0:
280,344,54924,5,4,0:0:0:0:
384,80,55056,1,0,0:0:0:0:
408,320,55189,1,0,0:0:0:0:
241,107,55321,1,0,0:0:0:0:
273,361,55454,5,8,0:0:0:0:
391,61,55586,1,0,0:0:0:0:
112,224,55719,1,0,0:0:0:0:
52,162,55851,1,0,0:0:0:0:
29,77,55984,6,0,P|28:29|51:-24,1,70,4|0,0:0|0:0,0:0:0:0:
127,84,56249,2,0,P|143:130|183:172,1,70
170,3,56514,1,8,0:0:0:0:
170,3,56646,2,0,P|232:48|304:56,1,140
392,24,57044,5,4,0:0:0:0:
416,232,57309,1,4,0:0:0:0:
118,186,57574,2,0,P|110:216|118:266,1,70
199,235,57839,2,0,P|207:268|199:307,1,70
114,340,58104,2,0,L|44:333,1,70
238,128,58369,6,0,P|342:88|350:152,1,210,2|0,0:0|0:0,0:0:0:0:
125,108,58766,2,0,P|229:68|237:132,1,210,2|0,0:0|0:0,0:0:0:0:
244,325,59164,5,4,0:0:0:0:
29,114,59424,1,4,0:0:0:0:
302,211,59685,2,0,P|291:169|302:131,1,70
378,165,59946,2,0,P|387:124|378:93,1,70
234,43,60207,2,0,L|304:50,1,70
117,249,60468,2,0,P|13:289|5:225,1,210,2|0,0:0|0:0,0:0:0:0:
231,269,60859,2,0,P|127:309|119:245,1,210.000008010865,2|0,0:0|0:0,0:0:0:0:
363,287,61250,6,0,B|408:219|430:264|430:264|453:219|453:219|476:196|521:219|521:219|532:94|447:134|447:134|487:49|363:60|363:60|385:105|363:128|363:128|317:151|317:151|363:173|295:219,1,735.000028038026,4|0,0:0|0:0,0:0:0:0:
155,299,63355,5,0,0:0:0:0:
68,175,63620,2,0,L|29:174,3,35
215,167,64284,2,0,L|263:113,2,70
146,216,65080,1,0,0:0:0:0:
146,216,65213,1,0,0:0:0:0:
326,331,65478,6,0,P|414:241|385:236,1,293.999991027832,4|0,0:0|0:0,0:0:0:0:
154,248,67602,5,2,0:0:0:0:
74,202,67868,1,2,0:0:0:0:
64,157,68001,1,2,0:0:0:0:
78,114,68133,1,2,0:0:0:0:
108,79,68266,5,2,0:0:0:0:
198,79,68531,5,2,0:0:0:0:
243,157,68797,5,2,0:0:0:0:
200,236,69062,5,2,0:0:0:0:
108,236,69328,5,2,0:0:0:0:
108,236,69461,1,2,0:0:0:0:
368,192,69726,5,8,0:0:0:0:
368,192,69857,2,0,L|472:192,1,70,8|0,0:0|0:0,0:0:0:0:
324,280,70120,1,8,0:0:0:0:
324,280,70252,2,0,L|388:362,1,70,8|0,0:0|0:0,0:0:0:0:
192,64,70515,5,2,0:0:0:0:
192,64,70647,2,0,L|80:64,1,70,2|0,0:0|0:0,0:0:0:0:
320,64,70910,1,2,0:0:0:0:
320,64,71041,2,0,L|432:64,5,70,2|0|0|0|0|0,0:0|0:0|0:0|0:0|0:0|0:0,0:0:0:0:
356,241,71831,5,8,0:0:0:0:
356,241,71958,2,0,L|450:286,1,70,8|0,0:0|0:0,0:0:0:0:
279,301,72213,5,8,0:0:0:0:
279,301,72341,2,0,L|300:403,1,70,8|0,0:0|0:0,0:0:0:0:
320,64,72596,5,2,0:0:0:0:
320,64,72724,2,0,L|432:64,1,70,2|0,0:0|0:0,0:0:0:0:
192,64,72979,5,2,0:0:0:0:
192,64,73107,2,0,L|80:64,5,70,2|0|0|0|0|0,0:0|0:0|0:0|0:0|0:0|0:0,0:0:0:0:
324,280,73873,5,8,0:0:0:0:
324,280,73999,2,0,L|388:362,1,70,8|0,0:0|0:0,0:0:0:0:
232,301,74252,5,8,0:0:0:0:
232,301,74379,2,0,L|211:403,1,70,8|0,0:0|0:0,0:0:0:0:
192,64,74632,5,2,0:0:0:0:
192,64,74759,2,0,L|80:64,1,70,2|0,0:0|0:0,0:0:0:0:
320,64,75012,5,2,0:0:0:0:
320,64,75138,2,0,L|432:64,5,70,2|0|0|0|0|0,0:0|0:0|0:0|0:0|0:0|0:0,0:0:0:0:
155,241,75898,6,0,P|200:256|287:214,1,105.000004005432,4|0,0:0|0:0,0:0:0:0:
254,244,76294,2,0,P|289:205|338:191,1,105.000004005432
338,191,76690,2,0,L|346:119,1,52.5000020027161
208,160,76954,6,0,P|150:167|64:125,1,119.000002269745,4|0,0:0|0:0,0:0:0:0:
92,149,77327,2,0,P|95:90|72:35,1,119.000002269745
92,149,77701,2,0,L|88:264,1,59.5000011348725
224,64,77950,6,0,P|272:64|320:80,1,70,4|0,0:0|0:0,0:0:0:0:
392,128,78201,1,0,0:0:0:0:
408,144,78327,2,0,L|408:64,1,70
296,224,78578,1,0,0:0:0:0:
280,240,78704,2,0,L|280:160,1,70
432,344,78955,5,4,0:0:0:0:
416,328,79081,2,0,P|368:320|328:328,1,87.5
200,368,79332,1,0,0:0:0:0:
208,320,79458,2,0,L|217:225,1,87.5
240,32,79709,2,0,P|283:30|326:38,1,87.5
121,172,79961,6,0,L|64:64,1,122.500001168251,6|0,0:0|0:0,0:0:0:0:
208,320,80209,1,0,0:0:0:0:
392,104,80333,2,0,L|472:0,1,122.500001168251,6|0,0:0|0:0,0:0:0:0:
376,320,80582,1,0,0:0:0:0:
192,104,80706,2,0,L|112:0,1,122.500001168251,6|0,0:0|0:0,0:0:0:0:
330,75,80954,5,12,0:0:0:0:
252,281,81078,1,8,0:0:0:0:
153,81,81203,1,10,0:0:0:0:
352,209,81327,1,8,0:0:0:0:
98,233,81451,5,12,0:0:0:0:
282,36,81575,1,8,0:0:0:0:
280,320,81699,1,8,0:0:0:0:
119,110,81824,1,8,0:0:0:0:
478,160,81948,1,12,0:0:0:0:
478,160,82080,1,8,0:0:0:0:
478,160,82212,1,8,0:0:0:0:
0,48,82476,5,6,0:0:0:0:
232,240,82740,1,0,0:0:0:0:
232,240,82873,2,0,L|344:272,1,70
464,288,83137,2,0,P|480:256|487:168,1,70
456,64,83401,5,0,0:0:0:0:
296,88,83533,1,0,0:0:0:0:
408,184,83666,1,0,0:0:0:0:
360,0,83798,1,0,0:0:0:0:
464,360,84062,5,4,0:0:0:0:
292,348,84321,2,0,L|256:288,1,70
136,88,84581,2,0,B|109:37|49:37|49:37|31:94|70:133,1,210.000008010865,8|0,0:0|0:0,0:0:0:0:
192,184,84971,1,0,0:0:0:0:
192,184,85100,2,0,L|156:244,1,70
376,40,85360,6,0,B|439:29|480:88|480:88|459:156|396:166,1,245.000002336502,2|0,0:0|0:0,0:0:0:0:
269,117,85750,1,0,0:0:0:0:
269,117,85880,2,0,B|236:140|213:140|213:140|213:163|190:197,1,122.500001168251,8|0,0:0|0:0,0:0:0:0:
234,271,86139,1,0,0:0:0:0:
96,24,86399,1,0,0:0:0:0:
234,271,86660,6,0,P|171:326|88:312,1,175,8|0,0:0|0:0,0:0:0:0:
156,114,87052,2,0,L|240:88,1,87.5
144,224,87312,5,0,0:0:0:0:
296,176,87443,2,0,L|380:150,1,87.5,2|0,0:0|0:0,0:0:0:0:
395,26,87704,5,8,0:0:0:0:
357,328,87834,1,8,0:0:0:0:
395,26,88095,5,4,0:0:0:0:
357,328,88356,5,4,0:0:0:0:
395,26,88486,1,4,0:0:0:0:
156,114,88747,6,0,B|22:156,1,140,8|0,0:0|0:0,0:0:0:0:
64,48,89139,1,0,0:0:0:0:
120,224,89269,1,0,0:0:0:0:
192,8,89399,5,0,0:0:0:0:
307,268,89530,2,0,P|270:231|256:182,1,105.000004005432,2|0,0:0|0:0,0:0:0:0:
288,80,89791,1,0,0:0:0:0:
400,304,89921,2,0,P|363:340|313:355,1,105.000004005432,2|0,0:0|0:0,0:0:0:0:
216,312,90182,1,0,0:0:0:0:
160,128,90312,5,4,0:0:0:0:
168,80,90442,1,0,0:0:0:0:
193,39,90572,2,0,P|220:17|253:4,1,70
176,320,90833,2,0,P|86:268|39:176,1,210.000008010865,10|0,0:0|0:0,0:0:0:0:
352,256,91225,5,4,0:0:0:0:
344,304,91355,1,0,0:0:0:0:
319,345,91485,2,0,P|291:366|258:379,2,70
352,0,91877,2,0,P|248:3|163:63,1,210.000008010865,10|0,0:0|0:0,0:0:0:0:
272,352,92268,5,0,0:0:0:0:
331,342,92398,1,0,0:0:0:0:
382,311,92529,2,0,P|408:276|424:236,2,70
32,160,92920,2,0,P|19:57|119:47,1,210.000008010865,10|0,0:0|0:0,0:0:0:0:
208,264,93312,1,0,0:0:0:0:
248,296,93442,2,0,L|320:344,1,70
490,310,93703,2,0,L|432:272,1,70
352,216,93964,5,8,0:0:0:0:
323,197,94094,1,8,0:0:0:0:
295,178,94225,1,8,0:0:0:0:
267,159,94355,1,8,0:0:0:0:
239,140,94485,5,4,0:0:0:0:
416,152,94614,1,0,0:0:0:0:
320,24,94744,1,0,0:0:0:0:
304,296,94874,1,0,0:0:0:0:
104,320,95004,5,8,0:0:0:0:
48,272,95134,1,0,0:0:0:0:
32,200,95264,2,0,P|32:120|56:72,1,105.000004005432
136,160,95523,6,0,P|184:176|239:174,1,105.000004005432
392,152,95783,2,0,P|361:194|318:224,1,105.000004005432
232,272,96043,1,8,0:0:0:0:
232,272,96173,1,8,0:0:0:0:
480,352,96433,5,0,0:0:0:0:
480,352,96562,2,0,P|411:363|344:345,1,140,4|0,0:0|0:0,0:0:0:0:
384,136,97082,6,0,L|408:224,1,70,10|0,0:0|0:0,0:0:0:0:
496,64,97342,2,0,L|488:168,1,70,2|0,0:0|0:0,0:0:0:0:
344,345,97601,2,0,P|275:356|208:338,1,140,2|0,0:0|0:0,0:0:0:0:
192,200,97991,5,8,0:0:0:0:
312,240,98121,1,8,0:0:0:0:
208,338,98251,1,8,0:0:0:0:
80,160,98381,1,8,0:0:0:0:
352,160,98510,1,8,0:0:0:0:
96,328,98640,6,0,P|56:296|16:224,1,122.500001168251,4|0,0:0|0:0,0:0:0:0:
224,64,98898,2,0,P|264:96|304:168,1,122.500001168251,8|0,0:0|0:0,0:0:0:0:
240,296,99157,1,10,0:0:0:0:
80,160,99286,1,0,0:0:0:0:
224,64,99415,1,10,0:0:0:0:
155,266,99545,1,0,0:0:0:0:
312,120,99674,6,0,L|347:-1,1,122.500001168251,2|0,0:0|0:0,0:0:0:0:
251,327,99933,1,2,0:0:0:0:
416,120,100062,1,8,0:0:0:0:
360,352,100191,1,0,0:0:0:0:
474,231,100321,1,10,0:0:0:0:
304,248,100450,1,8,0:0:0:0:
474,231,100579,1,0,0:0:0:0:
390,239,100708,5,4,0:0:0:0:
219,255,100838,2,0,L|97:266,1,122.500001168251,2|0,0:0|0:0,0:0:0:0:
286,26,101096,5,2,0:0:0:0:
304,248,101226,2,0,L|318:400,1,122.500001168251,10|0,0:0|0:0,0:0:0:0:
31,158,101484,5,2,0:0:0:0:
296,133,101614,2,0,L|486:115,1,122.500001168251,2|0,0:0|0:0,0:0:0:0:
315,369,101872,5,2,0:0:0:0:
162,143,102002,2,0,L|48:-35,1,122.500001168251,2|0,0:0|0:0,0:0:0:0:
238,256,102260,1,8,0:0:0:0:
254,260,102390,1,0,0:0:0:0:
271,265,102519,1,0,0:0:0:0:
288,270,102648,1,0,0:0:0:0:
299,273,102777,6,0,L|422:308,1,87.5,4|0,0:0|0:0,0:0:0:0:
480,120,103030,2,0,L|356:84,1,87.5
92,211,103284,2,0,L|215:246,1,87.5,8|0,0:0|0:0,0:0:0:0:
273,58,103537,2,0,L|149:22,1,87.5
299,273,103791,2,0,L|422:308,1,87.5
367,46,104044,6,0,P|283:0|224:124,1,245.000002336502,2|0,0:0|0:0,0:0:0:0:
294,81,104425,2,0,P|217:23|141:138,1,245.000002336502,2|0,0:0|0:0,0:0:0:0:
167,332,104805,5,6,0:0:0:0:
119,191,104932,2,0,L|85:92,1,105.000004005432,2|0,0:0|0:0,0:0:0:0:
210,255,105186,5,2,0:0:0:0:
200,106,105312,2,0,L|192:1,1,105.000004005432,2|0,0:0|0:0,0:0:0:0:
302,255,105566,5,2,0:0:0:0:
312,106,105693,2,0,L|319:1,1,105.000004005432,2|0,0:0|0:0,0:0:0:0:
345,332,105946,5,2,0:0:0:0:
393,191,106073,2,0,L|427:92,1,105.000004005432,2|0,0:0|0:0,0:0:0:0:
499,6,106327,5,8,0:0:0:0:
503,10,106454,2,0,L|446:182,1,140,8|0,0:0|0:0,0:0:0:0:
449,259,106834,6,0,L|355:266,1,70,4|0,0:0|0:0,0:0:0:0:
325,328,107090,2,0,L|231:335,1,70
203,90,107346,5,8,0:0:0:0:
263,192,107474,1,0,0:0:0:0:
307,81,107602,2,0,L|401:74,1,70
449,180,107858,2,0,L|355:187,1,70
104,88,108114,6,0,L|128:256,1,140,8|0,0:0|0:0,0:0:0:0:
144,320,108499,1,2,0:0:0:0:
216,296,108627,2,0,L|296:208,1,70
166,14,108883,5,6,0:0:0:0:
118,155,109011,2,0,L|84:254,1,105.000004005432,2|0,0:0|0:0,0:0:0:0:
209,91,109267,5,2,0:0:0:0:
199,240,109395,2,0,L|191:344,1,105.000004005432,2|0,0:0|0:0,0:0:0:0:
301,91,109652,5,2,0:0:0:0:
311,240,109780,2,0,L|318:344,1,105.000004005432,2|0,0:0|0:0,0:0:0:0:
344,14,110036,5,2,0:0:0:0:
392,155,110164,2,0,L|426:254,1,105.000004005432,2|0,0:0|0:0,0:0:0:0:
212,62,110420,5,8,0:0:0:0:
171,211,110548,2,0,B|130:272|67:212|35:265|35:265|58:241|131:227,1,210.000008010865,8|0,0:0|0:0,0:0:0:0:
169,328,110933,1,4,0:0:0:0:
256,192,111059,12,4,113075,0:0:0:0:
