osu file format v14

[General]
AudioFilename: audio.mp3
AudioLeadIn: 0
PreviewTime: 92931
Countdown: 0
SampleSet: Normal
StackLeniency: 0.7
Mode: 1
LetterboxInBreaks: 0
WidescreenStoryboard: 1

[Editor]
DistanceSpacing: 2.5
BeatDivisor: 4
GridSize: 32
TimelineZoom: 2.2

[Metadata]
Title:King
TitleUnicode:King
Artist:Eluveitie
ArtistUnicode:Eluveitie
Creator:frukoyurdakul
Version:Oni
Source:
Tags:origins folk melodic death metal pagan
BeatmapID:1348595
BeatmapSetID:635088

[Difficulty]
HPDrainRate:5
CircleSize:2
OverallDifficulty:5
ApproachRate:10
SliderMultiplier:1.6
SliderTickRate:1

[Events]
//Background and Video events
0,0,"BG.jpg",0,-80
//Break Periods
2,219671,225878
//Storyboard Layer 0 (Background)
//Storyboard Layer 1 (Fail)
//Storyboard Layer 2 (Pass)
//Storyboard Layer 3 (Foreground)
//Storyboard Sound Samples

[TimingPoints]
12043,428.571428571429,4,1,0,100,1,0
13757,-100,4,1,0,100,0,0
27471,-100,4,1,0,100,0,1
34328,-100,4,1,0,100,0,0
51364,-100,4,1,0,100,0,0
65185,-100,4,1,0,100,0,1
92614,-100,4,1,0,100,0,0
93043,-100,4,1,0,100,0,1
99471,-100,4,1,0,100,0,0
113078,-100,4,1,0,80,0,0
126900,-100,4,1,0,100,0,1
154328,-100,4,1,0,100,0,0
154435,-100,4,1,0,100,0,0
174900,-100,4,1,0,100,0,1
198900,-100,4,1,0,80,0,0
199114,-100,4,1,0,65,0,0
199221,-100,4,1,0,50,0,0
199328,-100,4,1,0,35,0,0
199435,-100,4,1,0,10,0,0
199543,-100,4,1,0,10,0,0
199650,-100,4,1,0,100,0,0
212721,-100,4,1,0,10,0,0
225471,-100,4,1,0,100,0,0
228007,-95.2380952380952,4,1,0,100,0,0
228043,-95.2380952380952,4,1,0,100,0,1
255471,-95.2380952380952,4,1,0,100,0,0

[HitObjects]
256,192,13757,5,0,0:0:0:0:
256,192,14185,1,8,0:0:0:0:
256,192,14614,1,0,0:0:0:0:
256,192,14828,1,0,0:0:0:0:
256,192,15043,1,8,0:0:0:0:
256,192,15257,1,0,0:0:0:0:
256,192,15685,1,0,0:0:0:0:
256,192,15900,1,8,0:0:0:0:
256,192,16328,1,0,0:0:0:0:
256,192,16543,1,0,0:0:0:0:
256,192,16757,1,8,0:0:0:0:
256,192,16971,1,0,0:0:0:0:
256,192,17185,1,0,0:0:0:0:
256,192,17614,1,8,0:0:0:0:
256,192,18043,1,0,0:0:0:0:
256,192,18257,1,0,0:0:0:0:
256,192,18471,1,8,0:0:0:0:
256,192,18685,1,0,0:0:0:0:
256,192,19114,1,0,0:0:0:0:
256,192,19328,1,8,0:0:0:0:
256,192,19757,1,0,0:0:0:0:
256,192,19971,1,0,0:0:0:0:
256,192,20185,1,8,0:0:0:0:
256,192,20400,1,8,0:0:0:0:
256,192,20614,1,4,0:0:0:0:
256,192,21043,1,8,0:0:0:0:
256,192,21471,1,0,0:0:0:0:
256,192,21685,1,0,0:0:0:0:
256,192,21900,1,8,0:0:0:0:
256,192,22114,1,0,0:0:0:0:
256,192,22543,1,0,0:0:0:0:
256,192,22757,1,8,0:0:0:0:
256,192,23185,1,0,0:0:0:0:
256,192,23400,1,0,0:0:0:0:
256,192,23614,1,8,0:0:0:0:
256,192,23828,1,0,0:0:0:0:
256,192,24043,1,0,0:0:0:0:
256,192,24471,1,8,0:0:0:0:
256,192,24900,1,0,0:0:0:0:
256,192,25114,1,0,0:0:0:0:
256,192,25328,1,8,0:0:0:0:
256,192,25543,1,0,0:0:0:0:
256,192,25971,1,0,0:0:0:0:
256,192,26185,1,8,0:0:0:0:
256,192,26614,1,8,0:0:0:0:
256,192,26721,1,0,0:0:0:0:
256,192,26828,1,0,0:0:0:0:
256,192,27043,1,8,0:0:0:0:
256,192,27150,1,8,0:0:0:0:
256,192,27257,1,8,0:0:0:0:
256,192,27471,1,4,0:0:0:0:
256,192,27685,1,0,0:0:0:0:
256,192,27793,1,0,0:0:0:0:
256,192,27900,1,8,0:0:0:0:
256,192,28114,1,0,0:0:0:0:
256,192,28328,1,8,0:0:0:0:
256,192,28543,1,8,0:0:0:0:
256,192,28757,1,8,0:0:0:0:
256,192,28864,1,0,0:0:0:0:
256,192,28971,1,0,0:0:0:0:
256,192,29185,1,0,0:0:0:0:
256,192,29400,1,0,0:0:0:0:
256,192,29507,1,0,0:0:0:0:
256,192,29614,1,8,0:0:0:0:
256,192,29828,1,0,0:0:0:0:
256,192,30043,1,8,0:0:0:0:
256,192,30257,1,0,0:0:0:0:
256,192,30364,1,8,0:0:0:0:
256,192,30578,1,0,0:0:0:0:
256,192,30685,1,8,0:0:0:0:
256,192,30900,1,0,0:0:0:0:
256,192,31114,1,0,0:0:0:0:
256,192,31221,1,0,0:0:0:0:
256,192,31328,1,8,0:0:0:0:
256,192,31543,1,0,0:0:0:0:
256,192,31757,1,8,0:0:0:0:
256,192,31864,1,0,0:0:0:0:
256,192,31971,1,8,0:0:0:0:
256,192,32185,1,8,0:0:0:0:
256,192,32293,1,0,0:0:0:0:
256,192,32400,1,0,0:0:0:0:
256,192,32614,1,0,0:0:0:0:
256,192,32828,1,0,0:0:0:0:
256,192,33043,1,8,0:0:0:0:
256,192,33257,1,0,0:0:0:0:
256,192,33471,1,8,0:0:0:0:
256,192,33685,1,0,0:0:0:0:
256,192,33793,1,8,0:0:0:0:
256,192,34007,1,8,0:0:0:0:
256,192,34114,1,0,0:0:0:0:
256,192,34328,1,4,0:0:0:0:
256,192,34757,1,8,0:0:0:0:
256,192,34864,1,0,0:0:0:0:
256,192,35078,1,8,0:0:0:0:
256,192,35185,1,0,0:0:0:0:
256,192,35400,1,0,0:0:0:0:
256,192,35614,1,8,0:0:0:0:
256,192,35828,1,0,0:0:0:0:
256,192,36043,1,0,0:0:0:0:
256,192,36471,1,8,0:0:0:0:
256,192,36578,1,0,0:0:0:0:
256,192,36793,1,0,0:0:0:0:
256,192,36900,1,8,0:0:0:0:
256,192,37114,1,0,0:0:0:0:
256,192,37221,1,0,0:0:0:0:
256,192,37328,1,8,0:0:0:0:
256,192,37543,1,8,0:0:0:0:
256,192,37757,1,0,0:0:0:0:
256,192,38185,1,8,0:0:0:0:
256,192,38293,1,0,0:0:0:0:
256,192,38507,1,8,0:0:0:0:
256,192,38614,1,0,0:0:0:0:
256,192,39043,1,8,0:0:0:0:
256,192,39900,1,8,0:0:0:0:
256,192,40114,1,0,0:0:0:0:
256,192,40328,1,0,0:0:0:0:
256,192,40650,1,0,0:0:0:0:
256,192,40757,1,8,0:0:0:0:
256,192,40971,1,0,0:0:0:0:
256,192,41185,1,0,0:0:0:0:
256,192,41614,1,8,0:0:0:0:
256,192,41721,1,0,0:0:0:0:
256,192,41935,1,8,0:0:0:0:
256,192,42043,1,0,0:0:0:0:
256,192,42471,1,8,0:0:0:0:
256,192,43328,1,8,0:0:0:0:
256,192,43543,1,0,0:0:0:0:
256,192,43757,1,8,0:0:0:0:
256,192,44078,1,0,0:0:0:0:
256,192,44185,1,8,0:0:0:0:
256,192,44400,1,8,0:0:0:0:
256,192,44614,1,0,0:0:0:0:
256,192,44828,1,8,0:0:0:0:
256,192,45043,1,8,0:0:0:0:
256,192,45150,1,0,0:0:0:0:
256,192,45364,1,8,0:0:0:0:
256,192,45471,1,0,0:0:0:0:
256,192,45685,1,0,0:0:0:0:
256,192,45900,1,8,0:0:0:0:
256,192,46114,1,0,0:0:0:0:
256,192,46221,1,0,0:0:0:0:
256,192,46328,1,0,0:0:0:0:
256,192,46435,1,0,0:0:0:0:
256,192,46543,1,8,0:0:0:0:
256,192,46757,1,8,0:0:0:0:
256,192,46864,1,0,0:0:0:0:
256,192,47078,1,8,0:0:0:0:
256,192,47185,1,0,0:0:0:0:
256,192,47400,1,8,0:0:0:0:
256,192,47507,1,8,0:0:0:0:
256,192,47614,1,8,0:0:0:0:
256,192,47721,1,8,0:0:0:0:
256,192,47828,1,0,0:0:0:0:
256,192,48043,1,4,0:0:0:0:
256,192,48471,1,8,0:0:0:0:
256,192,48578,1,0,0:0:0:0:
256,192,48793,1,8,0:0:0:0:
256,192,48900,1,0,0:0:0:0:
256,192,49328,1,8,0:0:0:0:
256,192,49971,1,0,0:0:0:0:
256,192,50185,1,8,0:0:0:0:
256,192,50400,1,0,0:0:0:0:
256,192,50614,1,0,0:0:0:0:
256,192,50935,1,0,0:0:0:0:
256,192,51043,1,8,0:0:0:0:
256,192,51257,1,0,0:0:0:0:
256,192,51471,1,0,0:0:0:0:
256,192,51793,1,0,0:0:0:0:
256,192,51900,1,8,0:0:0:0:
256,192,52114,1,0,0:0:0:0:
256,192,52328,1,8,0:0:0:0:
256,192,52435,1,8,0:0:0:0:
256,192,52757,1,8,0:0:0:0:
256,192,52864,1,0,0:0:0:0:
256,192,52971,1,0,0:0:0:0:
256,192,53078,1,0,0:0:0:0:
256,192,53185,1,8,0:0:0:0:
256,192,53507,1,8,0:0:0:0:
256,192,53828,1,8,0:0:0:0:
256,192,53935,1,0,0:0:0:0:
256,192,54043,1,8,0:0:0:0:
256,192,54364,1,8,0:0:0:0:
256,192,54685,1,8,0:0:0:0:
256,192,54793,1,0,0:0:0:0:
256,192,54900,1,8,0:0:0:0:
256,192,55221,1,0,0:0:0:0:
256,192,55328,1,8,0:0:0:0:
256,192,55543,1,0,0:0:0:0:
256,192,55757,1,8,0:0:0:0:
256,192,55864,1,8,0:0:0:0:
256,192,56185,1,8,0:0:0:0:
256,192,56293,1,0,0:0:0:0:
256,192,56400,1,0,0:0:0:0:
256,192,56507,1,0,0:0:0:0:
256,192,56614,1,8,0:0:0:0:
256,192,56935,1,8,0:0:0:0:
256,192,57150,1,0,0:0:0:0:
256,192,57257,1,8,0:0:0:0:
256,192,57364,1,0,0:0:0:0:
256,192,57471,1,8,0:0:0:0:
256,192,57793,1,8,0:0:0:0:
256,192,58007,1,0,0:0:0:0:
256,192,58114,1,8,0:0:0:0:
256,192,58221,1,8,0:0:0:0:
256,192,58328,1,0,0:0:0:0:
256,192,58650,1,0,0:0:0:0:
256,192,58757,1,8,0:0:0:0:
256,192,58971,1,0,0:0:0:0:
256,192,59185,1,8,0:0:0:0:
256,192,59293,1,8,0:0:0:0:
256,192,59614,1,8,0:0:0:0:
256,192,59721,1,0,0:0:0:0:
256,192,59828,1,0,0:0:0:0:
256,192,59935,1,0,0:0:0:0:
256,192,60043,1,8,0:0:0:0:
256,192,60364,1,8,0:0:0:0:
256,192,60685,1,8,0:0:0:0:
256,192,60793,1,0,0:0:0:0:
256,192,60900,1,8,0:0:0:0:
256,192,61221,1,8,0:0:0:0:
256,192,61543,1,8,0:0:0:0:
256,192,61650,1,0,0:0:0:0:
256,192,61757,1,8,0:0:0:0:
256,192,62078,1,0,0:0:0:0:
256,192,62185,1,8,0:0:0:0:
256,192,62400,1,0,0:0:0:0:
256,192,62614,1,8,0:0:0:0:
256,192,62721,1,8,0:0:0:0:
256,192,62828,1,0,0:0:0:0:
256,192,63043,1,8,0:0:0:0:
256,192,63257,1,0,0:0:0:0:
256,192,63364,1,0,0:0:0:0:
256,192,63471,1,8,0:0:0:0:
256,192,63793,1,0,0:0:0:0:
256,192,63900,1,8,0:0:0:0:
256,192,64114,1,0,0:0:0:0:
256,192,64328,1,8,0:0:0:0:
256,192,64650,1,8,0:0:0:0:
256,192,64757,1,0,0:0:0:0:
256,192,64971,1,8,0:0:0:0:
256,192,65185,1,4,0:0:0:0:
256,192,65400,1,12,0:0:0:0:
256,192,65614,1,12,0:0:0:0:
256,192,66043,1,8,0:0:0:0:
256,192,66257,1,0,0:0:0:0:
256,192,66685,1,0,0:0:0:0:
256,192,67114,1,0,0:0:0:0:
256,192,67328,1,8,0:0:0:0:
256,192,67543,1,0,0:0:0:0:
256,192,67757,1,8,0:0:0:0:
256,192,67864,1,8,0:0:0:0:
256,192,67971,1,8,0:0:0:0:
256,192,68078,1,8,0:0:0:0:
256,192,68185,1,0,0:0:0:0:
256,192,68400,1,0,0:0:0:0:
256,192,68507,1,0,0:0:0:0:
256,192,68614,1,8,0:0:0:0:
256,192,68828,1,0,0:0:0:0:
256,192,69043,1,8,0:0:0:0:
256,192,69471,1,8,0:0:0:0:
256,192,69685,1,0,0:0:0:0:
256,192,70114,1,0,0:0:0:0:
256,192,70543,1,0,0:0:0:0:
256,192,70757,1,8,0:0:0:0:
256,192,70971,1,0,0:0:0:0:
256,192,71078,1,0,0:0:0:0:
288,192,71185,1,8,0:0:0:0:
256,192,71400,1,0,0:0:0:0:
256,192,71614,1,8,0:0:0:0:
256,192,71721,1,8,0:0:0:0:
256,192,71828,1,8,0:0:0:0:
256,192,72043,1,4,0:0:0:0:
256,192,72257,1,4,0:0:0:0:
256,192,72471,1,4,0:0:0:0:
256,192,72900,1,8,0:0:0:0:
256,192,73114,1,0,0:0:0:0:
256,192,73543,1,0,0:0:0:0:
256,192,73971,1,0,0:0:0:0:
256,192,74185,1,8,0:0:0:0:
256,192,74400,1,0,0:0:0:0:
256,192,74614,1,8,0:0:0:0:
256,192,74721,1,8,0:0:0:0:
256,192,74828,1,0,0:0:0:0:
288,192,74935,1,0,0:0:0:0:
256,192,75043,1,8,0:0:0:0:
256,192,75257,1,0,0:0:0:0:
256,192,75471,1,12,0:0:0:0:
256,192,75685,1,0,0:0:0:0:
256,192,75900,1,0,0:0:0:0:
256,192,76114,1,0,0:0:0:0:
256,192,76328,1,8,0:0:0:0:
256,192,76543,1,0,0:0:0:0:
256,192,76757,1,0,0:0:0:0:
256,192,76971,1,0,0:0:0:0:
256,192,77185,1,0,0:0:0:0:
256,192,77400,1,0,0:0:0:0:
256,192,77614,1,8,0:0:0:0:
256,192,77828,1,0,0:0:0:0:
256,192,78043,1,8,0:0:0:0:
256,192,78150,1,0,0:0:0:0:
256,192,78257,1,0,0:0:0:0:
256,192,78471,1,8,0:0:0:0:
256,192,78578,1,8,0:0:0:0:
256,192,78685,1,8,0:0:0:0:
256,192,78900,1,4,0:0:0:0:
256,192,79114,1,12,0:0:0:0:
256,192,79328,1,12,0:0:0:0:
256,192,79757,1,8,0:0:0:0:
256,192,79971,1,0,0:0:0:0:
256,192,80400,1,0,0:0:0:0:
256,192,80828,1,0,0:0:0:0:
256,192,81043,1,8,0:0:0:0:
256,192,81257,1,0,0:0:0:0:
256,192,81471,1,8,0:0:0:0:
256,192,81578,1,8,0:0:0:0:
256,192,81685,1,8,0:0:0:0:
256,192,81793,1,8,0:0:0:0:
256,192,81900,1,0,0:0:0:0:
256,192,82114,1,0,0:0:0:0:
256,192,82221,1,0,0:0:0:0:
256,192,82328,1,8,0:0:0:0:
256,192,82543,1,0,0:0:0:0:
256,192,82757,1,8,0:0:0:0:
256,192,83185,1,8,0:0:0:0:
256,192,83400,1,0,0:0:0:0:
256,192,83828,1,0,0:0:0:0:
256,192,84257,1,0,0:0:0:0:
256,192,84471,1,8,0:0:0:0:
256,192,84685,1,0,0:0:0:0:
224,192,84793,1,0,0:0:0:0:
256,192,84900,1,8,0:0:0:0:
256,192,85114,1,0,0:0:0:0:
256,192,85328,1,8,0:0:0:0:
256,192,85435,1,8,0:0:0:0:
256,192,85543,1,8,0:0:0:0:
256,192,85757,1,4,0:0:0:0:
256,192,85971,1,4,0:0:0:0:
256,192,86185,1,4,0:0:0:0:
256,192,86614,1,8,0:0:0:0:
256,192,86828,1,0,0:0:0:0:
256,192,87257,1,0,0:0:0:0:
224,192,87685,1,0,0:0:0:0:
256,192,87900,1,8,0:0:0:0:
256,192,88114,1,0,0:0:0:0:
256,192,88328,1,8,0:0:0:0:
256,192,88435,1,8,0:0:0:0:
256,192,88543,1,0,0:0:0:0:
256,192,88650,1,0,0:0:0:0:
256,192,88757,1,8,0:0:0:0:
256,192,88971,1,0,0:0:0:0:
256,192,89185,1,12,0:0:0:0:
256,192,89400,1,0,0:0:0:0:
256,192,89614,1,0,0:0:0:0:
256,192,89828,1,0,0:0:0:0:
256,192,90043,1,8,0:0:0:0:
256,192,90257,1,0,0:0:0:0:
256,192,90471,1,8,0:0:0:0:
256,192,90685,1,8,0:0:0:0:
256,192,90900,1,8,0:0:0:0:
256,192,91114,1,8,0:0:0:0:
256,192,91328,1,0,0:0:0:0:
256,192,91543,1,0,0:0:0:0:
256,192,91757,1,8,0:0:0:0:
256,192,91864,1,0,0:0:0:0:
256,192,91971,1,0,0:0:0:0:
256,192,92185,1,8,0:0:0:0:
256,192,92293,1,8,0:0:0:0:
256,192,92400,1,8,0:0:0:0:
256,192,92507,1,8,0:0:0:0:
256,192,92614,1,0,0:0:0:0:
256,192,93043,1,8,0:0:0:0:
256,192,93257,1,0,0:0:0:0:
256,192,93364,1,0,0:0:0:0:
256,192,93471,1,8,0:0:0:0:
256,192,93685,1,8,0:0:0:0:
256,192,93900,1,8,0:0:0:0:
256,192,94007,1,0,0:0:0:0:
256,192,94114,1,0,0:0:0:0:
256,192,94328,1,0,0:0:0:0:
256,192,94543,1,0,0:0:0:0:
256,192,94650,1,0,0:0:0:0:
256,192,94757,1,8,0:0:0:0:
256,192,94971,1,0,0:0:0:0:
256,192,95185,1,8,0:0:0:0:
256,192,95400,1,0,0:0:0:0:
256,192,95507,1,8,0:0:0:0:
256,192,95721,1,0,0:0:0:0:
256,192,95828,1,8,0:0:0:0:
256,192,96043,1,0,0:0:0:0:
256,192,96257,1,0,0:0:0:0:
256,192,96364,1,0,0:0:0:0:
256,192,96471,1,8,0:0:0:0:
256,192,96685,1,0,0:0:0:0:
256,192,96900,1,8,0:0:0:0:
256,192,97007,1,0,0:0:0:0:
256,192,97114,1,8,0:0:0:0:
256,192,97328,1,8,0:0:0:0:
256,192,97435,1,0,0:0:0:0:
256,192,97543,1,0,0:0:0:0:
256,192,97757,1,0,0:0:0:0:
256,192,97971,1,0,0:0:0:0:
256,192,98078,1,0,0:0:0:0:
256,192,98185,1,8,0:0:0:0:
256,192,98400,1,0,0:0:0:0:
256,192,98614,1,8,0:0:0:0:
256,192,98721,1,0,0:0:0:0:
256,192,98935,1,8,0:0:0:0:
256,192,99043,1,8,0:0:0:0:
256,192,99150,1,8,0:0:0:0:
256,192,99257,1,0,0:0:0:0:
256,192,99471,1,4,0:0:0:0:
256,192,99900,1,8,0:0:0:0:
256,192,100007,1,0,0:0:0:0:
256,192,100221,1,8,0:0:0:0:
256,192,100328,1,0,0:0:0:0:
256,192,100757,1,8,0:0:0:0:
256,192,101614,1,8,0:0:0:0:
256,192,101828,1,0,0:0:0:0:
256,192,102043,1,0,0:0:0:0:
256,192,102364,1,0,0:0:0:0:
256,192,102471,1,8,0:0:0:0:
256,192,102685,1,0,0:0:0:0:
256,192,102900,1,0,0:0:0:0:
256,192,103328,1,8,0:0:0:0:
256,192,103435,1,0,0:0:0:0:
256,192,103650,1,8,0:0:0:0:
256,192,103757,1,0,0:0:0:0:
256,192,104185,1,8,0:0:0:0:
256,192,105043,1,8,0:0:0:0:
256,192,105257,1,0,0:0:0:0:
256,192,105471,1,8,0:0:0:0:
256,192,105793,1,0,0:0:0:0:
256,192,105900,1,8,0:0:0:0:
256,192,106114,1,8,0:0:0:0:
256,192,106328,1,0,0:0:0:0:
256,192,106543,1,8,0:0:0:0:
256,192,106757,1,8,0:0:0:0:
256,192,106864,1,0,0:0:0:0:
256,192,107078,1,8,0:0:0:0:
256,192,107185,1,0,0:0:0:0:
256,192,107614,1,8,0:0:0:0:
256,192,107828,1,0,0:0:0:0:
256,192,107935,1,0,0:0:0:0:
256,192,108043,1,0,0:0:0:0:
256,192,108150,1,0,0:0:0:0:
256,192,108257,1,8,0:0:0:0:
256,192,108471,1,8,0:0:0:0:
256,192,108578,1,0,0:0:0:0:
256,192,108793,1,8,0:0:0:0:
256,192,108900,1,0,0:0:0:0:
256,192,109114,1,8,0:0:0:0:
256,192,109328,1,0,0:0:0:0:
256,192,109435,1,8,0:0:0:0:
256,192,109543,1,8,0:0:0:0:
256,192,109757,1,4,0:0:0:0:
256,192,110185,1,8,0:0:0:0:
256,192,110293,1,0,0:0:0:0:
256,192,110507,1,8,0:0:0:0:
256,192,110614,1,0,0:0:0:0:
256,192,111043,1,8,0:0:0:0:
256,192,111685,1,0,0:0:0:0:
256,192,111900,1,8,0:0:0:0:
256,192,112114,1,0,0:0:0:0:
256,192,112328,1,0,0:0:0:0:
256,192,112650,1,0,0:0:0:0:
256,192,112757,1,8,0:0:0:0:
256,192,112971,1,0,0:0:0:0:
256,192,113185,1,0,0:0:0:0:
256,192,113507,1,0,0:0:0:0:
256,192,113614,1,8,0:0:0:0:
256,192,113828,1,0,0:0:0:0:
256,192,114043,1,8,0:0:0:0:
256,192,114150,1,8,0:0:0:0:
256,192,114471,1,8,0:0:0:0:
256,192,114578,1,0,0:0:0:0:
256,192,114685,1,0,0:0:0:0:
256,192,114793,1,0,0:0:0:0:
256,192,114900,1,8,0:0:0:0:
256,192,115221,1,8,0:0:0:0:
256,192,115543,1,8,0:0:0:0:
256,192,115650,1,0,0:0:0:0:
256,192,115757,1,8,0:0:0:0:
256,192,116078,1,8,0:0:0:0:
256,192,116400,1,8,0:0:0:0:
256,192,116507,1,0,0:0:0:0:
256,192,116614,1,8,0:0:0:0:
256,192,116935,1,0,0:0:0:0:
256,192,117043,1,8,0:0:0:0:
256,192,117257,1,0,0:0:0:0:
256,192,117471,1,8,0:0:0:0:
256,192,117578,1,8,0:0:0:0:
256,192,117900,1,8,0:0:0:0:
256,192,118007,1,0,0:0:0:0:
256,192,118114,1,0,0:0:0:0:
256,192,118221,1,0,0:0:0:0:
256,192,118328,1,8,0:0:0:0:
256,192,118650,1,8,0:0:0:0:
256,192,118864,1,0,0:0:0:0:
256,192,118971,1,8,0:0:0:0:
256,192,119078,1,0,0:0:0:0:
256,192,119185,1,8,0:0:0:0:
256,192,119507,1,8,0:0:0:0:
256,192,119721,1,0,0:0:0:0:
256,192,119828,1,8,0:0:0:0:
256,192,119935,1,8,0:0:0:0:
256,192,120043,1,0,0:0:0:0:
256,192,120364,1,0,0:0:0:0:
256,192,120471,1,8,0:0:0:0:
256,192,120685,1,0,0:0:0:0:
256,192,120900,1,8,0:0:0:0:
256,192,121007,1,8,0:0:0:0:
256,192,121328,1,8,0:0:0:0:
256,192,121435,1,0,0:0:0:0:
256,192,121543,1,0,0:0:0:0:
256,192,121650,1,0,0:0:0:0:
256,192,121757,1,8,0:0:0:0:
256,192,122078,1,8,0:0:0:0:
256,192,122400,1,8,0:0:0:0:
256,192,122507,1,0,0:0:0:0:
256,192,122614,1,8,0:0:0:0:
256,192,122935,1,8,0:0:0:0:
256,192,123257,1,8,0:0:0:0:
256,192,123364,1,0,0:0:0:0:
256,192,123471,1,8,0:0:0:0:
256,192,123793,1,0,0:0:0:0:
256,192,123900,1,8,0:0:0:0:
256,192,124114,1,0,0:0:0:0:
256,192,124328,1,8,0:0:0:0:
256,192,124435,1,8,0:0:0:0:
256,192,124543,1,0,0:0:0:0:
256,192,124757,1,8,0:0:0:0:
256,192,124971,1,0,0:0:0:0:
256,192,125078,1,0,0:0:0:0:
256,192,125185,1,8,0:0:0:0:
256,192,125507,1,0,0:0:0:0:
256,192,125614,1,8,0:0:0:0:
256,192,125828,1,0,0:0:0:0:
256,192,126043,1,8,0:0:0:0:
256,192,126364,1,8,0:0:0:0:
256,192,126471,1,0,0:0:0:0:
256,192,126685,1,8,0:0:0:0:
256,192,126900,1,4,0:0:0:0:
256,192,127114,1,12,0:0:0:0:
256,192,127328,1,12,0:0:0:0:
256,192,127757,1,8,0:0:0:0:
256,192,127971,1,0,0:0:0:0:
256,192,128400,1,0,0:0:0:0:
256,192,128828,1,0,0:0:0:0:
256,192,129043,1,8,0:0:0:0:
256,192,129257,1,0,0:0:0:0:
256,192,129471,1,8,0:0:0:0:
256,192,129578,1,8,0:0:0:0:
256,192,129685,1,8,0:0:0:0:
256,192,129793,1,8,0:0:0:0:
256,192,129900,1,0,0:0:0:0:
256,192,130114,1,0,0:0:0:0:
256,192,130221,1,0,0:0:0:0:
256,192,130328,1,8,0:0:0:0:
256,192,130543,1,0,0:0:0:0:
256,192,130757,1,8,0:0:0:0:
256,192,131185,1,8,0:0:0:0:
256,192,131400,1,0,0:0:0:0:
256,192,131828,1,0,0:0:0:0:
256,192,132257,1,0,0:0:0:0:
256,192,132471,1,8,0:0:0:0:
256,192,132685,1,0,0:0:0:0:
256,192,132793,1,0,0:0:0:0:
288,192,132900,1,8,0:0:0:0:
256,192,133114,1,0,0:0:0:0:
256,192,133328,1,8,0:0:0:0:
256,192,133435,1,8,0:0:0:0:
256,192,133543,1,8,0:0:0:0:
256,192,133757,1,4,0:0:0:0:
256,192,133971,1,4,0:0:0:0:
256,192,134185,1,4,0:0:0:0:
256,192,134614,1,8,0:0:0:0:
256,192,134828,1,0,0:0:0:0:
256,192,135257,1,0,0:0:0:0:
256,192,135685,1,0,0:0:0:0:
256,192,135900,1,8,0:0:0:0:
256,192,136114,1,0,0:0:0:0:
256,192,136328,1,8,0:0:0:0:
256,192,136435,1,8,0:0:0:0:
256,192,136543,1,0,0:0:0:0:
288,192,136650,1,0,0:0:0:0:
256,192,136757,1,8,0:0:0:0:
256,192,136971,1,0,0:0:0:0:
256,192,137185,1,12,0:0:0:0:
256,192,137400,1,0,0:0:0:0:
256,192,137614,1,0,0:0:0:0:
256,192,137828,1,0,0:0:0:0:
256,192,138043,1,8,0:0:0:0:
256,192,138257,1,0,0:0:0:0:
256,192,138471,1,0,0:0:0:0:
256,192,138685,1,0,0:0:0:0:
256,192,138900,1,0,0:0:0:0:
256,192,139114,1,0,0:0:0:0:
256,192,139328,1,8,0:0:0:0:
256,192,139543,1,0,0:0:0:0:
256,192,139757,1,8,0:0:0:0:
256,192,139864,1,0,0:0:0:0:
256,192,139971,1,0,0:0:0:0:
256,192,140185,1,8,0:0:0:0:
256,192,140293,1,8,0:0:0:0:
256,192,140400,1,8,0:0:0:0:
256,192,140614,1,4,0:0:0:0:
256,192,140828,1,12,0:0:0:0:
256,192,141043,1,12,0:0:0:0:
256,192,141471,1,8,0:0:0:0:
256,192,141685,1,0,0:0:0:0:
256,192,142114,1,0,0:0:0:0:
256,192,142543,1,0,0:0:0:0:
256,192,142757,1,8,0:0:0:0:
256,192,142971,1,0,0:0:0:0:
256,192,143185,1,8,0:0:0:0:
256,192,143293,1,8,0:0:0:0:
256,192,143400,1,8,0:0:0:0:
256,192,143507,1,8,0:0:0:0:
256,192,143614,1,0,0:0:0:0:
256,192,143828,1,0,0:0:0:0:
256,192,143935,1,0,0:0:0:0:
256,192,144043,1,8,0:0:0:0:
256,192,144257,1,0,0:0:0:0:
256,192,144471,1,8,0:0:0:0:
256,192,144900,1,8,0:0:0:0:
256,192,145114,1,0,0:0:0:0:
256,192,145543,1,0,0:0:0:0:
256,192,145971,1,0,0:0:0:0:
256,192,146185,1,8,0:0:0:0:
256,192,146400,1,0,0:0:0:0:
224,192,146507,1,0,0:0:0:0:
256,192,146614,1,8,0:0:0:0:
256,192,146828,1,0,0:0:0:0:
256,192,147043,1,8,0:0:0:0:
256,192,147150,1,8,0:0:0:0:
256,192,147257,1,8,0:0:0:0:
256,192,147471,1,4,0:0:0:0:
256,192,147685,1,4,0:0:0:0:
256,192,147900,1,4,0:0:0:0:
256,192,148328,1,8,0:0:0:0:
256,192,148543,1,0,0:0:0:0:
256,192,148971,1,0,0:0:0:0:
224,192,149400,1,0,0:0:0:0:
256,192,149614,1,8,0:0:0:0:
256,192,149828,1,0,0:0:0:0:
256,192,150043,1,8,0:0:0:0:
256,192,150150,1,8,0:0:0:0:
256,192,150257,1,0,0:0:0:0:
256,192,150364,1,0,0:0:0:0:
256,192,150471,1,8,0:0:0:0:
256,192,150685,1,0,0:0:0:0:
256,192,150900,1,12,0:0:0:0:
256,192,151114,1,0,0:0:0:0:
256,192,151328,1,0,0:0:0:0:
256,192,151543,1,0,0:0:0:0:
256,192,151757,1,8,0:0:0:0:
256,192,151971,1,0,0:0:0:0:
256,192,152185,1,0,0:0:0:0:
256,192,152400,1,0,0:0:0:0:
256,192,152614,1,8,0:0:0:0:
256,192,152828,1,0,0:0:0:0:
256,192,153043,1,0,0:0:0:0:
256,192,153257,1,0,0:0:0:0:
256,192,153471,1,8,0:0:0:0:
256,192,153578,1,0,0:0:0:0:
256,192,153685,1,0,0:0:0:0:
256,192,153900,5,8,0:0:0:0:
256,192,154007,1,8,0:0:0:0:
256,192,154114,1,8,0:0:0:0:
256,192,154221,1,8,0:0:0:0:
256,192,154328,5,0,0:0:0:0:
256,192,154569,1,8,0:0:0:0:
256,192,154891,1,8,0:0:0:0:
256,192,155185,1,8,0:0:0:0:
256,192,155507,1,8,0:0:0:0:
256,192,155828,1,8,0:0:0:0:
256,192,156257,1,8,0:0:0:0:
256,192,156605,1,8,0:0:0:0:
256,192,156900,1,8,0:0:0:0:
256,192,157007,1,8,0:0:0:0:
256,192,157114,1,8,0:0:0:0:
256,192,157328,1,8,0:0:0:0:
256,192,157757,1,0,0:0:0:0:
256,192,157998,1,8,0:0:0:0:
256,192,158293,1,8,0:0:0:0:
256,192,158614,1,8,0:0:0:0:
256,192,158935,1,8,0:0:0:0:
256,192,159257,1,8,0:0:0:0:
256,192,159685,1,8,0:0:0:0:
256,192,160034,1,8,0:0:0:0:
256,192,160328,1,8,0:0:0:0:
256,192,160435,1,8,0:0:0:0:
256,192,160543,1,8,0:0:0:0:
256,192,160757,1,8,0:0:0:0:
256,192,160864,1,8,0:0:0:0:
256,192,160971,1,8,0:0:0:0:
256,192,161185,1,4,0:0:0:0:
256,192,161614,1,8,0:0:0:0:
256,192,161828,1,0,0:0:0:0:
256,192,161935,1,0,0:0:0:0:
256,192,162043,1,8,0:0:0:0:
256,192,162257,1,0,0:0:0:0:
256,192,162364,1,8,0:0:0:0:
256,192,162471,1,8,0:0:0:0:
256,192,162685,1,8,0:0:0:0:
256,192,162793,1,8,0:0:0:0:
256,192,162900,1,0,0:0:0:0:
256,192,163114,1,8,0:0:0:0:
256,192,163328,1,8,0:0:0:0:
256,192,163435,1,8,0:0:0:0:
256,192,163543,1,0,0:0:0:0:
256,192,163757,1,8,0:0:0:0:
256,192,163864,1,8,0:0:0:0:
256,192,163971,1,8,0:0:0:0:
256,192,164185,1,0,0:0:0:0:
256,192,164400,1,8,0:0:0:0:
256,192,164507,1,8,0:0:0:0:
256,192,164614,1,0,0:0:0:0:
256,192,165043,1,8,0:0:0:0:
256,192,165257,1,0,0:0:0:0:
256,192,165471,1,8,0:0:0:0:
256,192,165578,1,0,0:0:0:0:
256,192,165793,1,8,0:0:0:0:
256,192,165900,1,8,0:0:0:0:
256,192,166007,1,0,0:0:0:0:
256,192,166114,1,8,0:0:0:0:
256,192,166328,1,0,0:0:0:0:
256,192,166543,1,8,0:0:0:0:
256,192,166757,1,8,0:0:0:0:
256,192,166864,1,0,0:0:0:0:
256,192,166971,1,8,0:0:0:0:
256,192,167185,1,8,0:0:0:0:
256,192,167293,1,8,0:0:0:0:
256,192,167400,1,8,0:0:0:0:
256,192,167507,1,8,0:0:0:0:
256,192,167614,1,0,0:0:0:0:
256,192,167828,1,8,0:0:0:0:
256,192,167935,1,0,0:0:0:0:
256,192,168043,1,0,0:0:0:0:
256,192,168471,1,0,0:0:0:0:
256,192,168578,1,8,0:0:0:0:
256,192,168685,1,8,0:0:0:0:
256,192,168900,1,8,0:0:0:0:
256,192,169114,1,8,0:0:0:0:
256,192,169221,1,0,0:0:0:0:
256,192,169435,1,0,0:0:0:0:
256,192,169543,1,0,0:0:0:0:
256,192,169757,1,0,0:0:0:0:
256,192,169971,1,8,0:0:0:0:
256,192,170185,1,0,0:0:0:0:
256,192,170293,1,0,0:0:0:0:
256,192,170400,1,8,0:0:0:0:
256,192,170614,1,8,0:0:0:0:
256,192,170721,1,0,0:0:0:0:
256,192,170828,1,8,0:0:0:0:
256,192,171043,1,8,0:0:0:0:
256,192,171150,1,0,0:0:0:0:
256,192,171257,1,0,0:0:0:0:
256,192,171471,1,0,0:0:0:0:
256,192,171685,1,8,0:0:0:0:
256,192,171900,1,0,0:0:0:0:
256,192,172007,1,0,0:0:0:0:
256,192,172221,1,0,0:0:0:0:
256,192,172328,1,8,0:0:0:0:
256,192,172650,1,0,0:0:0:0:
256,192,172864,1,0,0:0:0:0:
256,192,172971,1,8,0:0:0:0:
256,192,173185,1,0,0:0:0:0:
256,192,173400,1,8,0:0:0:0:
256,192,173507,1,0,0:0:0:0:
256,192,173614,1,8,0:0:0:0:
256,192,173721,1,0,0:0:0:0:
256,192,174043,1,8,0:0:0:0:
256,192,174257,1,8,0:0:0:0:
256,192,174364,1,8,0:0:0:0:
256,192,174471,1,8,0:0:0:0:
256,192,174578,1,8,0:0:0:0:
256,192,174685,1,8,0:0:0:0:
256,192,174900,1,4,0:0:0:0:
256,192,175114,1,8,0:0:0:0:
256,192,175221,1,8,0:0:0:0:
256,192,175328,1,0,0:0:0:0:
256,192,175543,1,8,0:0:0:0:
256,192,175757,1,8,0:0:0:0:
256,192,175864,1,0,0:0:0:0:
256,192,175971,1,8,0:0:0:0:
256,192,176185,1,8,0:0:0:0:
256,192,176400,1,8,0:0:0:0:
256,192,176507,1,8,0:0:0:0:
256,192,176614,1,0,0:0:0:0:
256,192,176828,1,8,0:0:0:0:
256,192,176935,1,8,0:0:0:0:
256,192,177043,1,0,0:0:0:0:
256,192,177257,1,8,0:0:0:0:
256,192,177471,1,0,0:0:0:0:
256,192,177578,1,8,0:0:0:0:
256,192,177685,1,8,0:0:0:0:
256,192,177900,1,8,0:0:0:0:
256,192,178114,1,8,0:0:0:0:
256,192,178221,1,0,0:0:0:0:
256,192,178328,1,0,0:0:0:0:
256,192,178543,1,8,0:0:0:0:
256,192,178650,1,8,0:0:0:0:
256,192,178757,1,0,0:0:0:0:
256,192,178971,1,8,0:0:0:0:
256,192,179185,1,8,0:0:0:0:
256,192,179293,1,0,0:0:0:0:
256,192,179400,1,8,0:0:0:0:
256,192,179614,1,8,0:0:0:0:
256,192,179721,1,8,0:0:0:0:
256,192,179828,1,0,0:0:0:0:
256,192,180043,1,0,0:0:0:0:
256,192,180150,1,8,0:0:0:0:
256,192,180257,1,8,0:0:0:0:
256,192,180471,1,0,0:0:0:0:
256,192,180685,1,8,0:0:0:0:
256,192,180793,1,8,0:0:0:0:
256,192,180900,1,8,0:0:0:0:
256,192,181114,1,0,0:0:0:0:
256,192,181328,1,0,0:0:0:0:
256,192,181435,1,8,0:0:0:0:
256,192,181543,1,8,0:0:0:0:
256,192,181650,1,8,0:0:0:0:
256,192,181757,1,0,0:0:0:0:
256,192,181971,1,8,0:0:0:0:
256,192,182078,1,0,0:0:0:0:
256,192,182185,1,8,0:0:0:0:
256,192,182400,1,8,0:0:0:0:
256,192,182614,1,8,0:0:0:0:
256,192,182721,1,8,0:0:0:0:
256,192,182828,1,0,0:0:0:0:
256,192,183043,1,8,0:0:0:0:
256,192,183150,1,0,0:0:0:0:
256,192,183257,1,8,0:0:0:0:
256,192,183471,1,0,0:0:0:0:
256,192,183578,1,8,0:0:0:0:
256,192,183685,1,8,0:0:0:0:
256,192,183900,1,0,0:0:0:0:
256,192,184114,1,8,0:0:0:0:
256,192,184221,1,8,0:0:0:0:
256,192,184328,1,8,0:0:0:0:
256,192,184543,1,0,0:0:0:0:
256,192,184757,1,8,0:0:0:0:
256,192,184864,1,0,0:0:0:0:
256,192,184971,1,8,0:0:0:0:
256,192,185078,1,0,0:0:0:0:
256,192,185185,1,0,0:0:0:0:
256,192,185400,1,8,0:0:0:0:
256,192,185614,1,0,0:0:0:0:
256,192,185721,1,0,0:0:0:0:
256,192,185828,1,8,0:0:0:0:
256,192,186043,1,8,0:0:0:0:
256,192,186150,1,8,0:0:0:0:
256,192,186257,1,0,0:0:0:0:
256,192,186471,1,0,0:0:0:0:
256,192,186578,1,0,0:0:0:0:
256,192,186685,1,8,0:0:0:0:
256,192,186900,1,0,0:0:0:0:
256,192,187114,1,8,0:0:0:0:
256,192,187221,1,8,0:0:0:0:
256,192,187328,1,0,0:0:0:0:
256,192,187543,1,8,0:0:0:0:
256,192,187650,1,0,0:0:0:0:
256,192,187757,1,8,0:0:0:0:
256,192,187864,1,0,0:0:0:0:
256,192,187971,1,8,0:0:0:0:
256,192,188185,1,8,0:0:0:0:
256,192,188293,1,8,0:0:0:0:
256,192,188400,1,8,0:0:0:0:
256,192,188614,1,4,0:0:0:0:
256,192,188828,1,8,0:0:0:0:
256,192,188935,1,0,0:0:0:0:
256,192,189257,1,8,0:0:0:0:
256,192,189471,1,8,0:0:0:0:
256,192,189685,1,8,0:0:0:0:
256,192,189793,1,0,0:0:0:0:
256,192,190114,1,8,0:0:0:0:
256,192,190328,1,0,0:0:0:0:
256,192,190543,1,8,0:0:0:0:
256,192,190650,1,0,0:0:0:0:
256,192,190971,1,8,0:0:0:0:
256,224,191185,1,0,0:0:0:0:
256,192,191400,1,8,0:0:0:0:
256,192,191507,1,0,0:0:0:0:
256,192,191721,1,0,0:0:0:0:
288,192,191828,1,8,0:0:0:0:
288,192,191935,1,8,0:0:0:0:
256,192,192043,1,0,0:0:0:0:
256,192,192257,1,0,0:0:0:0:
288,192,192364,1,8,0:0:0:0:
256,192,192685,1,8,0:0:0:0:
256,192,192900,1,8,0:0:0:0:
256,192,193114,1,0,0:0:0:0:
256,192,193221,1,8,0:0:0:0:
256,192,193543,1,8,0:0:0:0:
256,192,193757,1,8,0:0:0:0:
256,192,193864,1,0,0:0:0:0:
256,192,193971,1,8,0:0:0:0:
256,192,194078,1,0,0:0:0:0:
256,192,194400,1,8,0:0:0:0:
256,192,194614,1,0,0:0:0:0:
256,192,194721,1,0,0:0:0:0:
256,192,194828,1,8,0:0:0:0:
256,192,195043,1,0,0:0:0:0:
256,192,195150,1,0,0:0:0:0:
224,192,195257,1,8,0:0:0:0:
256,192,195471,1,0,0:0:0:0:
256,192,195685,1,8,0:0:0:0:
256,192,195793,1,0,0:0:0:0:
256,192,196114,1,8,0:0:0:0:
256,192,196328,1,0,0:0:0:0:
256,192,196543,1,8,0:0:0:0:
256,192,196650,1,0,0:0:0:0:
256,192,196864,1,0,0:0:0:0:
256,192,196971,1,8,0:0:0:0:
256,192,197185,1,0,0:0:0:0:
256,192,197293,1,0,0:0:0:0:
256,192,197400,1,8,0:0:0:0:
256,192,197614,1,8,0:0:0:0:
256,192,197721,1,8,0:0:0:0:
256,192,197935,1,8,0:0:0:0:
256,192,198043,1,0,0:0:0:0:
256,192,198257,1,8,0:0:0:0:
256,192,198364,1,8,0:0:0:0:
256,192,198471,1,8,0:0:0:0:
256,192,198578,1,8,0:0:0:0:
256,192,198685,1,8,0:0:0:0:
256,192,198900,2,0,L|192:192,6,40
256,192,199757,5,4,0:0:0:0:
256,192,200078,1,0,0:0:0:0:
256,192,200400,1,0,0:0:0:0:
256,192,200614,1,8,0:0:0:0:
256,192,200828,1,0,0:0:0:0:
256,192,201150,1,0,0:0:0:0:
256,192,201471,1,8,0:0:0:0:
256,192,201578,1,8,0:0:0:0:
256,192,201685,1,0,0:0:0:0:
256,192,201900,1,8,0:0:0:0:
256,192,202007,1,8,0:0:0:0:
256,192,202114,1,0,0:0:0:0:
256,192,202328,1,0,0:0:0:0:
256,192,202543,1,0,0:0:0:0:
256,192,202864,1,0,0:0:0:0:
256,192,203078,1,0,0:0:0:0:
256,192,203185,1,8,0:0:0:0:
256,192,203507,1,0,0:0:0:0:
224,192,203828,1,8,0:0:0:0:
256,192,204043,1,0,0:0:0:0:
256,192,204257,1,8,0:0:0:0:
256,192,204471,1,0,0:0:0:0:
256,192,204578,1,8,0:0:0:0:
256,192,204793,1,0,0:0:0:0:
256,192,204900,1,8,0:0:0:0:
256,192,205114,1,8,0:0:0:0:
256,192,205221,1,8,0:0:0:0:
256,192,205328,1,8,0:0:0:0:
256,192,205543,1,8,0:0:0:0:
256,192,205650,1,8,0:0:0:0:
256,192,205757,1,0,0:0:0:0:
256,192,205971,1,0,0:0:0:0:
256,192,206078,1,0,0:0:0:0:
256,192,206185,1,0,0:0:0:0:
256,192,206400,1,0,0:0:0:0:
256,192,206507,1,0,0:0:0:0:
288,192,206614,1,8,0:0:0:0:
256,192,206935,1,0,0:0:0:0:
256,192,207043,1,0,0:0:0:0:
256,192,207257,1,8,0:0:0:0:
256,192,207471,1,0,0:0:0:0:
256,192,207685,1,8,0:0:0:0:
256,192,208007,1,8,0:0:0:0:
256,192,208328,1,0,0:0:0:0:
256,192,208435,1,0,0:0:0:0:
256,192,208543,1,8,0:0:0:0:
256,192,208757,1,0,0:0:0:0:
256,192,208864,1,0,0:0:0:0:
256,192,208971,1,8,0:0:0:0:
256,192,209078,1,8,0:0:0:0:
256,192,209185,1,0,0:0:0:0:
256,192,209400,1,8,0:0:0:0:
256,192,209721,1,0,0:0:0:0:
256,192,209935,1,0,0:0:0:0:
256,192,210043,1,8,0:0:0:0:
256,192,210364,1,0,0:0:0:0:
256,192,210578,1,0,0:0:0:0:
256,192,210685,1,8,0:0:0:0:
256,192,210793,1,8,0:0:0:0:
256,192,210900,1,0,0:0:0:0:
256,192,211114,1,8,0:0:0:0:
256,192,211328,1,0,0:0:0:0:
256,192,211435,1,8,0:0:0:0:
256,192,211757,1,8,0:0:0:0:
256,192,212078,1,12,0:0:0:0:
256,192,212400,1,4,0:0:0:0:
256,192,212614,1,4,0:0:0:0:
256,192,212828,12,0,219471,0:0:0:0:
256,192,226328,5,8,0:0:0:0:
288,192,226543,1,0,0:0:0:0:
256,192,226757,1,0,0:0:0:0:
256,192,226971,1,8,0:0:0:0:
256,192,227185,1,0,0:0:0:0:
256,192,227400,1,0,0:0:0:0:
256,192,227614,1,12,0:0:0:0:
256,192,227828,1,0,0:0:0:0:
256,192,228043,1,4,0:0:0:0:
256,192,228257,1,12,0:0:0:0:
256,192,228471,1,12,0:0:0:0:
256,192,228900,1,8,0:0:0:0:
256,192,229114,1,0,0:0:0:0:
256,192,229543,1,0,0:0:0:0:
256,192,229971,1,0,0:0:0:0:
256,192,230185,1,8,0:0:0:0:
256,192,230400,1,0,0:0:0:0:
256,192,230614,1,8,0:0:0:0:
256,192,230721,1,8,0:0:0:0:
256,192,230828,1,8,0:0:0:0:
256,192,230935,1,8,0:0:0:0:
256,192,231043,1,0,0:0:0:0:
256,192,231257,1,0,0:0:0:0:
256,192,231364,1,0,0:0:0:0:
256,192,231471,1,8,0:0:0:0:
256,192,231685,1,0,0:0:0:0:
256,192,231900,1,8,0:0:0:0:
256,192,232328,1,8,0:0:0:0:
256,192,232543,1,0,0:0:0:0:
256,192,232971,1,0,0:0:0:0:
256,192,233400,1,0,0:0:0:0:
256,192,233614,1,8,0:0:0:0:
256,192,233828,1,0,0:0:0:0:
256,192,233935,1,0,0:0:0:0:
288,192,234043,1,8,0:0:0:0:
256,192,234257,1,0,0:0:0:0:
256,192,234471,1,8,0:0:0:0:
256,192,234578,1,8,0:0:0:0:
256,192,234685,1,8,0:0:0:0:
256,192,234900,1,4,0:0:0:0:
256,192,235114,1,4,0:0:0:0:
256,192,235328,1,4,0:0:0:0:
256,192,235757,1,8,0:0:0:0:
256,192,235971,1,0,0:0:0:0:
256,192,236400,1,0,0:0:0:0:
256,192,236828,1,0,0:0:0:0:
256,192,237043,1,8,0:0:0:0:
256,192,237257,1,0,0:0:0:0:
256,192,237471,1,8,0:0:0:0:
256,192,237578,1,8,0:0:0:0:
256,192,237685,1,0,0:0:0:0:
288,192,237793,1,0,0:0:0:0:
256,192,237900,1,8,0:0:0:0:
256,192,238114,1,0,0:0:0:0:
256,192,238328,1,12,0:0:0:0:
256,192,238543,1,0,0:0:0:0:
256,192,238757,1,0,0:0:0:0:
256,192,238971,1,0,0:0:0:0:
256,192,239185,1,8,0:0:0:0:
256,192,239400,1,0,0:0:0:0:
256,192,239614,1,0,0:0:0:0:
256,192,239828,1,0,0:0:0:0:
256,192,240043,1,0,0:0:0:0:
256,192,240257,1,0,0:0:0:0:
256,192,240471,1,8,0:0:0:0:
256,192,240685,1,0,0:0:0:0:
256,192,240900,1,8,0:0:0:0:
256,192,241007,1,0,0:0:0:0:
256,192,241114,1,0,0:0:0:0:
256,192,241328,1,8,0:0:0:0:
256,192,241435,1,8,0:0:0:0:
256,192,241543,1,8,0:0:0:0:
256,192,241757,1,4,0:0:0:0:
256,192,241971,1,12,0:0:0:0:
256,192,242185,1,12,0:0:0:0:
256,192,242614,1,8,0:0:0:0:
256,192,242828,1,0,0:0:0:0:
256,192,243257,1,0,0:0:0:0:
256,192,243685,1,0,0:0:0:0:
256,192,243900,1,8,0:0:0:0:
256,192,244114,1,0,0:0:0:0:
256,192,244328,1,8,0:0:0:0:
256,192,244435,1,8,0:0:0:0:
256,192,244543,1,8,0:0:0:0:
256,192,244650,1,8,0:0:0:0:
256,192,244757,1,0,0:0:0:0:
256,192,244971,1,0,0:0:0:0:
256,192,245078,1,0,0:0:0:0:
256,192,245185,1,8,0:0:0:0:
256,192,245400,1,0,0:0:0:0:
256,192,245614,1,8,0:0:0:0:
256,192,246043,1,8,0:0:0:0:
256,192,246257,1,0,0:0:0:0:
256,192,246685,1,0,0:0:0:0:
256,192,247114,1,0,0:0:0:0:
256,192,247328,1,8,0:0:0:0:
256,192,247543,1,0,0:0:0:0:
224,192,247650,1,0,0:0:0:0:
256,192,247757,1,8,0:0:0:0:
256,192,247971,1,0,0:0:0:0:
256,192,248185,1,8,0:0:0:0:
256,192,248293,1,8,0:0:0:0:
256,192,248400,1,8,0:0:0:0:
256,192,248614,1,4,0:0:0:0:
256,192,248828,1,4,0:0:0:0:
256,192,249043,1,4,0:0:0:0:
256,192,249471,1,8,0:0:0:0:
256,192,249685,1,0,0:0:0:0:
256,192,250114,1,0,0:0:0:0:
224,192,250543,1,0,0:0:0:0:
256,192,250757,1,8,0:0:0:0:
256,192,250971,1,0,0:0:0:0:
256,192,251185,1,8,0:0:0:0:
256,192,251293,1,8,0:0:0:0:
256,192,251400,1,0,0:0:0:0:
256,192,251507,1,0,0:0:0:0:
256,192,251614,1,8,0:0:0:0:
256,192,251828,1,0,0:0:0:0:
256,192,252043,1,12,0:0:0:0:
256,192,252257,1,0,0:0:0:0:
256,192,252471,1,0,0:0:0:0:
256,192,252685,1,0,0:0:0:0:
256,192,252900,1,8,0:0:0:0:
256,192,253114,1,0,0:0:0:0:
256,192,253328,1,0,0:0:0:0:
256,192,253543,1,0,0:0:0:0:
256,192,253757,1,8,0:0:0:0:
256,192,253971,1,0,0:0:0:0:
256,192,254185,1,0,0:0:0:0:
256,192,254400,1,0,0:0:0:0:
256,192,254614,1,8,0:0:0:0:
256,192,254721,1,0,0:0:0:0:
256,192,254828,1,0,0:0:0:0:
256,192,255043,5,8,0:0:0:0:
256,192,255150,1,8,0:0:0:0:
256,192,255257,1,8,0:0:0:0:
256,192,255364,1,8,0:0:0:0:
256,192,255471,5,0,0:0:0:0:
256,192,255900,1,8,0:0:0:0:
224,192,256114,1,0,0:0:0:0:
256,192,256328,1,0,0:0:0:0:
256,192,256543,1,0,0:0:0:0:
256,192,256757,1,8,0:0:0:0:
256,192,256971,1,0,0:0:0:0:
256,192,257185,1,0,0:0:0:0:
256,192,257400,1,0,0:0:0:0:
256,192,257614,1,8,0:0:0:0:
256,192,257828,1,0,0:0:0:0:
256,192,258043,1,0,0:0:0:0:
256,192,258150,1,0,0:0:0:0:
256,192,258257,1,0,0:0:0:0:
256,192,258471,1,8,0:0:0:0:
256,192,258685,1,0,0:0:0:0:
256,192,258793,1,0,0:0:0:0:
256,192,258900,1,0,0:0:0:0:
256,192,259114,1,0,0:0:0:0:
256,192,259328,1,8,0:0:0:0:
256,192,259543,1,0,0:0:0:0:
256,192,259757,1,0,0:0:0:0:
256,192,259971,1,0,0:0:0:0:
256,192,260185,1,8,0:0:0:0:
256,192,260400,1,0,0:0:0:0:
256,192,260614,1,0,0:0:0:0:
256,192,260828,1,0,0:0:0:0:
256,192,261043,1,8,0:0:0:0:
256,192,261257,1,0,0:0:0:0:
256,192,261364,1,0,0:0:0:0:
256,192,261471,1,0,0:0:0:0:
256,192,261685,1,8,0:0:0:0:
256,192,261900,1,8,0:0:0:0:
256,192,262114,1,0,0:0:0:0:
256,192,262328,1,4,0:0:0:0:
256,192,262543,1,0,0:0:0:0:
256,192,262757,1,8,0:0:0:0:
256,192,262971,1,0,0:0:0:0:
256,192,263078,1,0,0:0:0:0:
256,192,263185,1,0,0:0:0:0:
256,192,263400,1,0,0:0:0:0:
256,192,263614,1,8,0:0:0:0:
256,192,263828,1,0,0:0:0:0:
256,192,264043,1,0,0:0:0:0:
256,192,264257,1,0,0:0:0:0:
256,192,264471,1,8,0:0:0:0:
256,192,264685,1,0,0:0:0:0:
256,192,264793,1,0,0:0:0:0:
256,192,264900,1,0,0:0:0:0:
256,192,265114,1,0,0:0:0:0:
256,192,265221,1,0,0:0:0:0:
256,192,265328,1,8,0:0:0:0:
256,192,265543,1,0,0:0:0:0:
256,192,265757,1,0,0:0:0:0:
256,192,265971,1,0,0:0:0:0:
256,192,266185,1,8,0:0:0:0:
256,192,266400,1,0,0:0:0:0:
256,192,266507,1,0,0:0:0:0:
256,192,266614,1,0,0:0:0:0:
256,192,266828,1,0,0:0:0:0:
256,192,267043,1,8,0:0:0:0:
256,192,267257,1,0,0:0:0:0:
256,192,267471,1,0,0:0:0:0:
256,192,267685,1,0,0:0:0:0:
256,192,267793,1,0,0:0:0:0:
256,192,267900,1,8,0:0:0:0:
256,192,268114,1,0,0:0:0:0:
256,192,268221,1,0,0:0:0:0:
256,192,268328,1,8,0:0:0:0:
256,192,268543,1,0,0:0:0:0:
256,192,268757,1,8,0:0:0:0:
256,192,268971,1,8,0:0:0:0:
256,192,269185,1,12,0:0:0:0:
256,192,269400,1,12,0:0:0:0:
