osu file format v14

[General]
AudioFilename: 02 - Helvetios.mp3
AudioLeadIn: 0
PreviewTime: 95336
Countdown: 0
SampleSet: Normal
StackLeniency: 0.7
Mode: 1
LetterboxInBreaks: 0
WidescreenStoryboard: 0

[Editor]
DistanceSpacing: 0.8
BeatDivisor: 1
GridSize: 32
TimelineZoom: 1.6

[Metadata]
Title:Helvetios
TitleUnicode:Helvetios
Artist:Eluveitie
ArtistUnicode:Eluveitie
Creator:Grimbow
Version:Kantan
Source:
Tags:Swiss Folk Metal Melodic Death Pagan Celtic Lno
BeatmapID:731273
BeatmapSetID:324146

[Difficulty]
HPDrainRate:5
CircleSize:5
OverallDifficulty:4
ApproachRate:4
SliderMultiplier:1.2
SliderTickRate:1

[Events]
//Background and Video events
0,0,"helvetios.jpg",0,80
//Break Periods
//Storyboard Layer 0 (Background)
//Storyboard Layer 1 (Fail)
//Storyboard Layer 2 (Pass)
//Storyboard Layer 3 (Foreground)
//Storyboard Sound Samples

[TimingPoints]
427,272.727272727273,4,1,0,100,1,0
96427,-100,4,1,0,100,0,1
113881,-100,4,1,0,100,0,0
157517,-125,4,1,0,100,0,0
170336,-100,4,1,0,100,0,0
205517,-100,4,1,0,100,0,1
239336,-100,4,1,0,100,0,0

[HitObjects]
256,192,17881,5,4,0:0:0:0:
256,192,18972,1,0,0:0:0:0:
256,192,19517,1,8,0:0:0:0:
256,192,20063,1,0,0:0:0:0:
256,192,21154,1,0,0:0:0:0:
256,192,22245,1,0,0:0:0:0:
256,192,22790,1,8,0:0:0:0:
256,192,23336,1,8,0:0:0:0:
256,192,24427,1,0,0:0:0:0:
256,192,24972,1,8,0:0:0:0:
256,192,25517,1,0,0:0:0:0:
256,192,26063,1,8,0:0:0:0:
256,192,26608,1,12,0:0:0:0:
256,192,27699,1,0,0:0:0:0:
256,192,28790,1,0,0:0:0:0:
256,192,29336,1,8,0:0:0:0:
256,192,29881,1,0,0:0:0:0:
256,192,30427,1,8,0:0:0:0:
256,192,30972,1,4,0:0:0:0:
256,192,32063,1,0,0:0:0:0:
256,192,32608,1,8,0:0:0:0:
256,192,33154,1,0,0:0:0:0:
256,192,34245,1,8,0:0:0:0:
256,192,34790,1,8,0:0:0:0:
256,192,35336,1,0,0:0:0:0:
256,192,35881,1,8,0:0:0:0:
256,192,36427,1,4,0:0:0:0:
256,192,37517,1,12,0:0:0:0:
256,192,38608,1,0,0:0:0:0:
256,192,39154,1,8,0:0:0:0:
256,192,39699,1,4,0:0:0:0:
256,192,41336,1,8,0:0:0:0:
256,192,41881,1,0,0:0:0:0:
256,192,42972,1,0,0:0:0:0:
256,192,43517,1,8,0:0:0:0:
256,192,44063,1,12,0:0:0:0:
256,192,45154,1,4,0:0:0:0:
256,192,46245,1,12,0:0:0:0:
256,192,46790,1,8,0:0:0:0:
256,192,47336,1,8,0:0:0:0:
256,192,47881,1,0,0:0:0:0:
256,192,48427,1,4,0:0:0:0:
256,192,49517,1,0,0:0:0:0:
256,192,50608,1,0,0:0:0:0:
256,192,51154,1,8,0:0:0:0:
256,192,51699,1,8,0:0:0:0:
256,192,52245,1,8,0:0:0:0:
256,192,52790,1,4,0:0:0:0:
256,192,57154,1,0,0:0:0:0:
256,192,57699,1,0,0:0:0:0:
256,192,58245,1,0,0:0:0:0:
256,192,58790,1,0,0:0:0:0:
256,192,59336,1,8,0:0:0:0:
256,192,60427,1,8,0:0:0:0:
256,192,60972,1,8,0:0:0:0:
256,192,61517,1,0,0:0:0:0:
256,192,62063,1,0,0:0:0:0:
256,192,62608,1,0,0:0:0:0:
256,192,63154,1,8,0:0:0:0:
256,192,64245,1,0,0:0:0:0:
256,192,64790,1,0,0:0:0:0:
256,192,65336,1,8,0:0:0:0:
256,192,66427,1,0,0:0:0:0:
256,192,66972,1,0,0:0:0:0:
256,192,67517,1,8,0:0:0:0:
256,192,68608,1,0,0:0:0:0:
256,192,69154,1,0,0:0:0:0:
256,192,70245,1,8,0:0:0:0:
256,192,70790,1,0,0:0:0:0:
256,192,71336,1,0,0:0:0:0:
256,192,71881,1,8,0:0:0:0:
256,192,72427,1,0,0:0:0:0:
256,160,73517,1,0,0:0:0:0:
256,192,74063,1,8,0:0:0:0:
256,192,74608,1,8,0:0:0:0:
256,192,75154,1,8,0:0:0:0:
256,192,76245,1,8,0:0:0:0:
256,192,76790,1,0,0:0:0:0:
256,192,77336,1,8,0:0:0:0:
256,192,78972,1,0,0:0:0:0:
256,192,79517,1,8,0:0:0:0:
256,192,80063,1,8,0:0:0:0:
256,192,80608,1,8,0:0:0:0:
256,192,81699,1,8,0:0:0:0:
256,192,82245,1,0,0:0:0:0:
256,192,82790,1,8,0:0:0:0:
256,192,83881,1,8,0:0:0:0:
256,192,84427,1,8,0:0:0:0:
256,192,84972,1,8,0:0:0:0:
256,192,85517,1,0,0:0:0:0:
256,192,86063,1,8,0:0:0:0:
256,192,86608,1,0,0:0:0:0:
256,192,87699,1,4,0:0:0:0:
256,192,87972,1,0,0:0:0:0:
256,192,88790,1,0,0:0:0:0:
256,192,89336,1,8,0:0:0:0:
256,192,89881,1,4,0:0:0:0:
256,192,90154,1,0,0:0:0:0:
256,192,90972,1,0,0:0:0:0:
256,192,91517,1,8,0:0:0:0:
256,192,92063,1,4,0:0:0:0:
256,192,92336,1,0,0:0:0:0:
256,192,93154,1,0,0:0:0:0:
256,192,93699,1,8,0:0:0:0:
256,192,94245,1,4,0:0:0:0:
256,192,94517,1,0,0:0:0:0:
256,192,94790,1,8,0:0:0:0:
256,192,96427,5,4,0:0:0:0:
256,192,96972,1,0,0:0:0:0:
256,192,97517,1,0,0:0:0:0:
256,192,98608,1,12,0:0:0:0:
256,192,99154,1,8,0:0:0:0:
256,192,99699,1,8,0:0:0:0:
256,192,100790,1,8,0:0:0:0:
256,192,101881,1,8,0:0:0:0:
256,192,102972,1,0,0:0:0:0:
256,192,104063,1,0,0:0:0:0:
256,192,105154,1,12,0:0:0:0:
256,192,105699,1,8,0:0:0:0:
256,192,106245,1,8,0:0:0:0:
256,192,107336,1,4,0:0:0:0:
256,192,108427,1,8,0:0:0:0:
256,192,108972,1,8,0:0:0:0:
256,192,109517,1,0,0:0:0:0:
256,192,110608,1,8,0:0:0:0:
256,192,111699,1,8,0:0:0:0:
256,192,112790,1,8,0:0:0:0:
256,192,113336,1,8,0:0:0:0:
256,192,113881,1,0,0:0:0:0:
256,192,114427,1,8,0:0:0:0:
256,192,114972,1,8,0:0:0:0:
256,192,115517,5,8,0:0:0:0:
256,192,116608,1,8,0:0:0:0:
256,192,117154,1,0,0:0:0:0:
256,192,117699,1,0,0:0:0:0:
256,192,118245,1,8,0:0:0:0:
256,192,118790,1,8,0:0:0:0:
256,192,119881,1,8,0:0:0:0:
256,192,120427,1,0,0:0:0:0:
256,192,120972,1,8,0:0:0:0:
256,192,122608,5,0,0:0:0:0:
256,192,123154,1,8,0:0:0:0:
256,192,123699,1,8,0:0:0:0:
256,192,124245,1,8,0:0:0:0:
256,192,124790,1,0,0:0:0:0:
256,192,125881,1,0,0:0:0:0:
256,192,126427,1,8,0:0:0:0:
256,192,126972,1,8,0:0:0:0:
256,192,127517,1,8,0:0:0:0:
256,192,128608,1,8,0:0:0:0:
256,192,129154,1,4,0:0:0:0:
256,192,129699,1,8,0:0:0:0:
256,192,130245,1,0,0:0:0:0:
256,192,130790,1,0,0:0:0:0:
256,192,131336,1,8,0:0:0:0:
256,192,131608,1,8,0:0:0:0:
256,192,135699,1,8,0:0:0:0:
256,192,135972,1,8,0:0:0:0:
256,192,140063,1,0,0:0:0:0:
256,192,141154,1,8,0:0:0:0:
256,192,141699,1,0,0:0:0:0:
256,192,142245,1,0,0:0:0:0:
256,192,143336,1,0,0:0:0:0:
256,192,143881,1,8,0:0:0:0:
256,192,144427,1,0,0:0:0:0:
256,192,145517,1,0,0:0:0:0:
256,192,146063,1,0,0:0:0:0:
256,192,146608,1,0,0:0:0:0:
256,192,147699,1,8,0:0:0:0:
256,192,148790,1,8,0:0:0:0:
256,192,149336,1,0,0:0:0:0:
256,192,149881,1,8,0:0:0:0:
256,192,150972,1,8,0:0:0:0:
256,192,151517,1,0,0:0:0:0:
256,192,152063,1,0,0:0:0:0:
256,192,152608,1,0,0:0:0:0:
256,192,153154,1,8,0:0:0:0:
256,192,154245,1,0,0:0:0:0:
256,192,155336,1,8,0:0:0:0:
256,192,156427,1,8,0:0:0:0:
256,192,157517,1,8,0:0:0:0:
256,192,158063,1,8,0:0:0:0:
256,192,158608,1,0,0:0:0:0:
256,192,159699,1,0,0:0:0:0:
256,192,160790,1,0,0:0:0:0:
256,192,161336,1,8,0:0:0:0:
256,192,161881,1,0,0:0:0:0:
256,192,162427,1,8,0:0:0:0:
256,192,163517,1,8,0:0:0:0:
256,192,164063,1,0,0:0:0:0:
256,192,164608,1,8,0:0:0:0:
256,192,165154,1,0,0:0:0:0:
256,192,165699,1,0,0:0:0:0:
256,192,166245,1,8,0:0:0:0:
256,192,167336,1,0,0:0:0:0:
256,192,168427,1,0,0:0:0:0:
256,192,168972,1,8,0:0:0:0:
256,192,169517,1,4,0:0:0:0:
256,192,170063,1,4,0:0:0:0:
256,192,170608,1,0,0:0:0:0:
256,192,171154,1,8,0:0:0:0:
256,192,172790,1,0,0:0:0:0:
256,192,173336,1,0,0:0:0:0:
256,192,173881,1,8,0:0:0:0:
256,192,174427,1,0,0:0:0:0:
256,192,175517,5,0,0:0:0:0:
256,192,176063,1,8,0:0:0:0:
256,192,176608,1,8,0:0:0:0:
256,192,177699,1,0,0:0:0:0:
256,192,178245,1,8,0:0:0:0:
256,192,179336,1,0,0:0:0:0:
256,192,179881,1,8,0:0:0:0:
256,192,180427,1,0,0:0:0:0:
256,192,181517,1,8,0:0:0:0:
256,192,182063,1,8,0:0:0:0:
256,192,182608,1,0,0:0:0:0:
256,192,183699,1,0,0:0:0:0:
256,192,184245,1,8,0:0:0:0:
256,192,184790,1,8,0:0:0:0:
256,192,185881,1,8,0:0:0:0:
256,192,187517,1,8,0:0:0:0:
256,192,188063,1,4,0:0:0:0:
256,192,188608,1,8,0:0:0:0:
256,192,189154,1,0,0:0:0:0:
256,192,190245,1,4,0:0:0:0:
256,192,190790,1,8,0:0:0:0:
256,192,191336,1,0,0:0:0:0:
256,192,192427,1,4,0:0:0:0:
256,192,192972,1,8,0:0:0:0:
256,192,193517,1,0,0:0:0:0:
256,192,194063,1,8,0:0:0:0:
256,192,194608,1,4,0:0:0:0:
256,192,195699,1,0,0:0:0:0:
256,192,196790,1,4,0:0:0:0:
256,192,197336,1,8,0:0:0:0:
256,192,197881,1,0,0:0:0:0:
256,192,198427,1,8,0:0:0:0:
256,192,198972,1,12,0:0:0:0:
256,192,200063,1,0,0:0:0:0:
256,192,200608,1,8,0:0:0:0:
256,192,201154,5,4,0:0:0:0:
256,192,202245,1,0,0:0:0:0:
256,192,202790,1,8,0:0:0:0:
256,192,203336,1,12,0:0:0:0:
256,192,203881,1,8,0:0:0:0:
256,192,205517,5,4,0:0:0:0:
256,192,206062,1,0,0:0:0:0:
256,192,206607,1,0,0:0:0:0:
256,192,207699,1,12,0:0:0:0:
256,192,208244,1,8,0:0:0:0:
256,192,208789,1,8,0:0:0:0:
256,192,209880,1,8,0:0:0:0:
256,192,210971,1,8,0:0:0:0:
256,192,212062,1,0,0:0:0:0:
256,192,213154,5,0,0:0:0:0:
256,192,214244,1,12,0:0:0:0:
256,192,214789,1,8,0:0:0:0:
256,192,215335,1,8,0:0:0:0:
256,192,216426,1,4,0:0:0:0:
256,192,217517,1,8,0:0:0:0:
256,192,218062,1,8,0:0:0:0:
256,192,218607,1,0,0:0:0:0:
256,192,219698,1,8,0:0:0:0:
256,192,220789,1,8,0:0:0:0:
256,192,221880,1,8,0:0:0:0:
256,192,222154,1,8,0:0:0:0:
256,192,222426,5,8,0:0:0:0:
256,192,222971,1,4,0:0:0:0:
256,192,224063,1,0,0:0:0:0:
256,192,225154,1,4,0:0:0:0:
256,192,225699,1,0,0:0:0:0:
256,192,226245,1,0,0:0:0:0:
256,192,226790,1,8,0:0:0:0:
256,192,227336,1,4,0:0:0:0:
256,192,228427,1,0,0:0:0:0:
256,192,229517,1,0,0:0:0:0:
256,192,230881,1,8,0:0:0:0:
256,192,231427,1,8,0:0:0:0:
256,192,231699,1,4,0:0:0:0:
256,192,232245,1,8,0:0:0:0:
256,192,232790,1,8,0:0:0:0:
256,192,233881,1,12,0:0:0:0:
256,192,234427,1,8,0:0:0:0:
256,192,234972,1,8,0:0:0:0:
256,192,236063,1,12,0:0:0:0:
256,192,237154,1,12,0:0:0:0:
256,192,238245,1,8,0:0:0:0:
256,192,238790,1,0,0:0:0:0:
256,192,239063,1,0,0:0:0:0:
256,192,239336,1,8,0:0:0:0:
