osu file format v14

[General]
AudioFilename: 02 - Helvetios.mp3
AudioLeadIn: 0
PreviewTime: 95336
Countdown: 0
SampleSet: Normal
StackLeniency: 0.7
Mode: 1
LetterboxInBreaks: 0
WidescreenStoryboard: 0

[Editor]
DistanceSpacing: 0.8
BeatDivisor: 4
GridSize: 32
TimelineZoom: 2.299999

[Metadata]
Title:Helvetios
TitleUnicode:Helvetios
Artist:Eluveitie
ArtistUnicode:Eluveitie
Creator:Grimbow
Version:Inner Oni
Source:
Tags:Swiss Folk Metal Melodic Death Pagan Celtic Lno
BeatmapID:720267
BeatmapSetID:324146

[Difficulty]
HPDrainRate:5
CircleSize:5
OverallDifficulty:6
ApproachRate:5
SliderMultiplier:1.4
SliderTickRate:1

[Events]
//Background and Video events
0,0,"helvetios.jpg",0,80
//Break Periods
//Storyboard Layer 0 (Background)
//Storyboard Layer 1 (Fail)
//Storyboard Layer 2 (Pass)
//Storyboard Layer 3 (Foreground)
//Storyboard Sound Samples

[TimingPoints]
427,272.727272727273,4,1,0,100,1,0
96427,-100,4,1,0,100,0,1
113881,-100,4,1,0,100,0,0
157381,-105.263157894737,4,1,0,100,0,0
157517,-111.111111111111,4,1,0,100,0,0
157745,-125,4,1,0,100,0,0
170336,-100,4,1,0,100,0,0
205517,-100,4,1,0,100,0,1
239336,-100,4,1,0,100,0,0

[HitObjects]
256,192,17881,5,4,0:0:0:0:
256,192,18017,1,0,0:0:0:0:
256,192,18154,1,0,0:0:0:0:
256,192,18427,1,8,0:0:0:0:
256,192,18563,1,0,0:0:0:0:
256,192,18836,1,0,0:0:0:0:
256,192,19108,1,0,0:0:0:0:
256,192,19381,1,0,0:0:0:0:
256,192,19517,1,8,0:0:0:0:
256,192,19654,1,0,0:0:0:0:
256,192,19790,1,0,0:0:0:0:
256,192,19927,1,0,0:0:0:0:
256,192,20063,1,12,0:0:0:0:
256,192,20336,1,0,0:0:0:0:
256,192,20472,1,0,0:0:0:0:
256,192,20608,1,8,0:0:0:0:
256,192,20745,1,0,0:0:0:0:
256,192,21017,1,0,0:0:0:0:
256,192,21290,1,0,0:0:0:0:
256,192,21427,1,0,0:0:0:0:
256,192,21563,1,0,0:0:0:0:
256,192,21699,1,8,0:0:0:0:
256,192,21836,1,0,0:0:0:0:
256,192,21972,1,0,0:0:0:0:
256,192,22108,1,0,0:0:0:0:
256,192,22245,1,12,0:0:0:0:
256,192,22381,1,0,0:0:0:0:
256,192,22517,1,0,0:0:0:0:
256,192,22790,1,8,0:0:0:0:
256,192,22927,1,0,0:0:0:0:
256,192,23199,1,0,0:0:0:0:
256,192,23472,1,0,0:0:0:0:
256,192,23745,1,0,0:0:0:0:
256,192,23881,1,8,0:0:0:0:
256,192,24017,1,0,0:0:0:0:
256,192,24154,1,0,0:0:0:0:
256,192,24427,1,4,0:0:0:0:
256,192,24699,1,0,0:0:0:0:
256,192,24836,1,0,0:0:0:0:
256,192,24972,1,8,0:0:0:0:
256,192,25108,1,0,0:0:0:0:
256,192,25381,1,0,0:0:0:0:
256,192,25517,1,8,0:0:0:0:
256,192,25654,1,0,0:0:0:0:
256,192,25790,1,0,0:0:0:0:
256,192,26063,1,8,0:0:0:0:
256,192,26199,1,4,0:0:0:0:
256,192,26336,1,12,0:0:0:0:
256,192,26608,1,0,0:0:0:0:
256,192,26745,1,0,0:0:0:0:
256,192,26881,1,0,0:0:0:0:
256,192,27154,1,8,0:0:0:0:
256,192,27290,1,0,0:0:0:0:
256,192,27563,1,0,0:0:0:0:
256,192,27699,1,8,0:0:0:0:
256,192,27836,1,0,0:0:0:0:
256,192,28108,1,0,0:0:0:0:
256,192,28245,1,8,0:0:0:0:
256,192,28381,1,0,0:0:0:0:
256,192,28517,1,0,0:0:0:0:
256,192,28790,1,0,0:0:0:0:
256,192,29063,1,0,0:0:0:0:
256,192,29199,1,0,0:0:0:0:
256,192,29336,1,8,0:0:0:0:
256,192,29472,1,0,0:0:0:0:
256,192,29745,1,0,0:0:0:0:
256,192,29881,1,8,0:0:0:0:
256,192,30017,1,0,0:0:0:0:
256,192,30154,1,0,0:0:0:0:
256,192,30290,1,0,0:0:0:0:
256,192,30427,1,8,0:0:0:0:
256,192,30563,1,8,0:0:0:0:
256,192,30699,1,0,0:0:0:0:
256,192,30836,1,0,0:0:0:0:
256,192,30972,1,12,0:0:0:0:
256,192,31108,1,0,0:0:0:0:
256,192,31245,1,0,0:0:0:0:
256,192,31517,1,8,0:0:0:0:
256,192,31654,1,0,0:0:0:0:
256,192,31927,1,0,0:0:0:0:
256,192,32063,1,8,0:0:0:0:
256,192,32199,1,0,0:0:0:0:
256,192,32472,1,0,0:0:0:0:
256,192,32608,1,8,0:0:0:0:
256,192,32745,1,0,0:0:0:0:
256,192,32881,1,0,0:0:0:0:
256,192,33154,1,4,0:0:0:0:
256,192,33427,1,0,0:0:0:0:
256,192,33563,1,0,0:0:0:0:
256,192,33699,1,8,0:0:0:0:
256,192,33836,1,0,0:0:0:0:
256,192,34108,1,0,0:0:0:0:
256,192,34245,1,8,0:0:0:0:
256,192,34381,1,0,0:0:0:0:
256,192,34517,1,0,0:0:0:0:
256,192,34790,1,8,0:0:0:0:
256,192,34927,1,8,0:0:0:0:
256,192,35063,1,8,0:0:0:0:
256,192,35199,1,8,0:0:0:0:
256,192,35336,1,4,0:0:0:0:
256,192,35745,1,0,0:0:0:0:
256,192,35881,1,8,0:0:0:0:
256,192,36017,1,0,0:0:0:0:
256,192,36290,1,12,0:0:0:0:
256,192,36836,1,0,0:0:0:0:
256,192,36972,1,8,0:0:0:0:
256,192,37108,1,0,0:0:0:0:
256,192,37245,1,0,0:0:0:0:
256,192,37313,1,0,0:0:0:0:
256,192,37381,1,0,0:0:0:0:
256,192,37517,1,12,0:0:0:0:
256,192,37790,1,0,0:0:0:0:
256,192,38063,1,12,0:0:0:0:
256,192,38336,1,0,0:0:0:0:
256,192,38608,1,4,0:0:0:0:
256,192,39154,1,12,0:0:0:0:
256,192,39699,1,0,0:0:0:0:
256,192,39972,1,0,0:0:0:0:
256,192,40108,1,0,0:0:0:0:
256,192,40245,1,8,0:0:0:0:
256,192,40381,1,0,0:0:0:0:
256,192,40654,1,0,0:0:0:0:
256,192,40790,1,8,0:0:0:0:
256,192,41199,1,0,0:0:0:0:
256,192,41336,1,8,0:0:0:0:
256,192,41472,1,0,0:0:0:0:
256,192,41608,1,0,0:0:0:0:
256,192,41745,1,0,0:0:0:0:
256,192,41881,1,8,0:0:0:0:
256,192,42154,1,0,0:0:0:0:
256,192,42427,1,8,0:0:0:0:
256,192,42699,1,0,0:0:0:0:
256,192,42972,1,0,0:0:0:0:
256,192,43108,1,0,0:0:0:0:
256,192,43245,1,0,0:0:0:0:
256,192,43381,1,0,0:0:0:0:
256,192,43517,1,8,0:0:0:0:
256,192,43654,1,0,0:0:0:0:
256,192,43790,1,0,0:0:0:0:
256,192,43927,1,0,0:0:0:0:
256,192,44063,1,12,0:0:0:0:
256,192,44336,1,0,0:0:0:0:
256,192,44472,1,0,0:0:0:0:
256,192,44608,1,8,0:0:0:0:
256,192,44745,1,0,0:0:0:0:
256,192,45017,1,12,0:0:0:0:
256,192,45563,1,0,0:0:0:0:
256,192,45699,1,8,0:0:0:0:
256,192,45836,1,0,0:0:0:0:
256,192,45972,1,0,0:0:0:0:
256,192,46040,1,0,0:0:0:0:
256,192,46108,1,0,0:0:0:0:
256,192,46245,1,0,0:0:0:0:
256,192,46517,1,0,0:0:0:0:
256,192,46790,1,8,0:0:0:0:
256,192,47063,1,0,0:0:0:0:
256,192,47336,1,12,0:0:0:0:
256,192,47881,1,4,0:0:0:0:
256,192,48427,1,0,0:0:0:0:
256,192,48563,1,0,0:0:0:0:
256,192,48699,1,0,0:0:0:0:
256,192,48972,1,8,0:0:0:0:
256,192,49108,1,0,0:0:0:0:
256,192,49381,1,0,0:0:0:0:
256,192,49517,1,8,0:0:0:0:
256,192,49654,1,0,0:0:0:0:
256,192,49927,1,0,0:0:0:0:
256,192,50063,1,8,0:0:0:0:
256,192,50199,1,0,0:0:0:0:
256,192,50336,1,0,0:0:0:0:
256,192,50608,1,0,0:0:0:0:
256,192,50881,1,0,0:0:0:0:
256,192,51017,1,0,0:0:0:0:
256,192,51154,1,8,0:0:0:0:
256,192,51290,1,0,0:0:0:0:
256,192,51563,1,0,0:0:0:0:
256,192,51699,1,8,0:0:0:0:
256,192,51836,1,0,0:0:0:0:
256,192,51972,1,0,0:0:0:0:
256,192,52245,1,8,0:0:0:0:
256,192,52381,1,8,0:0:0:0:
256,192,52517,1,8,0:0:0:0:
256,192,52654,1,8,0:0:0:0:
256,192,52790,1,4,0:0:0:0:
256,192,56881,1,8,0:0:0:0:
256,192,56949,1,8,0:0:0:0:
256,192,57017,1,8,0:0:0:0:
256,192,57086,1,8,0:0:0:0:
256,192,57154,1,0,0:0:0:0:
256,192,57427,1,0,0:0:0:0:
256,192,57699,1,0,0:0:0:0:
256,192,57972,1,0,0:0:0:0:
256,192,58245,1,0,0:0:0:0:
256,192,58517,1,0,0:0:0:0:
256,192,58790,1,0,0:0:0:0:
256,192,59063,1,0,0:0:0:0:
256,192,59199,1,0,0:0:0:0:
256,192,59336,1,8,0:0:0:0:
256,192,59472,1,0,0:0:0:0:
256,192,59608,1,0,0:0:0:0:
256,192,59745,1,8,0:0:0:0:
256,192,59881,1,0,0:0:0:0:
256,192,60017,1,8,0:0:0:0:
256,192,60154,1,0,0:0:0:0:
256,192,60290,1,0,0:0:0:0:
256,192,60427,1,12,0:0:0:0:
256,192,60563,1,12,0:0:0:0:
256,192,60699,1,0,0:0:0:0:
256,192,60836,1,0,0:0:0:0:
256,192,60972,1,12,0:0:0:0:
256,192,61108,1,12,0:0:0:0:
256,192,61245,1,8,0:0:0:0:
256,192,61313,1,8,0:0:0:0:
256,192,61381,1,8,0:0:0:0:
256,192,61449,1,8,0:0:0:0:
256,192,61517,1,0,0:0:0:0:
256,192,61654,1,8,0:0:0:0:
256,192,61790,1,0,0:0:0:0:
256,192,61858,1,0,0:0:0:0:
256,192,61927,1,8,0:0:0:0:
256,192,62063,1,0,0:0:0:0:
256,192,62199,1,8,0:0:0:0:
256,192,62336,1,0,0:0:0:0:
256,192,62404,1,0,0:0:0:0:
256,192,62472,1,8,0:0:0:0:
256,192,62608,1,0,0:0:0:0:
256,192,62745,1,8,0:0:0:0:
256,192,62881,1,0,0:0:0:0:
256,192,62949,1,0,0:0:0:0:
256,192,63017,1,8,0:0:0:0:
256,192,63154,1,0,0:0:0:0:
256,192,63290,1,8,0:0:0:0:
256,192,63427,1,0,0:0:0:0:
256,192,63495,1,0,0:0:0:0:
256,192,63563,1,8,0:0:0:0:
256,192,63699,1,8,0:0:0:0:
256,192,63767,1,8,0:0:0:0:
256,192,63836,1,0,0:0:0:0:
256,192,63972,1,0,0:0:0:0:
256,192,64108,1,8,0:0:0:0:
256,192,64245,1,0,0:0:0:0:
256,192,64381,1,8,0:0:0:0:
256,192,64517,1,0,0:0:0:0:
256,192,64586,1,0,0:0:0:0:
256,192,64654,1,8,0:0:0:0:
256,192,64790,1,0,0:0:0:0:
256,192,64927,1,8,0:0:0:0:
256,192,65063,1,0,0:0:0:0:
256,192,65131,1,0,0:0:0:0:
256,192,65199,1,8,0:0:0:0:
256,192,65336,1,0,0:0:0:0:
256,192,65404,1,8,0:0:0:0:
256,192,65472,1,8,0:0:0:0:
256,192,65540,1,8,0:0:0:0:
256,192,65608,1,0,0:0:0:0:
256,192,65677,1,8,0:0:0:0:
256,192,65745,1,8,0:0:0:0:
256,192,65813,1,8,0:0:0:0:
256,192,65881,1,0,0:0:0:0:
256,192,66017,1,8,0:0:0:0:
256,192,66154,1,0,0:0:0:0:
256,192,66222,1,0,0:0:0:0:
256,192,66290,1,8,0:0:0:0:
256,192,66427,1,0,0:0:0:0:
256,192,66563,1,8,0:0:0:0:
256,192,66699,1,0,0:0:0:0:
256,192,66767,1,0,0:0:0:0:
256,192,66836,1,8,0:0:0:0:
256,192,66972,1,0,0:0:0:0:
256,192,67108,1,8,0:0:0:0:
256,192,67245,1,0,0:0:0:0:
256,192,67313,1,0,0:0:0:0:
256,192,67381,1,8,0:0:0:0:
256,192,67517,1,0,0:0:0:0:
256,192,67654,1,8,0:0:0:0:
256,192,67790,1,0,0:0:0:0:
256,192,67858,1,0,0:0:0:0:
256,192,67927,1,8,0:0:0:0:
256,192,67995,1,0,0:0:0:0:
256,192,68063,1,0,0:0:0:0:
256,192,68199,1,8,0:0:0:0:
256,192,68336,1,0,0:0:0:0:
256,192,68404,1,0,0:0:0:0:
256,192,68472,1,8,0:0:0:0:
256,192,68608,1,0,0:0:0:0:
256,192,68745,1,8,0:0:0:0:
256,192,68881,1,0,0:0:0:0:
256,192,68949,1,0,0:0:0:0:
256,192,69017,1,8,0:0:0:0:
256,192,69154,1,0,0:0:0:0:
256,192,69290,1,8,0:0:0:0:
256,192,69427,1,0,0:0:0:0:
256,192,69495,1,0,0:0:0:0:
256,192,69563,1,8,0:0:0:0:
256,192,69631,1,8,0:0:0:0:
256,192,69699,1,0,0:0:0:0:
256,192,69767,1,0,0:0:0:0:
256,192,69836,1,8,0:0:0:0:
256,192,69904,1,8,0:0:0:0:
256,192,69972,1,0,0:0:0:0:
256,192,70040,1,0,0:0:0:0:
256,192,70108,1,8,0:0:0:0:
256,192,70177,1,8,0:0:0:0:
256,192,70245,5,8,0:0:0:0:
256,192,70381,1,0,0:0:0:0:
256,192,70517,1,0,0:0:0:0:
256,192,70654,1,8,0:0:0:0:
256,192,70790,1,0,0:0:0:0:
256,192,70927,1,8,0:0:0:0:
256,192,71063,1,0,0:0:0:0:
256,192,71199,1,8,0:0:0:0:
256,192,71336,1,0,0:0:0:0:
256,192,71472,1,8,0:0:0:0:
256,192,71608,1,0,0:0:0:0:
256,192,71745,1,0,0:0:0:0:
256,192,71881,1,8,0:0:0:0:
256,192,72017,1,0,0:0:0:0:
256,192,72154,1,8,0:0:0:0:
256,192,72290,1,8,0:0:0:0:
256,192,72427,1,0,0:0:0:0:
256,192,72495,1,0,0:0:0:0:
256,192,72563,1,8,0:0:0:0:
256,192,72699,1,0,0:0:0:0:
256,192,72836,1,8,0:0:0:0:
256,192,72972,1,0,0:0:0:0:
256,192,73108,1,8,0:0:0:0:
256,192,73177,1,0,0:0:0:0:
256,192,73245,1,0,0:0:0:0:
256,192,73381,1,8,0:0:0:0:
256,192,73517,1,0,0:0:0:0:
256,192,73654,1,8,0:0:0:0:
256,192,73927,1,8,0:0:0:0:
256,192,74063,1,0,0:0:0:0:
256,192,74199,1,8,0:0:0:0:
256,192,74336,1,0,0:0:0:0:
256,192,74404,1,0,0:0:0:0:
256,192,74472,1,8,0:0:0:0:
256,192,74540,1,8,0:0:0:0:
256,192,74608,1,8,0:0:0:0:
256,192,74745,1,8,0:0:0:0:
256,192,74881,1,0,0:0:0:0:
256,192,75017,1,8,0:0:0:0:
256,192,75154,1,0,0:0:0:0:
256,192,75290,1,8,0:0:0:0:
256,192,75427,1,0,0:0:0:0:
256,192,75495,1,0,0:0:0:0:
256,192,75563,1,8,0:0:0:0:
256,192,75699,1,8,0:0:0:0:
256,192,75836,1,8,0:0:0:0:
256,192,75972,1,0,0:0:0:0:
256,192,76108,1,8,0:0:0:0:
256,192,76245,1,0,0:0:0:0:
256,192,76381,1,0,0:0:0:0:
256,192,76517,1,8,0:0:0:0:
256,192,76654,1,8,0:0:0:0:
256,192,76790,1,0,0:0:0:0:
256,192,76927,1,8,0:0:0:0:
256,192,77063,1,0,0:0:0:0:
256,192,77199,1,8,0:0:0:0:
256,192,77336,1,0,0:0:0:0:
256,192,77404,1,0,0:0:0:0:
256,192,77472,1,8,0:0:0:0:
256,192,77540,1,8,0:0:0:0:
256,192,77608,1,0,0:0:0:0:
256,192,77745,1,8,0:0:0:0:
256,192,77881,1,0,0:0:0:0:
256,192,78017,1,8,0:0:0:0:
256,192,78154,1,0,0:0:0:0:
256,192,78290,1,12,0:0:0:0:
256,192,78427,1,0,0:0:0:0:
256,192,78563,1,12,0:0:0:0:
256,192,78699,1,0,0:0:0:0:
256,192,78836,1,12,0:0:0:0:
256,192,78972,1,0,0:0:0:0:
256,192,79108,1,8,0:0:0:0:
256,192,79245,1,0,0:0:0:0:
256,192,79313,1,0,0:0:0:0:
256,192,79381,1,8,0:0:0:0:
256,192,79517,1,0,0:0:0:0:
256,192,79654,1,8,0:0:0:0:
256,192,79790,1,0,0:0:0:0:
256,192,79927,1,0,0:0:0:0:
256,192,80063,1,8,0:0:0:0:
256,192,80199,1,8,0:0:0:0:
256,192,80336,1,0,0:0:0:0:
256,192,80472,1,8,0:0:0:0:
256,192,80608,1,0,0:0:0:0:
256,192,80677,1,8,0:0:0:0:
256,192,80745,1,8,0:0:0:0:
256,192,80881,1,0,0:0:0:0:
256,192,81017,1,8,0:0:0:0:
256,192,81154,1,0,0:0:0:0:
256,192,81290,1,8,0:0:0:0:
256,192,81358,1,8,0:0:0:0:
256,192,81427,1,0,0:0:0:0:
256,192,81563,1,8,0:0:0:0:
256,192,81699,1,0,0:0:0:0:
256,192,81836,1,8,0:0:0:0:
256,192,81972,1,0,0:0:0:0:
256,192,82108,1,8,0:0:0:0:
256,192,82245,1,0,0:0:0:0:
256,192,82313,1,0,0:0:0:0:
256,192,82381,1,8,0:0:0:0:
256,192,82517,1,0,0:0:0:0:
256,192,82654,1,8,0:0:0:0:
256,192,82722,1,8,0:0:0:0:
256,192,82790,1,0,0:0:0:0:
256,192,82927,1,8,0:0:0:0:
256,192,83063,1,0,0:0:0:0:
256,192,83131,1,0,0:0:0:0:
256,192,83199,1,8,0:0:0:0:
256,192,83267,1,8,0:0:0:0:
256,192,83336,1,0,0:0:0:0:
256,192,83472,1,8,0:0:0:0:
256,192,83608,1,0,0:0:0:0:
256,192,83745,1,8,0:0:0:0:
256,192,83881,1,0,0:0:0:0:
256,192,84017,1,8,0:0:0:0:
256,192,84154,1,0,0:0:0:0:
256,192,84290,1,8,0:0:0:0:
256,192,84358,1,8,0:0:0:0:
256,192,84427,1,8,0:0:0:0:
256,192,84563,1,8,0:0:0:0:
256,192,84699,1,8,0:0:0:0:
256,192,84836,1,8,0:0:0:0:
256,192,84972,1,8,0:0:0:0:
256,192,85108,1,8,0:0:0:0:
256,192,85245,1,0,0:0:0:0:
256,192,85381,1,0,0:0:0:0:
256,192,85517,1,4,0:0:0:0:
256,192,85654,1,0,0:0:0:0:
256,192,85790,1,0,0:0:0:0:
256,192,85927,1,0,0:0:0:0:
256,192,86063,1,12,0:0:0:0:
256,192,86199,1,0,0:0:0:0:
256,192,86336,1,0,0:0:0:0:
256,192,86472,1,0,0:0:0:0:
256,192,86608,1,4,0:0:0:0:
256,192,86745,1,0,0:0:0:0:
256,192,86881,1,0,0:0:0:0:
256,192,87017,1,0,0:0:0:0:
256,192,87154,1,12,0:0:0:0:
256,192,87290,1,0,0:0:0:0:
256,192,87427,1,0,0:0:0:0:
256,192,87699,1,8,0:0:0:0:
256,192,87767,1,0,0:0:0:0:
256,192,87836,1,0,0:0:0:0:
256,192,87904,1,0,0:0:0:0:
256,192,87972,1,0,0:0:0:0:
256,192,88245,1,8,0:0:0:0:
256,192,88381,1,0,0:0:0:0:
256,192,88654,1,4,0:0:0:0:
256,192,89063,1,0,0:0:0:0:
256,192,89199,1,0,0:0:0:0:
256,192,89336,1,8,0:0:0:0:
256,192,89472,1,0,0:0:0:0:
256,192,89745,1,0,0:0:0:0:
256,192,89881,1,0,0:0:0:0:
256,192,89949,1,0,0:0:0:0:
256,192,90017,1,0,0:0:0:0:
256,192,90154,1,0,0:0:0:0:
256,192,90427,1,8,0:0:0:0:
256,192,90563,1,0,0:0:0:0:
256,192,90836,1,0,0:0:0:0:
256,192,91245,1,0,0:0:0:0:
256,192,91517,1,8,0:0:0:0:
256,192,91654,1,8,0:0:0:0:
256,192,91790,1,8,0:0:0:0:
256,192,91927,1,8,0:0:0:0:
256,192,92063,1,0,0:0:0:0:
256,192,92131,1,0,0:0:0:0:
256,192,92199,1,0,0:0:0:0:
256,192,92336,1,12,0:0:0:0:
256,192,92608,1,8,0:0:0:0:
256,192,92745,1,4,0:0:0:0:
256,192,93017,1,4,0:0:0:0:
256,192,93427,1,0,0:0:0:0:
256,192,93699,1,8,0:0:0:0:
256,192,93836,1,0,0:0:0:0:
256,192,94108,1,0,0:0:0:0:
256,192,94245,1,8,0:0:0:0:
256,192,94313,1,0,0:0:0:0:
256,192,94381,1,0,0:0:0:0:
256,192,94449,1,0,0:0:0:0:
256,192,94517,1,8,0:0:0:0:
256,192,94790,1,8,0:0:0:0:
256,192,94927,1,4,0:0:0:0:
256,192,95199,1,4,0:0:0:0:
256,192,96427,1,12,0:0:0:0:
256,192,96563,1,0,0:0:0:0:
256,192,96699,1,8,0:0:0:0:
256,192,96836,1,0,0:0:0:0:
256,192,96972,1,8,0:0:0:0:
256,192,97108,1,0,0:0:0:0:
256,192,97177,1,0,0:0:0:0:
256,192,97245,1,8,0:0:0:0:
256,192,97381,1,0,0:0:0:0:
256,192,97517,1,8,0:0:0:0:
256,192,97586,1,8,0:0:0:0:
256,192,97654,1,0,0:0:0:0:
256,192,97790,1,8,0:0:0:0:
256,192,97927,1,0,0:0:0:0:
256,192,98063,1,8,0:0:0:0:
256,192,98199,1,0,0:0:0:0:
256,192,98336,1,8,0:0:0:0:
256,192,98472,1,0,0:0:0:0:
256,192,98540,1,0,0:0:0:0:
256,192,98608,1,8,0:0:0:0:
256,192,98677,1,0,0:0:0:0:
256,192,98745,1,0,0:0:0:0:
256,192,98813,1,0,0:0:0:0:
256,192,98881,1,8,0:0:0:0:
256,192,99017,1,0,0:0:0:0:
256,192,99154,1,8,0:0:0:0:
256,192,99290,1,0,0:0:0:0:
256,192,99427,1,8,0:0:0:0:
256,192,99563,1,0,0:0:0:0:
256,192,99631,1,0,0:0:0:0:
256,192,99699,1,8,0:0:0:0:
256,192,99767,1,8,0:0:0:0:
256,192,99836,1,0,0:0:0:0:
256,192,99904,1,0,0:0:0:0:
256,192,99972,1,8,0:0:0:0:
256,192,100108,1,0,0:0:0:0:
256,192,100245,1,8,0:0:0:0:
256,192,100381,1,0,0:0:0:0:
256,192,100449,1,0,0:0:0:0:
256,192,100517,1,8,0:0:0:0:
256,192,100654,1,0,0:0:0:0:
256,192,100722,1,0,0:0:0:0:
256,192,100790,1,8,0:0:0:0:
256,192,100927,1,0,0:0:0:0:
256,192,101063,1,8,0:0:0:0:
256,192,101199,1,0,0:0:0:0:
256,192,101336,1,8,0:0:0:0:
256,192,101472,1,0,0:0:0:0:
256,192,101608,1,8,0:0:0:0:
256,192,101745,1,0,0:0:0:0:
256,192,101813,1,0,0:0:0:0:
256,192,101881,1,8,0:0:0:0:
256,192,102017,1,0,0:0:0:0:
256,192,102154,1,8,0:0:0:0:
256,192,102222,1,8,0:0:0:0:
256,192,102290,1,0,0:0:0:0:
256,192,102358,1,0,0:0:0:0:
256,192,102427,1,8,0:0:0:0:
256,192,102563,1,0,0:0:0:0:
256,192,102699,1,8,0:0:0:0:
256,192,102836,1,0,0:0:0:0:
256,192,102904,1,0,0:0:0:0:
256,192,102972,1,8,0:0:0:0:
256,192,103108,1,0,0:0:0:0:
256,192,103245,1,8,0:0:0:0:
256,192,103381,1,0,0:0:0:0:
256,192,103517,1,8,0:0:0:0:
256,192,103654,1,8,0:0:0:0:
256,192,103790,1,0,0:0:0:0:
256,192,103927,1,0,0:0:0:0:
256,192,104063,1,8,0:0:0:0:
256,192,104131,1,8,0:0:0:0:
256,192,104199,1,8,0:0:0:0:
256,192,104267,1,8,0:0:0:0:
256,192,104336,1,0,0:0:0:0:
256,192,104404,1,0,0:0:0:0:
256,192,104472,1,0,0:0:0:0:
256,192,104540,1,0,0:0:0:0:
256,192,104608,1,8,0:0:0:0:
256,192,104677,1,8,0:0:0:0:
256,192,104745,1,0,0:0:0:0:
256,192,104813,1,0,0:0:0:0:
256,192,104881,1,8,0:0:0:0:
256,192,104949,1,8,0:0:0:0:
256,192,105017,1,0,0:0:0:0:
256,192,105086,1,0,0:0:0:0:
256,192,105154,1,8,0:0:0:0:
256,192,105290,1,0,0:0:0:0:
256,192,105427,1,8,0:0:0:0:
256,192,105563,1,0,0:0:0:0:
256,192,105699,1,8,0:0:0:0:
256,192,105836,1,0,0:0:0:0:
256,192,105904,1,0,0:0:0:0:
256,192,105972,1,8,0:0:0:0:
256,192,106108,1,0,0:0:0:0:
256,192,106245,1,8,0:0:0:0:
256,192,106381,1,0,0:0:0:0:
256,192,106517,1,8,0:0:0:0:
256,192,106586,1,0,0:0:0:0:
256,192,106654,1,0,0:0:0:0:
256,192,106722,1,0,0:0:0:0:
256,192,106790,1,8,0:0:0:0:
256,192,106858,1,8,0:0:0:0:
256,192,106927,1,0,0:0:0:0:
256,192,106995,1,0,0:0:0:0:
256,192,107063,1,8,0:0:0:0:
256,192,107131,1,0,0:0:0:0:
256,192,107199,1,0,0:0:0:0:
256,192,107267,1,0,0:0:0:0:
256,192,107336,1,8,0:0:0:0:
256,192,107472,1,0,0:0:0:0:
256,192,107608,1,8,0:0:0:0:
256,192,107745,1,0,0:0:0:0:
256,192,107881,1,8,0:0:0:0:
256,192,108017,1,0,0:0:0:0:
256,192,108086,1,0,0:0:0:0:
256,192,108154,1,8,0:0:0:0:
256,192,108222,1,8,0:0:0:0:
256,192,108290,1,0,0:0:0:0:
256,192,108427,1,8,0:0:0:0:
256,192,108563,1,0,0:0:0:0:
256,192,108699,1,8,0:0:0:0:
256,192,108836,1,0,0:0:0:0:
256,192,108904,1,0,0:0:0:0:
256,192,108972,1,8,0:0:0:0:
256,192,109108,1,0,0:0:0:0:
256,192,109245,1,8,0:0:0:0:
256,192,109381,1,8,0:0:0:0:
256,192,109449,1,0,0:0:0:0:
256,192,109517,1,8,0:0:0:0:
256,192,109654,1,0,0:0:0:0:
256,192,109790,1,8,0:0:0:0:
256,192,109927,1,0,0:0:0:0:
256,192,110063,1,8,0:0:0:0:
256,192,110336,1,8,0:0:0:0:
256,192,110404,1,0,0:0:0:0:
256,192,110472,1,0,0:0:0:0:
256,192,110540,1,0,0:0:0:0:
256,192,110608,1,8,0:0:0:0:
256,192,110745,1,0,0:0:0:0:
256,192,110881,1,8,0:0:0:0:
256,192,111017,1,0,0:0:0:0:
256,192,111154,1,8,0:0:0:0:
256,192,111290,1,0,0:0:0:0:
256,192,111427,1,8,0:0:0:0:
256,192,111563,1,0,0:0:0:0:
256,192,111631,1,0,0:0:0:0:
256,192,111699,1,8,0:0:0:0:
256,192,111836,1,8,0:0:0:0:
256,192,111904,1,8,0:0:0:0:
256,192,111972,1,0,0:0:0:0:
256,192,112040,1,0,0:0:0:0:
256,192,112108,1,0,0:0:0:0:
256,192,112177,1,0,0:0:0:0:
256,192,112245,1,8,0:0:0:0:
256,192,112381,1,0,0:0:0:0:
256,192,112517,1,8,0:0:0:0:
256,192,112654,1,0,0:0:0:0:
256,192,112722,1,0,0:0:0:0:
256,192,112790,1,8,0:0:0:0:
256,192,112927,1,0,0:0:0:0:
256,192,113063,1,0,0:0:0:0:
256,192,113199,1,8,0:0:0:0:
256,192,113336,1,0,0:0:0:0:
256,192,113472,1,0,0:0:0:0:
256,192,113608,1,8,0:0:0:0:
256,192,113677,1,8,0:0:0:0:
256,192,113745,1,8,0:0:0:0:
256,192,113813,1,8,0:0:0:0:
256,192,113881,1,0,0:0:0:0:
256,192,114017,1,8,0:0:0:0:
256,192,114154,1,0,0:0:0:0:
256,192,114290,1,8,0:0:0:0:
256,192,114427,1,0,0:0:0:0:
256,192,114563,1,8,0:0:0:0:
256,192,114699,1,0,0:0:0:0:
256,192,114836,1,8,0:0:0:0:
256,192,114904,1,0,0:0:0:0:
256,192,114972,1,0,0:0:0:0:
256,192,115108,1,8,0:0:0:0:
256,192,115245,1,0,0:0:0:0:
256,192,115313,1,0,0:0:0:0:
256,192,115381,1,8,0:0:0:0:
256,192,115449,1,8,0:0:0:0:
256,192,115517,1,0,0:0:0:0:
256,192,115654,1,8,0:0:0:0:
256,192,115790,1,0,0:0:0:0:
256,192,115927,1,8,0:0:0:0:
256,192,116063,1,0,0:0:0:0:
256,192,116336,1,0,0:0:0:0:
256,192,116472,1,8,0:0:0:0:
256,192,116608,1,0,0:0:0:0:
256,192,116677,1,8,0:0:0:0:
256,192,116745,1,8,0:0:0:0:
256,192,116881,1,0,0:0:0:0:
256,192,117017,1,8,0:0:0:0:
256,192,117154,1,0,0:0:0:0:
256,192,117290,1,8,0:0:0:0:
256,192,117427,1,0,0:0:0:0:
256,192,117563,1,8,0:0:0:0:
256,192,117699,1,0,0:0:0:0:
256,192,117836,1,0,0:0:0:0:
256,192,117972,1,8,0:0:0:0:
256,192,118108,1,0,0:0:0:0:
256,192,118245,1,8,0:0:0:0:
256,192,118313,1,8,0:0:0:0:
256,192,118381,1,0,0:0:0:0:
256,192,118517,1,0,0:0:0:0:
256,192,118654,1,8,0:0:0:0:
256,192,118722,1,0,0:0:0:0:
256,192,118790,1,0,0:0:0:0:
256,192,118858,1,0,0:0:0:0:
256,192,118927,1,8,0:0:0:0:
256,192,118995,1,8,0:0:0:0:
256,192,119063,1,0,0:0:0:0:
256,192,119199,1,8,0:0:0:0:
256,192,119336,1,0,0:0:0:0:
256,192,119472,1,8,0:0:0:0:
256,192,119608,1,0,0:0:0:0:
256,192,119677,1,0,0:0:0:0:
256,192,119745,1,8,0:0:0:0:
256,192,119881,1,0,0:0:0:0:
256,192,120017,1,8,0:0:0:0:
256,192,120154,1,0,0:0:0:0:
256,192,120290,1,8,0:0:0:0:
256,192,120427,1,0,0:0:0:0:
256,192,120563,1,0,0:0:0:0:
256,192,120699,1,0,0:0:0:0:
256,192,120836,1,8,0:0:0:0:
256,192,120972,1,0,0:0:0:0:
256,192,121108,1,8,0:0:0:0:
256,192,121245,1,0,0:0:0:0:
256,192,121381,1,8,0:0:0:0:
256,192,121517,1,0,0:0:0:0:
256,192,121654,1,12,0:0:0:0:
256,192,121790,1,0,0:0:0:0:
256,192,121927,1,12,0:0:0:0:
256,192,122063,1,0,0:0:0:0:
256,192,122199,1,12,0:0:0:0:
256,192,122336,1,0,0:0:0:0:
256,192,122472,1,12,0:0:0:0:
256,192,122608,1,0,0:0:0:0:
256,192,122745,1,8,0:0:0:0:
256,192,122813,1,0,0:0:0:0:
256,192,122881,1,0,0:0:0:0:
256,192,123017,1,8,0:0:0:0:
256,192,123154,1,0,0:0:0:0:
256,192,123290,1,8,0:0:0:0:
256,192,123427,1,0,0:0:0:0:
256,192,123495,1,0,0:0:0:0:
256,192,123563,1,8,0:0:0:0:
256,192,123699,1,0,0:0:0:0:
256,192,123836,1,8,0:0:0:0:
256,192,123904,1,8,0:0:0:0:
256,192,123972,1,0,0:0:0:0:
256,192,124108,1,8,0:0:0:0:
256,192,124245,1,0,0:0:0:0:
256,192,124381,1,8,0:0:0:0:
256,192,124517,1,0,0:0:0:0:
256,192,124586,1,0,0:0:0:0:
256,192,124654,1,8,0:0:0:0:
256,192,124722,1,0,0:0:0:0:
256,192,124790,1,0,0:0:0:0:
256,192,124927,1,8,0:0:0:0:
256,192,125063,1,0,0:0:0:0:
256,192,125199,1,8,0:0:0:0:
256,192,125336,1,0,0:0:0:0:
256,192,125472,1,8,0:0:0:0:
256,192,125745,1,0,0:0:0:0:
256,192,125881,1,8,0:0:0:0:
256,192,126017,1,8,0:0:0:0:
256,192,126154,1,0,0:0:0:0:
256,192,126290,1,0,0:0:0:0:
256,192,126427,1,8,0:0:0:0:
256,192,126563,1,8,0:0:0:0:
256,192,126699,1,0,0:0:0:0:
256,192,126836,1,8,0:0:0:0:
256,192,126972,1,0,0:0:0:0:
256,192,127040,1,0,0:0:0:0:
256,192,127108,1,8,0:0:0:0:
256,192,127245,1,0,0:0:0:0:
256,192,127381,1,8,0:0:0:0:
256,192,127449,1,8,0:0:0:0:
256,192,127517,1,0,0:0:0:0:
256,192,127586,1,0,0:0:0:0:
256,192,127654,1,8,0:0:0:0:
256,192,127790,1,0,0:0:0:0:
256,192,127927,1,8,0:0:0:0:
256,192,128063,1,0,0:0:0:0:
256,192,128199,1,8,0:0:0:0:
256,192,128336,1,8,0:0:0:0:
256,192,128472,1,8,0:0:0:0:
256,192,128608,1,8,0:0:0:0:
256,192,128745,1,0,0:0:0:0:
256,192,128881,1,0,0:0:0:0:
256,192,129017,1,0,0:0:0:0:
256,192,129154,1,4,0:0:0:0:
256,192,129290,1,0,0:0:0:0:
256,192,129427,1,0,0:0:0:0:
256,192,129563,1,0,0:0:0:0:
256,192,129699,1,12,0:0:0:0:
256,192,129836,1,0,0:0:0:0:
256,192,129972,1,0,0:0:0:0:
256,192,130108,1,0,0:0:0:0:
256,192,130245,1,4,0:0:0:0:
256,192,130381,1,0,0:0:0:0:
256,192,130517,1,0,0:0:0:0:
256,192,130654,1,0,0:0:0:0:
256,192,130790,1,12,0:0:0:0:
256,192,130927,1,0,0:0:0:0:
256,192,131063,1,0,0:0:0:0:
256,192,131131,1,0,0:0:0:0:
256,192,131199,1,0,0:0:0:0:
256,192,131267,1,0,0:0:0:0:
256,192,131336,1,8,0:0:0:0:
256,192,131608,1,8,0:0:0:0:
256,192,135427,1,0,0:0:0:0:
256,192,135495,1,0,0:0:0:0:
256,192,135563,1,0,0:0:0:0:
256,192,135631,1,0,0:0:0:0:
256,192,135699,1,8,0:0:0:0:
256,192,135972,1,8,0:0:0:0:
256,192,140063,1,0,0:0:0:0:
256,192,140199,1,8,0:0:0:0:
256,192,140336,1,0,0:0:0:0:
256,192,140472,1,8,0:0:0:0:
256,192,140608,1,0,0:0:0:0:
256,192,140677,1,0,0:0:0:0:
256,192,140745,1,8,0:0:0:0:
256,192,140881,1,0,0:0:0:0:
256,192,140949,1,0,0:0:0:0:
256,192,141017,1,8,0:0:0:0:
256,192,141154,1,8,0:0:0:0:
256,192,141290,1,8,0:0:0:0:
256,192,141427,1,0,0:0:0:0:
256,192,141563,1,8,0:0:0:0:
256,192,141699,1,0,0:0:0:0:
256,192,141767,1,0,0:0:0:0:
256,192,141836,1,8,0:0:0:0:
256,192,141972,1,0,0:0:0:0:
256,192,142108,1,8,0:0:0:0:
256,192,142245,1,8,0:0:0:0:
256,192,142381,1,8,0:0:0:0:
256,192,142517,1,0,0:0:0:0:
256,192,142654,1,8,0:0:0:0:
256,192,142722,1,0,0:0:0:0:
256,192,142790,1,0,0:0:0:0:
256,192,142858,1,0,0:0:0:0:
256,192,142927,1,8,0:0:0:0:
256,192,143063,1,0,0:0:0:0:
256,192,143131,1,0,0:0:0:0:
256,192,143199,1,8,0:0:0:0:
256,192,143336,1,0,0:0:0:0:
256,192,143472,1,8,0:0:0:0:
256,192,143608,1,0,0:0:0:0:
256,192,143745,1,8,0:0:0:0:
256,192,143813,1,8,0:0:0:0:
256,192,143881,1,0,0:0:0:0:
256,192,143949,1,0,0:0:0:0:
256,192,144017,1,8,0:0:0:0:
256,192,144086,1,0,0:0:0:0:
256,192,144154,1,0,0:0:0:0:
256,192,144222,1,0,0:0:0:0:
256,192,144290,1,8,0:0:0:0:
256,192,144427,1,0,0:0:0:0:
256,192,144563,1,8,0:0:0:0:
256,192,144699,1,0,0:0:0:0:
256,192,144767,1,0,0:0:0:0:
256,192,144836,1,8,0:0:0:0:
256,192,144972,1,8,0:0:0:0:
256,192,145108,1,0,0:0:0:0:
256,192,145245,1,0,0:0:0:0:
256,192,145381,1,8,0:0:0:0:
256,192,145654,1,8,0:0:0:0:
256,192,145790,1,0,0:0:0:0:
256,192,145927,1,8,0:0:0:0:
256,192,145995,1,0,0:0:0:0:
256,192,146063,1,0,0:0:0:0:
256,192,146199,1,8,0:0:0:0:
256,192,146336,1,0,0:0:0:0:
256,192,146404,1,0,0:0:0:0:
256,192,146472,1,8,0:0:0:0:
256,192,146608,1,0,0:0:0:0:
256,192,146745,1,8,0:0:0:0:
256,192,146813,1,8,0:0:0:0:
256,192,146881,1,0,0:0:0:0:
256,192,147017,1,8,0:0:0:0:
256,192,147154,1,0,0:0:0:0:
256,192,147290,1,8,0:0:0:0:
256,192,147427,1,0,0:0:0:0:
256,192,147563,1,8,0:0:0:0:
256,192,147631,1,8,0:0:0:0:
256,192,147699,1,0,0:0:0:0:
256,192,147767,1,0,0:0:0:0:
256,192,147836,1,8,0:0:0:0:
256,192,147972,1,0,0:0:0:0:
256,192,148108,1,8,0:0:0:0:
256,192,148245,1,0,0:0:0:0:
256,192,148381,1,8,0:0:0:0:
256,192,148517,1,8,0:0:0:0:
256,192,148586,1,8,0:0:0:0:
256,192,148654,1,8,0:0:0:0:
256,192,148722,1,8,0:0:0:0:
256,192,148790,1,0,0:0:0:0:
256,192,148927,1,8,0:0:0:0:
256,192,149063,1,0,0:0:0:0:
256,192,149131,1,0,0:0:0:0:
256,192,149199,1,8,0:0:0:0:
256,192,149336,1,0,0:0:0:0:
256,192,149472,1,8,0:0:0:0:
256,192,149608,1,0,0:0:0:0:
256,192,149745,1,8,0:0:0:0:
256,192,149813,1,8,0:0:0:0:
256,192,149881,1,0,0:0:0:0:
256,192,150017,1,8,0:0:0:0:
256,192,150154,1,0,0:0:0:0:
256,192,150290,1,8,0:0:0:0:
256,192,150427,1,8,0:0:0:0:
256,192,150563,1,0,0:0:0:0:
256,192,150699,1,0,0:0:0:0:
256,192,150836,1,0,0:0:0:0:
256,192,150972,1,8,0:0:0:0:
256,192,151108,1,0,0:0:0:0:
256,192,151245,1,8,0:0:0:0:
256,192,151313,1,0,0:0:0:0:
256,192,151381,1,0,0:0:0:0:
256,192,151517,1,0,0:0:0:0:
256,192,151586,1,0,0:0:0:0:
256,192,151654,1,8,0:0:0:0:
256,192,151722,1,0,0:0:0:0:
256,192,151790,1,0,0:0:0:0:
256,192,151858,1,0,0:0:0:0:
256,192,151927,1,8,0:0:0:0:
256,192,152063,1,0,0:0:0:0:
256,192,152199,1,8,0:0:0:0:
256,192,152336,1,0,0:0:0:0:
256,192,152472,1,8,0:0:0:0:
256,192,152608,1,0,0:0:0:0:
256,192,152677,1,0,0:0:0:0:
256,192,152745,1,8,0:0:0:0:
256,192,152881,1,8,0:0:0:0:
256,192,152949,1,0,0:0:0:0:
256,192,153017,1,0,0:0:0:0:
256,192,153154,1,0,0:0:0:0:
256,192,153290,1,8,0:0:0:0:
256,192,153427,1,0,0:0:0:0:
256,192,153563,1,8,0:0:0:0:
256,192,153699,1,0,0:0:0:0:
256,192,153836,1,8,0:0:0:0:
256,192,153904,1,8,0:0:0:0:
256,192,153972,1,8,0:0:0:0:
256,192,154108,1,8,0:0:0:0:
256,192,154245,1,0,0:0:0:0:
256,192,154381,1,8,0:0:0:0:
256,192,154517,1,0,0:0:0:0:
256,192,154654,1,8,0:0:0:0:
256,192,154790,1,0,0:0:0:0:
256,192,154858,1,0,0:0:0:0:
256,192,154927,1,8,0:0:0:0:
256,192,155063,1,0,0:0:0:0:
256,192,155199,1,8,0:0:0:0:
256,192,155336,1,12,0:0:0:0:
256,192,155472,1,0,0:0:0:0:
256,192,155608,1,0,0:0:0:0:
256,192,155745,1,12,0:0:0:0:
256,192,155881,1,0,0:0:0:0:
256,192,156017,1,12,0:0:0:0:
256,192,156154,1,0,0:0:0:0:
256,192,156290,1,0,0:0:0:0:
256,192,156427,1,12,0:0:0:0:
256,192,156563,1,0,0:0:0:0:
256,192,156699,1,0,0:0:0:0:
256,192,156836,1,0,0:0:0:0:
256,192,156972,5,8,0:0:0:0:
256,192,157108,1,8,0:0:0:0:
256,192,157245,1,8,0:0:0:0:
256,192,157381,1,8,0:0:0:0:
256,192,157517,5,0,0:0:0:0:
256,192,157789,1,0,0:0:0:0:
256,192,157926,1,0,0:0:0:0:
256,192,158062,1,8,0:0:0:0:
256,192,158198,1,0,0:0:0:0:
256,192,158471,1,0,0:0:0:0:
256,192,158607,1,12,0:0:0:0:
256,192,159017,1,0,0:0:0:0:
256,192,159153,1,8,0:0:0:0:
256,192,159289,1,0,0:0:0:0:
256,192,159426,1,0,0:0:0:0:
256,192,159494,1,0,0:0:0:0:
256,192,159562,1,0,0:0:0:0:
256,192,159698,1,0,0:0:0:0:
256,192,159971,1,0,0:0:0:0:
256,192,160244,1,8,0:0:0:0:
256,192,160517,1,0,0:0:0:0:
256,192,160789,1,4,0:0:0:0:
256,192,161335,1,12,0:0:0:0:
256,192,161880,1,0,0:0:0:0:
256,192,162153,1,0,0:0:0:0:
256,192,162289,1,0,0:0:0:0:
256,192,162426,1,8,0:0:0:0:
256,192,162562,1,0,0:0:0:0:
256,192,162835,1,0,0:0:0:0:
256,192,162971,1,12,0:0:0:0:
256,192,163380,1,0,0:0:0:0:
256,192,163517,1,8,0:0:0:0:
256,192,163653,1,0,0:0:0:0:
256,192,163789,1,0,0:0:0:0:
256,192,163857,1,0,0:0:0:0:
256,192,163926,1,0,0:0:0:0:
256,192,163994,1,0,0:0:0:0:
256,192,164062,1,8,0:0:0:0:
256,192,164335,1,0,0:0:0:0:
256,192,164607,1,8,0:0:0:0:
256,192,165153,1,0,0:0:0:0:
256,192,165289,1,0,0:0:0:0:
256,192,165426,1,0,0:0:0:0:
256,192,165562,1,0,0:0:0:0:
256,192,165698,1,8,0:0:0:0:
256,192,165835,1,0,0:0:0:0:
256,192,165971,1,0,0:0:0:0:
256,192,166107,1,0,0:0:0:0:
256,192,166244,1,8,0:0:0:0:
256,192,166517,1,0,0:0:0:0:
256,192,166653,1,0,0:0:0:0:
256,192,166789,1,8,0:0:0:0:
256,192,166926,1,0,0:0:0:0:
256,192,167198,1,0,0:0:0:0:
256,192,167335,1,12,0:0:0:0:
256,192,167744,1,0,0:0:0:0:
256,192,167880,1,8,0:0:0:0:
256,192,168017,1,0,0:0:0:0:
256,192,168153,1,0,0:0:0:0:
256,192,168221,1,0,0:0:0:0:
256,192,168289,1,0,0:0:0:0:
256,192,168357,1,0,0:0:0:0:
256,192,168426,1,8,0:0:0:0:
256,192,168698,1,0,0:0:0:0:
256,192,168971,1,8,0:0:0:0:
256,192,169244,1,0,0:0:0:0:
256,192,169517,1,4,0:0:0:0:
256,192,170062,1,12,0:0:0:0:
256,192,170607,1,0,0:0:0:0:
256,192,170745,1,8,0:0:0:0:
256,192,170881,1,0,0:0:0:0:
256,192,171017,1,8,0:0:0:0:
256,192,171154,1,0,0:0:0:0:
256,192,171290,1,8,0:0:0:0:
256,192,171427,1,0,0:0:0:0:
256,192,171563,1,8,0:0:0:0:
256,192,171631,1,8,0:0:0:0:
256,192,171699,1,0,0:0:0:0:
256,192,171836,1,8,0:0:0:0:
256,192,171972,1,0,0:0:0:0:
256,192,172040,1,0,0:0:0:0:
256,192,172108,1,8,0:0:0:0:
256,192,172245,1,0,0:0:0:0:
256,192,172313,1,0,0:0:0:0:
256,192,172381,1,8,0:0:0:0:
256,192,172517,1,0,0:0:0:0:
256,192,172586,1,0,0:0:0:0:
256,192,172654,1,8,0:0:0:0:
256,192,172722,1,0,0:0:0:0:
256,192,172790,1,0,0:0:0:0:
256,192,172927,5,8,0:0:0:0:
256,192,173063,1,0,0:0:0:0:
256,192,173199,1,8,0:0:0:0:
256,192,173336,1,0,0:0:0:0:
256,192,173404,1,8,0:0:0:0:
256,192,173472,1,8,0:0:0:0:
256,192,173608,1,0,0:0:0:0:
256,192,173745,1,8,0:0:0:0:
256,192,173881,1,0,0:0:0:0:
256,192,174017,1,12,0:0:0:0:
256,192,174154,1,0,0:0:0:0:
256,192,174290,1,12,0:0:0:0:
256,192,174427,1,0,0:0:0:0:
256,192,174563,1,12,0:0:0:0:
256,192,174699,1,12,0:0:0:0:
256,192,174972,1,0,0:0:0:0:
256,192,175108,1,8,0:0:0:0:
256,192,175245,1,0,0:0:0:0:
256,192,175381,1,8,0:0:0:0:
256,192,175517,1,0,0:0:0:0:
256,192,175654,1,8,0:0:0:0:
256,192,175722,1,8,0:0:0:0:
256,192,175790,1,0,0:0:0:0:
256,192,175858,1,0,0:0:0:0:
256,192,175927,1,8,0:0:0:0:
256,192,176063,1,0,0:0:0:0:
256,192,176199,1,8,0:0:0:0:
256,192,176267,1,0,0:0:0:0:
256,192,176336,1,0,0:0:0:0:
256,192,176472,1,8,0:0:0:0:
256,192,176540,1,0,0:0:0:0:
256,192,176608,1,0,0:0:0:0:
256,192,176745,1,8,0:0:0:0:
256,192,176813,1,0,0:0:0:0:
256,192,176881,1,0,0:0:0:0:
256,192,176949,1,0,0:0:0:0:
256,192,177017,1,8,0:0:0:0:
256,192,177154,1,0,0:0:0:0:
256,192,177290,1,8,0:0:0:0:
256,192,177427,1,0,0:0:0:0:
256,192,177563,1,8,0:0:0:0:
256,192,177699,1,0,0:0:0:0:
256,192,177836,1,8,0:0:0:0:
256,192,177972,1,0,0:0:0:0:
256,192,178040,1,0,0:0:0:0:
256,192,178108,1,8,0:0:0:0:
256,192,178245,1,0,0:0:0:0:
256,192,178381,1,8,0:0:0:0:
256,192,178517,1,0,0:0:0:0:
256,192,178654,1,8,0:0:0:0:
256,192,178790,1,8,0:0:0:0:
256,192,178927,1,8,0:0:0:0:
256,192,179063,1,8,0:0:0:0:
256,192,179199,1,0,0:0:0:0:
256,192,179336,1,12,0:0:0:0:
256,192,179472,1,0,0:0:0:0:
256,192,179608,1,0,0:0:0:0:
256,192,179745,1,8,0:0:0:0:
256,192,179881,1,0,0:0:0:0:
256,192,180017,1,8,0:0:0:0:
256,192,180154,1,0,0:0:0:0:
256,192,180290,1,8,0:0:0:0:
256,192,180563,1,0,0:0:0:0:
256,192,180699,1,0,0:0:0:0:
256,192,180836,1,0,0:0:0:0:
256,192,180972,1,8,0:0:0:0:
256,192,181108,1,0,0:0:0:0:
256,192,181245,1,8,0:0:0:0:
256,192,181381,1,0,0:0:0:0:
256,192,181517,1,8,0:0:0:0:
256,192,181790,1,0,0:0:0:0:
256,192,181927,1,8,0:0:0:0:
256,192,182063,1,0,0:0:0:0:
256,192,182199,1,8,0:0:0:0:
256,192,182336,1,0,0:0:0:0:
256,192,182472,1,8,0:0:0:0:
256,192,182608,1,0,0:0:0:0:
256,192,182677,1,8,0:0:0:0:
256,192,182745,1,8,0:0:0:0:
256,192,182881,1,8,0:0:0:0:
256,192,183017,1,0,0:0:0:0:
256,192,183154,1,8,0:0:0:0:
256,192,183290,1,8,0:0:0:0:
256,192,183427,1,0,0:0:0:0:
256,192,183563,1,8,0:0:0:0:
256,192,183699,1,8,0:0:0:0:
256,192,183836,1,0,0:0:0:0:
256,192,183972,1,0,0:0:0:0:
256,192,184108,1,8,0:0:0:0:
256,192,184381,1,8,0:0:0:0:
256,192,184517,1,0,0:0:0:0:
256,192,184654,1,8,0:0:0:0:
256,192,184790,1,0,0:0:0:0:
256,192,184927,1,0,0:0:0:0:
256,192,185063,1,8,0:0:0:0:
256,192,185199,1,0,0:0:0:0:
256,192,185336,1,8,0:0:0:0:
256,192,185472,1,0,0:0:0:0:
256,192,185608,1,8,0:0:0:0:
256,192,185745,1,0,0:0:0:0:
256,192,185881,1,12,0:0:0:0:
256,192,186017,1,0,0:0:0:0:
256,192,186154,1,0,0:0:0:0:
256,192,186290,1,12,0:0:0:0:
256,192,186427,1,0,0:0:0:0:
256,192,186563,1,12,0:0:0:0:
256,192,186699,1,0,0:0:0:0:
256,192,186836,1,12,0:0:0:0:
256,192,186972,1,0,0:0:0:0:
256,192,187108,1,0,0:0:0:0:
256,192,187245,1,12,0:0:0:0:
256,192,187381,1,0,0:0:0:0:
256,192,187517,1,12,0:0:0:0:
256,192,187654,1,0,0:0:0:0:
256,192,187790,1,8,0:0:0:0:
256,192,187927,1,8,0:0:0:0:
256,192,188063,1,0,0:0:0:0:
256,192,188131,1,0,0:0:0:0:
256,192,188199,1,0,0:0:0:0:
256,192,188267,1,0,0:0:0:0:
256,192,188336,1,0,0:0:0:0:
256,192,188608,1,8,0:0:0:0:
256,192,188745,1,0,0:0:0:0:
256,192,189017,1,0,0:0:0:0:
256,192,189427,1,0,0:0:0:0:
256,192,189563,1,0,0:0:0:0:
256,192,189699,1,8,0:0:0:0:
256,192,189836,1,0,0:0:0:0:
256,192,190108,1,0,0:0:0:0:
256,192,190245,1,0,0:0:0:0:
256,192,190313,1,0,0:0:0:0:
256,192,190381,1,0,0:0:0:0:
256,192,190449,1,0,0:0:0:0:
256,192,190517,1,8,0:0:0:0:
256,192,190790,1,8,0:0:0:0:
256,192,190927,1,0,0:0:0:0:
256,192,191199,1,0,0:0:0:0:
256,192,191608,1,0,0:0:0:0:
256,192,191881,1,8,0:0:0:0:
256,192,192017,1,8,0:0:0:0:
256,192,192154,1,8,0:0:0:0:
256,192,192290,1,8,0:0:0:0:
256,192,192427,1,0,0:0:0:0:
256,192,192495,1,0,0:0:0:0:
256,192,192563,1,0,0:0:0:0:
256,192,192631,1,0,0:0:0:0:
256,192,192699,1,8,0:0:0:0:
256,192,192972,1,8,0:0:0:0:
256,192,193108,1,0,0:0:0:0:
256,192,193381,1,0,0:0:0:0:
256,192,193517,1,4,0:0:0:0:
256,192,193790,1,0,0:0:0:0:
256,192,194063,1,8,0:0:0:0:
256,192,194199,1,0,0:0:0:0:
256,192,194472,1,0,0:0:0:0:
256,192,194608,1,8,0:0:0:0:
256,192,194677,1,0,0:0:0:0:
256,192,194745,1,0,0:0:0:0:
256,192,194813,1,0,0:0:0:0:
256,192,194881,1,8,0:0:0:0:
256,192,195154,1,8,0:0:0:0:
256,192,195290,1,0,0:0:0:0:
256,192,195563,1,0,0:0:0:0:
256,192,195972,1,8,0:0:0:0:
256,192,196040,1,0,0:0:0:0:
256,192,196108,1,0,0:0:0:0:
256,192,196177,1,0,0:0:0:0:
256,192,196245,1,8,0:0:0:0:
256,192,196381,1,8,0:0:0:0:
256,192,196517,1,8,0:0:0:0:
256,192,196654,1,8,0:0:0:0:
256,192,196790,1,0,0:0:0:0:
256,192,196858,1,0,0:0:0:0:
256,192,196927,1,0,0:0:0:0:
256,192,196995,1,0,0:0:0:0:
256,192,197063,1,8,0:0:0:0:
256,192,197336,1,8,0:0:0:0:
256,192,197472,1,0,0:0:0:0:
256,192,197745,1,0,0:0:0:0:
256,192,197881,1,4,0:0:0:0:
256,192,198154,1,0,0:0:0:0:
256,192,198222,1,0,0:0:0:0:
256,192,198290,1,0,0:0:0:0:
256,192,198358,1,0,0:0:0:0:
256,192,198427,1,8,0:0:0:0:
256,192,198563,1,0,0:0:0:0:
256,192,198699,1,0,0:0:0:0:
256,192,198836,1,0,0:0:0:0:
256,192,198972,1,8,0:0:0:0:
256,192,199040,1,0,0:0:0:0:
256,192,199108,1,0,0:0:0:0:
256,192,199177,1,0,0:0:0:0:
256,192,199245,1,8,0:0:0:0:
256,192,199517,1,8,0:0:0:0:
256,192,199654,1,0,0:0:0:0:
256,192,199927,1,0,0:0:0:0:
256,192,200336,1,0,0:0:0:0:
256,192,200608,1,8,0:0:0:0:
256,192,200745,1,8,0:0:0:0:
256,192,200881,1,8,0:0:0:0:
256,192,201017,1,8,0:0:0:0:
256,192,201154,1,0,0:0:0:0:
256,192,201222,1,0,0:0:0:0:
256,192,201290,1,0,0:0:0:0:
256,192,201358,1,0,0:0:0:0:
256,192,201427,1,8,0:0:0:0:
256,192,201699,1,8,0:0:0:0:
256,192,201836,1,0,0:0:0:0:
256,192,202108,1,0,0:0:0:0:
256,192,202245,1,4,0:0:0:0:
256,192,202517,1,0,0:0:0:0:
256,192,202790,1,8,0:0:0:0:
256,192,202927,1,0,0:0:0:0:
256,192,203199,1,0,0:0:0:0:
256,192,203336,1,0,0:0:0:0:
256,192,203404,1,0,0:0:0:0:
256,192,203472,1,0,0:0:0:0:
256,192,203540,1,0,0:0:0:0:
256,192,203608,1,8,0:0:0:0:
256,192,203881,1,8,0:0:0:0:
256,192,204017,1,0,0:0:0:0:
256,192,204290,1,0,0:0:0:0:
256,192,205517,1,12,0:0:0:0:
256,192,205653,1,0,0:0:0:0:
256,192,205789,1,8,0:0:0:0:
256,192,205926,1,0,0:0:0:0:
256,192,206062,1,8,0:0:0:0:
256,192,206198,1,0,0:0:0:0:
256,192,206267,1,0,0:0:0:0:
256,192,206335,1,8,0:0:0:0:
256,192,206471,1,0,0:0:0:0:
256,192,206607,1,8,0:0:0:0:
256,192,206744,1,0,0:0:0:0:
256,192,206880,1,8,0:0:0:0:
256,192,206949,1,0,0:0:0:0:
256,192,207017,1,0,0:0:0:0:
256,192,207153,1,8,0:0:0:0:
256,192,207222,1,8,0:0:0:0:
256,192,207289,1,0,0:0:0:0:
256,192,207426,1,8,0:0:0:0:
256,192,207562,1,0,0:0:0:0:
256,192,207630,1,0,0:0:0:0:
256,192,207698,1,8,0:0:0:0:
256,192,207767,1,0,0:0:0:0:
256,192,207835,1,0,0:0:0:0:
256,192,207904,1,0,0:0:0:0:
256,192,207971,1,8,0:0:0:0:
256,192,208107,1,0,0:0:0:0:
256,192,208244,1,8,0:0:0:0:
256,192,208380,1,0,0:0:0:0:
256,192,208517,1,8,0:0:0:0:
256,192,208653,1,0,0:0:0:0:
256,192,208721,1,0,0:0:0:0:
256,192,208789,1,8,0:0:0:0:
256,192,208857,1,8,0:0:0:0:
256,192,208926,1,0,0:0:0:0:
256,192,208994,1,0,0:0:0:0:
256,192,209062,1,8,0:0:0:0:
256,192,209198,1,0,0:0:0:0:
256,192,209335,1,8,0:0:0:0:
256,192,209471,1,0,0:0:0:0:
256,192,209539,1,0,0:0:0:0:
256,192,209607,1,8,0:0:0:0:
256,192,209744,1,0,0:0:0:0:
256,192,209812,1,0,0:0:0:0:
256,192,209880,1,8,0:0:0:0:
256,192,210017,1,0,0:0:0:0:
256,192,210153,1,8,0:0:0:0:
256,192,210289,1,0,0:0:0:0:
256,192,210426,1,8,0:0:0:0:
256,192,210562,1,0,0:0:0:0:
256,192,210698,1,8,0:0:0:0:
256,192,210835,1,0,0:0:0:0:
256,192,210903,1,0,0:0:0:0:
256,192,210971,1,8,0:0:0:0:
256,192,211107,1,0,0:0:0:0:
256,192,211244,1,8,0:0:0:0:
256,192,211312,1,8,0:0:0:0:
256,192,211380,1,0,0:0:0:0:
256,192,211448,1,0,0:0:0:0:
256,192,211517,1,8,0:0:0:0:
256,192,211653,1,0,0:0:0:0:
256,192,211789,1,8,0:0:0:0:
256,192,211926,1,0,0:0:0:0:
256,192,211994,1,0,0:0:0:0:
256,192,212062,1,8,0:0:0:0:
256,192,212198,1,0,0:0:0:0:
256,192,212335,1,8,0:0:0:0:
256,192,212471,1,0,0:0:0:0:
256,192,212607,1,8,0:0:0:0:
256,192,212744,1,0,0:0:0:0:
256,192,212880,1,8,0:0:0:0:
256,192,213017,1,0,0:0:0:0:
256,192,213153,1,8,0:0:0:0:
256,192,213221,1,8,0:0:0:0:
256,192,213289,1,0,0:0:0:0:
256,192,213357,1,0,0:0:0:0:
256,192,213427,1,8,0:0:0:0:
256,192,213494,1,0,0:0:0:0:
256,192,213562,1,0,0:0:0:0:
256,192,213630,1,0,0:0:0:0:
256,192,213698,1,8,0:0:0:0:
256,192,213767,1,8,0:0:0:0:
256,192,213835,1,0,0:0:0:0:
256,192,213903,1,0,0:0:0:0:
256,192,213971,1,8,0:0:0:0:
256,192,214039,1,8,0:0:0:0:
256,192,214107,1,0,0:0:0:0:
256,192,214176,1,0,0:0:0:0:
256,192,214244,1,8,0:0:0:0:
256,192,214380,1,0,0:0:0:0:
256,192,214517,1,8,0:0:0:0:
256,192,214653,1,0,0:0:0:0:
256,192,214789,1,8,0:0:0:0:
256,192,214926,1,0,0:0:0:0:
256,192,214994,1,0,0:0:0:0:
256,192,215062,1,8,0:0:0:0:
256,192,215198,1,0,0:0:0:0:
256,192,215335,1,8,0:0:0:0:
256,192,215472,1,0,0:0:0:0:
256,192,215607,1,8,0:0:0:0:
256,192,215676,1,8,0:0:0:0:
256,192,215744,1,0,0:0:0:0:
256,192,215812,1,0,0:0:0:0:
256,192,215880,1,8,0:0:0:0:
256,192,215948,1,8,0:0:0:0:
256,192,216017,1,0,0:0:0:0:
256,192,216085,1,0,0:0:0:0:
256,192,216153,1,8,0:0:0:0:
256,192,216221,1,0,0:0:0:0:
256,192,216289,1,0,0:0:0:0:
256,192,216357,1,0,0:0:0:0:
256,192,216426,1,8,0:0:0:0:
256,192,216562,1,0,0:0:0:0:
256,192,216698,1,8,0:0:0:0:
256,192,216835,1,0,0:0:0:0:
256,192,216971,1,8,0:0:0:0:
256,192,217107,1,0,0:0:0:0:
256,192,217176,1,0,0:0:0:0:
256,192,217244,1,8,0:0:0:0:
256,192,217312,1,8,0:0:0:0:
256,192,217380,1,0,0:0:0:0:
256,192,217517,1,8,0:0:0:0:
256,192,217653,1,0,0:0:0:0:
256,192,217789,1,8,0:0:0:0:
256,192,217926,1,0,0:0:0:0:
256,192,217994,1,0,0:0:0:0:
256,192,218062,1,8,0:0:0:0:
256,192,218198,1,0,0:0:0:0:
256,192,218335,1,8,0:0:0:0:
256,192,218471,1,8,0:0:0:0:
256,192,218539,1,0,0:0:0:0:
256,192,218607,1,8,0:0:0:0:
256,192,218744,1,0,0:0:0:0:
256,192,218880,1,8,0:0:0:0:
256,192,219017,1,0,0:0:0:0:
256,192,219153,1,8,0:0:0:0:
256,192,219426,1,8,0:0:0:0:
256,192,219494,1,0,0:0:0:0:
256,192,219562,1,0,0:0:0:0:
256,192,219630,1,0,0:0:0:0:
256,192,219698,1,8,0:0:0:0:
256,192,219835,1,0,0:0:0:0:
256,192,219971,1,8,0:0:0:0:
256,192,220107,1,0,0:0:0:0:
256,192,220244,1,8,0:0:0:0:
256,192,220380,1,0,0:0:0:0:
256,192,220517,1,8,0:0:0:0:
256,192,220653,1,0,0:0:0:0:
256,192,220721,1,0,0:0:0:0:
256,192,220789,1,8,0:0:0:0:
256,192,220926,1,8,0:0:0:0:
256,192,220994,1,8,0:0:0:0:
256,192,221062,1,0,0:0:0:0:
256,192,221130,1,0,0:0:0:0:
256,192,221198,1,0,0:0:0:0:
256,192,221267,1,0,0:0:0:0:
256,192,221335,1,8,0:0:0:0:
256,192,221471,1,0,0:0:0:0:
256,192,221607,1,8,0:0:0:0:
256,192,221744,1,0,0:0:0:0:
256,192,221812,1,0,0:0:0:0:
256,192,221880,1,8,0:0:0:0:
256,192,222017,1,0,0:0:0:0:
256,192,222154,1,8,0:0:0:0:
256,192,222222,1,0,0:0:0:0:
256,192,222290,1,0,0:0:0:0:
256,192,222358,1,0,0:0:0:0:
256,192,222427,1,8,0:0:0:0:
256,192,222495,1,0,0:0:0:0:
256,192,222562,1,0,0:0:0:0:
256,192,222631,1,0,0:0:0:0:
256,192,222699,1,8,0:0:0:0:
256,192,222767,1,8,0:0:0:0:
256,192,222836,1,0,0:0:0:0:
256,192,222904,1,0,0:0:0:0:
256,192,222972,1,8,0:0:0:0:
256,192,223108,1,0,0:0:0:0:
256,192,223177,1,0,0:0:0:0:
256,192,223245,1,8,0:0:0:0:
256,192,223381,1,0,0:0:0:0:
256,192,223449,1,0,0:0:0:0:
256,192,223517,1,8,0:0:0:0:
256,192,223654,1,0,0:0:0:0:
256,192,223722,1,0,0:0:0:0:
256,192,223790,1,8,0:0:0:0:
256,192,223858,1,0,0:0:0:0:
256,192,223927,1,0,0:0:0:0:
256,192,224063,1,8,0:0:0:0:
256,192,224199,1,0,0:0:0:0:
256,192,224267,1,0,0:0:0:0:
256,192,224336,1,8,0:0:0:0:
256,192,224404,1,8,0:0:0:0:
256,192,224472,1,8,0:0:0:0:
256,192,224540,1,8,0:0:0:0:
256,192,224608,1,0,0:0:0:0:
256,192,224677,1,0,0:0:0:0:
256,192,224745,1,0,0:0:0:0:
256,192,224813,1,0,0:0:0:0:
256,192,224881,1,8,0:0:0:0:
256,192,224949,1,0,0:0:0:0:
256,192,225017,1,0,0:0:0:0:
256,192,225086,1,0,0:0:0:0:
256,192,225154,1,8,0:0:0:0:
256,192,225290,1,0,0:0:0:0:
256,192,225427,1,8,0:0:0:0:
256,192,225563,1,0,0:0:0:0:
256,192,225631,1,0,0:0:0:0:
256,192,225699,1,8,0:0:0:0:
256,192,225767,1,8,0:0:0:0:
256,192,225836,1,0,0:0:0:0:
256,192,225972,1,8,0:0:0:0:
256,192,226108,1,0,0:0:0:0:
256,192,226177,1,0,0:0:0:0:
256,192,226245,1,8,0:0:0:0:
256,192,226381,1,0,0:0:0:0:
256,192,226517,1,8,0:0:0:0:
256,192,226654,1,0,0:0:0:0:
256,192,226722,1,0,0:0:0:0:
256,192,226790,1,8,0:0:0:0:
256,192,226858,1,8,0:0:0:0:
256,192,226927,1,0,0:0:0:0:
256,192,226995,1,0,0:0:0:0:
256,192,227063,1,8,0:0:0:0:
256,192,227131,1,0,0:0:0:0:
256,192,227199,1,0,0:0:0:0:
256,192,227267,1,0,0:0:0:0:
256,192,227336,1,8,0:0:0:0:
256,192,227472,1,0,0:0:0:0:
256,192,227608,1,8,0:0:0:0:
256,192,227745,1,0,0:0:0:0:
256,192,227813,1,0,0:0:0:0:
256,192,227881,1,8,0:0:0:0:
256,192,228017,1,0,0:0:0:0:
256,192,228086,1,0,0:0:0:0:
256,192,228154,1,0,0:0:0:0:
256,192,228222,1,0,0:0:0:0:
256,192,228290,1,0,0:0:0:0:
256,192,228358,1,0,0:0:0:0:
256,192,228427,1,8,0:0:0:0:
256,192,228563,1,0,0:0:0:0:
256,192,228699,1,12,0:0:0:0:
256,192,228836,1,0,0:0:0:0:
256,192,228904,1,0,0:0:0:0:
256,192,228972,1,8,0:0:0:0:
256,192,229108,1,0,0:0:0:0:
256,192,229177,1,0,0:0:0:0:
256,192,229245,1,8,0:0:0:0:
256,192,229313,1,0,0:0:0:0:
256,192,229381,1,0,0:0:0:0:
256,192,229449,1,0,0:0:0:0:
256,192,229517,1,8,0:0:0:0:
256,192,229654,1,0,0:0:0:0:
256,192,229790,1,8,0:0:0:0:
256,192,229927,1,0,0:0:0:0:
256,192,229995,1,0,0:0:0:0:
256,192,230063,1,8,0:0:0:0:
256,192,230131,1,0,0:0:0:0:
256,192,230199,1,0,0:0:0:0:
256,192,230336,1,8,0:0:0:0:
256,192,230404,1,0,0:0:0:0:
256,192,230472,1,0,0:0:0:0:
256,192,230608,1,8,0:0:0:0:
256,192,230745,1,0,0:0:0:0:
256,192,230881,1,8,0:0:0:0:
256,192,230949,1,0,0:0:0:0:
256,192,231017,1,0,0:0:0:0:
256,192,231086,1,0,0:0:0:0:
256,192,231154,1,8,0:0:0:0:
256,192,231222,1,8,0:0:0:0:
256,192,231290,1,8,0:0:0:0:
256,192,231358,1,8,0:0:0:0:
256,192,231427,1,0,0:0:0:0:
256,192,231495,1,0,0:0:0:0:
256,192,231563,1,0,0:0:0:0:
256,192,231631,1,0,0:0:0:0:
256,192,231699,1,8,0:0:0:0:
256,192,231836,1,0,0:0:0:0:
256,192,231972,1,8,0:0:0:0:
256,192,232108,1,0,0:0:0:0:
256,192,232177,1,0,0:0:0:0:
256,192,232245,1,8,0:0:0:0:
256,192,232381,1,0,0:0:0:0:
256,192,232517,1,8,0:0:0:0:
256,192,232654,1,0,0:0:0:0:
256,192,232722,1,0,0:0:0:0:
256,192,232790,1,8,0:0:0:0:
256,192,232927,1,0,0:0:0:0:
256,192,233063,1,8,0:0:0:0:
256,192,233131,1,8,0:0:0:0:
256,192,233199,1,0,0:0:0:0:
256,192,233267,1,0,0:0:0:0:
256,192,233336,1,8,0:0:0:0:
256,192,233404,1,8,0:0:0:0:
256,192,233472,1,8,0:0:0:0:
256,192,233540,1,8,0:0:0:0:
256,192,233608,1,0,0:0:0:0:
256,192,233677,1,0,0:0:0:0:
256,192,233745,1,0,0:0:0:0:
256,192,233813,1,0,0:0:0:0:
256,192,233881,1,8,0:0:0:0:
256,192,234017,1,0,0:0:0:0:
256,192,234154,1,8,0:0:0:0:
256,192,234222,1,0,0:0:0:0:
256,192,234290,1,0,0:0:0:0:
256,192,234358,1,0,0:0:0:0:
256,192,234427,1,8,0:0:0:0:
256,192,234563,1,0,0:0:0:0:
256,192,234699,1,8,0:0:0:0:
256,192,234836,1,0,0:0:0:0:
256,192,234904,1,0,0:0:0:0:
256,192,234972,1,8,0:0:0:0:
256,192,235108,1,0,0:0:0:0:
256,192,235245,1,8,0:0:0:0:
256,192,235381,1,0,0:0:0:0:
256,192,235449,1,0,0:0:0:0:
256,192,235517,1,8,0:0:0:0:
256,192,235586,1,0,0:0:0:0:
256,192,235654,1,0,0:0:0:0:
256,192,235722,1,0,0:0:0:0:
256,192,235790,1,8,0:0:0:0:
256,192,235858,1,8,0:0:0:0:
256,192,235927,1,0,0:0:0:0:
256,192,235995,1,0,0:0:0:0:
256,192,236063,1,8,0:0:0:0:
256,192,236199,1,0,0:0:0:0:
256,192,236336,1,8,0:0:0:0:
256,192,236404,1,0,0:0:0:0:
256,192,236472,1,0,0:0:0:0:
256,192,236540,1,0,0:0:0:0:
256,192,236608,1,8,0:0:0:0:
256,192,236745,1,0,0:0:0:0:
256,192,236881,1,8,0:0:0:0:
256,192,237017,1,0,0:0:0:0:
256,192,237086,1,0,0:0:0:0:
256,192,237154,1,8,0:0:0:0:
256,192,237290,1,0,0:0:0:0:
256,192,237427,1,8,0:0:0:0:
256,192,237563,1,0,0:0:0:0:
256,192,237631,1,0,0:0:0:0:
256,192,237699,1,8,0:0:0:0:
256,192,237836,1,0,0:0:0:0:
256,192,237972,1,8,0:0:0:0:
256,192,238108,1,0,0:0:0:0:
256,192,238177,1,0,0:0:0:0:
256,192,238245,1,8,0:0:0:0:
256,192,238381,1,0,0:0:0:0:
256,192,238517,1,8,0:0:0:0:
256,192,238654,1,0,0:0:0:0:
256,192,238722,1,0,0:0:0:0:
256,192,238790,1,8,0:0:0:0:
256,192,238858,1,0,0:0:0:0:
256,192,238927,1,0,0:0:0:0:
256,192,238995,1,0,0:0:0:0:
256,192,239063,1,0,0:0:0:0:
256,192,239108,1,0,0:0:0:0:
256,192,239154,1,0,0:0:0:0:
256,192,239199,1,0,0:0:0:0:
256,192,239245,1,0,0:0:0:0:
256,192,239290,1,0,0:0:0:0:
256,192,239336,1,8,0:0:0:0:
