osu file format v14

[General]
AudioFilename: audio.mp3
AudioLeadIn: 0
PreviewTime: 114124
Countdown: 0
SampleSet: Normal
StackLeniency: 0.7
Mode: 1
LetterboxInBreaks: 0
WidescreenStoryboard: 1

[Editor]
Bookmarks: 67780,81021,87642,100883,172883,179504,192745,207642
DistanceSpacing: 0.1
BeatDivisor: 8
GridSize: 32
TimelineZoom: 4.199998

[Metadata]
Title:Epona
TitleUnicode:Epona
Artist:Eluveitie
ArtistUnicode:Eluveitie
Creator:Raiden
Version:Muzukashii
Source:
Tags:grimbow EVOCATION II - PANTHEON folk metal gallic gaulish gaul
BeatmapID:2568296
BeatmapSetID:641546

[Difficulty]
HPDrainRate:7
CircleSize:2
OverallDifficulty:5
ApproachRate:10
SliderMultiplier:1.4
SliderTickRate:1

[Events]
//Background and Video events
0,0,"ddyv5bs-e9fc1fe7-bb1b-4e59-942d-8bad29b5f8dc.jpg",0,-50
//Break Periods
//Storyboard Layer 0 (Background)
//Storyboard Layer 1 (Fail)
//Storyboard Layer 2 (Pass)
//Storyboard Layer 3 (Foreground)
//Storyboard Layer 4 (Overlay)
//Storyboard Sound Samples

[TimingPoints]
33849,413.793103448276,4,1,0,55,1,0
37159,-100,4,1,0,55,0,0
40055,-100,4,1,0,85,0,0
66952,413.793103448276,4,1,0,85,1,8
67572,-111.111111111111,4,1,0,85,0,0
67779,413.793103448276,4,1,0,85,1,8
67780,413.793103448276,4,1,0,85,1,0
67780,-111.111111111111,4,1,0,85,0,0
100262,-108.695652173913,4,1,0,85,0,0
100366,-107.52688172043,4,1,0,85,0,0
100469,-105.263157894737,4,1,0,85,0,0
100573,-104.166666666667,4,1,0,85,0,0
100676,-103.092783505155,4,1,0,85,0,0
100780,-102.040816326531,4,1,0,85,0,0
100883,-100,4,1,0,85,0,0
113711,-98.0392156862745,4,1,0,85,0,0
113814,-96.1538461538461,4,1,0,85,0,0
113917,-94.3396226415094,4,1,0,85,0,0
114021,-92.5925925925926,4,1,0,85,0,0
114073,-100,4,1,0,100,0,0
114124,-90.9090909090909,4,1,0,100,0,1
126538,-91.743119266055,4,1,0,100,0,1
126642,-92.5925925925926,4,1,0,100,0,1
126745,-93.4579439252336,4,1,0,100,0,1
126848,-94.3396226415094,4,1,0,100,0,1
126952,-96.1538461538461,4,1,0,100,0,1
127055,-97.0873786407767,4,1,0,100,0,1
127159,-98.0392156862745,4,1,0,100,0,1
127262,-99.009900990099,4,1,0,100,0,1
127366,-100,4,1,0,85,0,0
138952,413.793103448276,4,1,0,85,1,8
139779,413.793103448276,4,1,0,85,1,8
139779,-111.111111111111,4,1,0,85,0,0
139780,413.793103448276,4,1,0,85,1,0
139780,-111.111111111111,4,1,0,85,0,0
151366,-111.111111111111,4,1,0,85,0,0
151469,-110.091783519921,4,1,0,85,0,0
151573,-109.090869421502,4,1,0,85,0,0
151780,-107.142895408177,4,1,0,85,0,0
151986,-105.263157894737,4,1,0,85,0,0
152193,-103.448240190262,4,1,0,85,0,0
152400,-101.694949727102,4,1,0,85,0,0
152607,-100,4,1,0,85,0,0
152969,-100,4,1,0,100,0,0
153021,-90.9090909090909,4,1,0,100,0,1
166262,-90.9090909090909,4,1,0,100,0,0
166469,-100,4,1,0,60,0,0
172469,-100,4,1,0,55,0,0
179504,-100,4,1,0,80,0,0
192952,-111.111111111111,4,1,0,30,0,0
204331,-111.111111111111,4,1,0,20,0,0
204745,-100,4,1,0,30,0,0
205159,-100,4,1,0,40,0,0
205573,-100,4,1,0,50,0,0
205986,-100,4,1,0,60,0,0
220469,-98.0392156862745,4,1,0,80,0,0
220573,-96.1538461538461,4,1,0,80,0,0
220676,-94.3396226415094,4,1,0,80,0,0
220780,-92.5925925925926,4,1,0,80,0,0
220831,-100,4,1,0,100,0,0
220883,-90.9090909090909,4,1,0,100,0,1
234124,-90.9090909090909,4,1,0,85,0,0

[HitObjects]
256,192,37159,12,0,39642,0:0:0:0:
256,192,40055,5,0,0:0:0:0:
256,192,40262,5,8,0:0:0:0:
128,256,40469,5,4,0:0:0:0:
256,192,40780,5,8,0:0:0:0:
320,233,40883,5,8,0:0:0:0:
147,95,41090,5,0,0:0:0:0:
326,229,41297,5,8,0:0:0:0:
308,204,41504,5,8,0:0:0:0:
159,96,41711,5,0,0:0:0:0:
336,229,41917,5,8,0:0:0:0:
321,234,42124,5,8,0:0:0:0:
119,43,42331,5,0,0:0:0:0:
346,256,42538,5,8,0:0:0:0:
256,192,42745,5,0,0:0:0:0:
365,251,42952,5,8,0:0:0:0:
256,192,43573,5,8,0:0:0:0:
321,246,43780,5,8,0:0:0:0:
145,104,43986,5,0,0:0:0:0:
145,104,44193,5,0,0:0:0:0:
359,234,44400,5,8,0:0:0:0:
130,75,44607,5,0,0:0:0:0:
130,75,44814,5,0,0:0:0:0:
295,219,45021,5,8,0:0:0:0:
372,262,45228,5,8,0:0:0:0:
119,86,45435,5,0,0:0:0:0:
256,192,45745,5,8,0:0:0:0:
321,282,45849,5,8,0:0:0:0:
159,102,46055,5,0,0:0:0:0:
140,67,46262,5,0,0:0:0:0:
256,192,46469,5,0,0:0:0:0:
378,57,46676,5,8,0:0:0:0:
371,255,46883,5,8,0:0:0:0:
106,46,47090,5,0,0:0:0:0:
145,77,47400,5,8,0:0:0:0:
372,272,47504,5,8,0:0:0:0:
336,218,47711,5,0,0:0:0:0:
154,79,47917,5,8,0:0:0:0:
393,271,48124,5,8,0:0:0:0:
135,71,48331,5,0,0:0:0:0:
354,230,48538,5,8,0:0:0:0:
344,201,48745,5,8,0:0:0:0:
156,83,48952,5,0,0:0:0:0:
310,213,49159,5,8,0:0:0:0:
301,237,49262,5,8,0:0:0:0:
155,104,49366,5,8,0:0:0:0:
92,42,49573,5,0,0:0:0:0:
256,192,50193,5,8,0:0:0:0:
347,262,50400,5,8,0:0:0:0:
135,40,50607,5,8,0:0:0:0:
167,96,50814,5,8,0:0:0:0:
170,97,51021,5,0,0:0:0:0:
321,227,51228,5,8,0:0:0:0:
128,71,51435,5,0,0:0:0:0:
132,78,51642,5,0,0:0:0:0:
306,217,51849,5,8,0:0:0:0:
143,87,52055,5,0,0:0:0:0:
109,66,52262,5,0,0:0:0:0:
341,242,52469,5,8,0:0:0:0:
256,192,52573,5,8,0:0:0:0:
256,192,52676,5,8,0:0:0:0:
170,107,52883,5,4,0:0:0:0:
140,68,53297,5,8,0:0:0:0:
342,233,53504,5,8,0:0:0:0:
148,98,53711,5,0,0:0:0:0:
121,67,54021,5,8,0:0:0:0:
320,233,54124,5,8,0:0:0:0:
147,95,54331,5,0,0:0:0:0:
326,229,54538,5,8,0:0:0:0:
308,204,54745,5,8,0:0:0:0:
159,96,54952,5,0,0:0:0:0:
336,229,55159,5,8,0:0:0:0:
321,234,55366,5,8,0:0:0:0:
119,43,55573,5,0,0:0:0:0:
346,256,55780,5,8,0:0:0:0:
353,270,55986,5,8,0:0:0:0:
365,251,56193,5,8,0:0:0:0:
256,192,56814,5,8,0:0:0:0:
321,246,57021,5,8,0:0:0:0:
145,104,57228,5,0,0:0:0:0:
145,104,57435,5,0,0:0:0:0:
359,234,57642,5,8,0:0:0:0:
130,75,57849,5,0,0:0:0:0:
130,75,58055,5,0,0:0:0:0:
372,262,58262,5,8,0:0:0:0:
224,192,58469,5,8,0:0:0:0:
119,86,58676,5,0,0:0:0:0:
119,86,58986,5,8,0:0:0:0:
321,282,59090,5,8,0:0:0:0:
159,102,59297,5,0,0:0:0:0:
140,67,59504,5,0,0:0:0:0:
224,192,59711,5,0,0:0:0:0:
384,64,59917,5,12,0:0:0:0:
371,255,60124,5,8,0:0:0:0:
106,46,60331,5,0,0:0:0:0:
121,67,60642,5,8,0:0:0:0:
320,233,60745,5,8,0:0:0:0:
147,95,60952,5,0,0:0:0:0:
326,229,61159,5,8,0:0:0:0:
308,204,61366,5,8,0:0:0:0:
159,96,61573,5,0,0:0:0:0:
336,229,61780,5,8,0:0:0:0:
321,234,61986,5,8,0:0:0:0:
119,43,62193,5,0,0:0:0:0:
346,256,62400,5,8,0:0:0:0:
131,117,62504,5,8,0:0:0:0:
353,270,62607,5,8,0:0:0:0:
365,251,62814,5,8,0:0:0:0:
256,192,63435,5,8,0:0:0:0:
321,246,63642,5,8,0:0:0:0:
145,104,63849,5,8,0:0:0:0:
359,234,64055,5,8,0:0:0:0:
145,104,64262,5,0,0:0:0:0:
130,75,64469,5,8,0:0:0:0:
130,75,64676,5,0,0:0:0:0:
295,219,64883,5,8,0:0:0:0:
312,254,65090,5,8,0:0:0:0:
335,264,65297,5,8,0:0:0:0:
81,60,65504,5,0,0:0:0:0:
321,282,65711,5,8,0:0:0:0:
303,266,65814,5,8,0:0:0:0:
137,73,65917,5,8,0:0:0:0:
150,261,66124,5,4,0:0:0:0:
113,69,67572,5,0,0:0:0:0:
147,266,67780,5,4,0:0:0:0:
357,237,68193,5,8,0:0:0:0:
137,93,68400,5,0,0:0:0:0:
137,93,68607,5,0,0:0:0:0:
417,281,69021,5,8,0:0:0:0:
141,89,69435,5,0,0:0:0:0:
385,305,69642,5,8,0:0:0:0:
373,249,69848,5,8,0:0:0:0:
373,289,70055,5,8,0:0:0:0:
97,85,70262,5,0,0:0:0:0:
385,265,70676,5,8,0:0:0:0:
329,265,71090,5,8,0:0:0:0:
337,289,71297,5,8,0:0:0:0:
141,101,71504,5,0,0:0:0:0:
137,81,71711,5,0,0:0:0:0:
353,237,71917,5,8,0:0:0:0:
161,113,72331,5,0,0:0:0:0:
373,285,72745,5,8,0:0:0:0:
256,192,73159,5,8,0:0:0:0:
393,265,73366,5,8,0:0:0:0:
305,225,73573,5,8,0:0:0:0:
137,93,73780,5,0,0:0:0:0:
189,113,73986,5,8,0:0:0:0:
377,293,74400,5,8,0:0:0:0:
161,81,74607,5,0,0:0:0:0:
161,81,74814,5,0,0:0:0:0:
381,305,75021,5,8,0:0:0:0:
381,305,75228,5,8,0:0:0:0:
341,245,75642,5,8,0:0:0:0:
121,77,75848,5,0,0:0:0:0:
341,245,76055,5,8,0:0:0:0:
165,101,76469,5,0,0:0:0:0:
165,101,76676,5,0,0:0:0:0:
361,257,76883,5,8,0:0:0:0:
373,253,77297,5,8,0:0:0:0:
125,113,77504,5,0,0:0:0:0:
341,229,77711,5,8,0:0:0:0:
341,229,77917,5,8,0:0:0:0:
417,293,78124,5,8,0:0:0:0:
137,129,78331,5,0,0:0:0:0:
377,237,78538,5,8,0:0:0:0:
256,192,79159,5,0,0:0:0:0:
345,249,79366,5,8,0:0:0:0:
73,57,79469,5,8,0:0:0:0:
73,57,79573,5,8,0:0:0:0:
73,57,79780,5,8,0:0:0:0:
313,233,79986,5,8,0:0:0:0:
141,81,80193,5,0,0:0:0:0:
305,209,80297,5,0,0:0:0:0:
109,77,80400,5,0,0:0:0:0:
321,225,80607,5,8,0:0:0:0:
129,257,81021,5,4,0:0:0:0:
145,101,81848,5,0,0:0:0:0:
145,101,82055,5,0,0:0:0:0:
333,265,82262,5,8,0:0:0:0:
129,93,82676,5,0,0:0:0:0:
441,321,83090,5,8,0:0:0:0:
169,117,83504,5,0,0:0:0:0:
389,281,83917,5,8,0:0:0:0:
413,289,84124,5,8,0:0:0:0:
117,113,84331,5,0,0:0:0:0:
401,281,84745,5,8,0:0:0:0:
333,245,85573,5,8,0:0:0:0:
153,97,85780,5,0,0:0:0:0:
153,97,85986,5,0,0:0:0:0:
333,245,86400,5,8,0:0:0:0:
121,97,86814,5,0,0:0:0:0:
365,277,87228,5,8,0:0:0:0:
105,57,87435,5,8,0:0:0:0:
169,245,87642,5,4,0:0:0:0:
369,253,87848,5,8,0:0:0:0:
133,85,88055,5,0,0:0:0:0:
133,85,88262,5,0,0:0:0:0:
337,257,88469,5,8,0:0:0:0:
369,253,88883,5,8,0:0:0:0:
369,253,89090,5,8,0:0:0:0:
145,89,89297,5,0,0:0:0:0:
329,249,89711,5,8,0:0:0:0:
181,113,89917,5,0,0:0:0:0:
181,113,90124,5,0,0:0:0:0:
337,249,90331,5,8,0:0:0:0:
173,73,90538,5,0,0:0:0:0:
169,109,90952,5,0,0:0:0:0:
329,237,91159,5,8,0:0:0:0:
121,49,91366,5,0,0:0:0:0:
141,81,91573,5,0,0:0:0:0:
333,281,91780,5,8,0:0:0:0:
349,265,92193,5,8,0:0:0:0:
141,113,92607,5,0,0:0:0:0:
345,225,92814,5,8,0:0:0:0:
345,209,93021,5,8,0:0:0:0:
161,73,93228,5,0,0:0:0:0:
353,201,93435,5,8,0:0:0:0:
177,85,93848,5,0,0:0:0:0:
401,241,94262,5,8,0:0:0:0:
125,81,94469,5,0,0:0:0:0:
157,101,94676,5,0,0:0:0:0:
169,105,94883,5,0,0:0:0:0:
337,233,95090,5,8,0:0:0:0:
165,69,95504,5,0,0:0:0:0:
377,245,95711,5,8,0:0:0:0:
377,245,95917,5,8,0:0:0:0:
137,89,96538,5,0,0:0:0:0:
349,241,96745,5,8,0:0:0:0:
153,85,96952,5,0,0:0:0:0:
153,85,97159,5,0,0:0:0:0:
373,245,97366,5,8,0:0:0:0:
157,117,97573,5,0,0:0:0:0:
365,233,97986,5,8,0:0:0:0:
165,73,98193,5,0,0:0:0:0:
317,233,98400,5,8,0:0:0:0:
357,233,98814,5,8,0:0:0:0:
157,97,99021,5,0,0:0:0:0:
377,257,99228,5,8,0:0:0:0:
361,241,99331,5,8,0:0:0:0:
141,97,99435,5,8,0:0:0:0:
133,93,99642,5,0,0:0:0:0:
381,237,99848,5,8,0:0:0:0:
169,89,100055,5,0,0:0:0:0:
169,89,100262,5,0,0:0:0:0:
329,209,100469,5,8,0:0:0:0:
181,105,100883,5,0,0:0:0:0:
256,192,101090,5,0,0:0:0:0:
345,245,101297,5,8,0:0:0:0:
153,113,101504,5,0,0:0:0:0:
153,113,101711,5,0,0:0:0:0:
329,245,102124,5,8,0:0:0:0:
337,257,102331,5,8,0:0:0:0:
145,97,102538,5,0,0:0:0:0:
145,97,102745,5,0,0:0:0:0:
361,225,102952,5,8,0:0:0:0:
256,192,103366,1,0,0:0:0:0:
129,89,103573,5,0,0:0:0:0:
381,261,103780,5,8,0:0:0:0:
329,225,103986,5,8,0:0:0:0:
85,117,104193,5,0,0:0:0:0:
365,241,104607,5,8,0:0:0:0:
153,97,104814,5,0,0:0:0:0:
357,261,105021,5,8,0:0:0:0:
153,117,105228,5,0,0:0:0:0:
345,249,105435,5,8,0:0:0:0:
349,233,105848,5,8,0:0:0:0:
173,61,106055,5,0,0:0:0:0:
401,265,106262,5,8,0:0:0:0:
161,97,106676,5,0,0:0:0:0:
157,93,106883,5,0,0:0:0:0:
417,265,107090,5,8,0:0:0:0:
145,85,107504,5,0,0:0:0:0:
137,81,107607,5,0,0:0:0:0:
297,209,107917,5,8,0:0:0:0:
181,101,108331,5,0,0:0:0:0:
369,241,108745,5,8,0:0:0:0:
189,121,108952,5,0,0:0:0:0:
393,233,109159,5,0,0:0:0:0:
137,101,109262,5,0,0:0:0:0:
201,141,109573,5,8,0:0:0:0:
177,81,109986,5,0,0:0:0:0:
385,249,110193,5,8,0:0:0:0:
109,41,110400,5,0,0:0:0:0:
397,265,110814,5,0,0:0:0:0:
145,81,110917,5,0,0:0:0:0:
313,209,111228,5,8,0:0:0:0:
373,289,111642,5,8,0:0:0:0:
145,89,112055,5,0,0:0:0:0:
157,97,112262,5,0,0:0:0:0:
321,205,112469,5,8,0:0:0:0:
149,81,112573,5,8,0:0:0:0:
321,205,112676,5,8,0:0:0:0:
329,245,112883,5,8,0:0:0:0:
317,229,113297,5,8,0:0:0:0:
149,89,113504,5,0,0:0:0:0:
345,237,113711,5,8,0:0:0:0:
256,192,113917,1,8,0:0:0:0:
149,97,114124,5,4,0:0:0:0:
129,89,114331,5,0,0:0:0:0:
333,281,114538,5,8,0:0:0:0:
73,73,114952,5,0,0:0:0:0:
129,97,115159,5,0,0:0:0:0:
257,237,115366,5,8,0:0:0:0:
141,133,115780,5,0,0:0:0:0:
141,133,115986,5,0,0:0:0:0:
333,225,116193,5,8,0:0:0:0:
273,217,116400,5,8,0:0:0:0:
277,225,116504,5,8,0:0:0:0:
113,109,116607,5,8,0:0:0:0:
345,269,116814,5,8,0:0:0:0:
141,105,117021,5,0,0:0:0:0:
141,121,117435,5,0,0:0:0:0:
133,105,117642,5,0,0:0:0:0:
305,225,117848,5,8,0:0:0:0:
129,113,118262,5,0,0:0:0:0:
117,113,118469,5,0,0:0:0:0:
345,253,118676,5,8,0:0:0:0:
33,69,119090,5,0,0:0:0:0:
149,97,119297,5,8,0:0:0:0:
341,257,119504,5,8,0:0:0:0:
345,233,119711,5,0,0:0:0:0:
245,201,119917,5,8,0:0:0:0:
165,117,120331,5,8,0:0:0:0:
125,85,120745,5,0,0:0:0:0:
145,89,120952,5,0,0:0:0:0:
361,241,121159,5,8,0:0:0:0:
189,109,121573,5,8,0:0:0:0:
333,225,121780,5,8,0:0:0:0:
185,109,121986,5,0,0:0:0:0:
169,85,122400,5,0,0:0:0:0:
333,225,122607,5,8,0:0:0:0:
161,113,122814,5,0,0:0:0:0:
373,253,123021,5,8,0:0:0:0:
169,81,123228,5,0,0:0:0:0:
129,97,123435,5,0,0:0:0:0:
349,273,123642,5,8,0:0:0:0:
149,101,124055,5,0,0:0:0:0:
145,77,124262,5,8,0:0:0:0:
345,281,124469,5,8,0:0:0:0:
149,101,124883,5,0,0:0:0:0:
309,225,125090,5,8,0:0:0:0:
309,225,125297,5,8,0:0:0:0:
161,49,125711,5,0,0:0:0:0:
353,229,125917,5,8,0:0:0:0:
329,245,126124,5,8,0:0:0:0:
157,105,126331,5,0,0:0:0:0:
361,249,126538,5,8,0:0:0:0:
353,245,126952,5,8,0:0:0:0:
369,261,127159,5,8,0:0:0:0:
128,256,127366,5,4,0:0:0:0:
256,192,127676,5,8,0:0:0:0:
320,233,127780,5,8,0:0:0:0:
147,95,127986,5,0,0:0:0:0:
326,229,128193,5,8,0:0:0:0:
308,204,128400,5,8,0:0:0:0:
159,96,128607,5,0,0:0:0:0:
336,229,128814,5,8,0:0:0:0:
321,234,129021,5,8,0:0:0:0:
119,43,129228,5,0,0:0:0:0:
346,256,129435,5,8,0:0:0:0:
256,192,129642,5,0,0:0:0:0:
365,251,129848,5,8,0:0:0:0:
256,192,130469,5,8,0:0:0:0:
321,246,130676,5,8,0:0:0:0:
145,104,130883,5,0,0:0:0:0:
145,104,131090,5,0,0:0:0:0:
359,234,131297,5,8,0:0:0:0:
130,75,131504,5,0,0:0:0:0:
130,75,131711,5,0,0:0:0:0:
295,219,131917,5,8,0:0:0:0:
372,262,132124,5,8,0:0:0:0:
119,86,132331,5,0,0:0:0:0:
256,191,132642,5,8,0:0:0:0:
321,282,132745,5,8,0:0:0:0:
159,102,132952,5,0,0:0:0:0:
140,67,133159,5,0,0:0:0:0:
378,57,133573,5,8,0:0:0:0:
371,255,133780,5,8,0:0:0:0:
106,46,133986,5,0,0:0:0:0:
145,77,134297,5,8,0:0:0:0:
372,272,134400,5,8,0:0:0:0:
336,218,134607,5,0,0:0:0:0:
154,79,134814,5,8,0:0:0:0:
393,271,135021,5,8,0:0:0:0:
135,71,135228,5,0,0:0:0:0:
354,230,135435,5,8,0:0:0:0:
344,201,135642,5,8,0:0:0:0:
156,83,135848,5,0,0:0:0:0:
310,213,136055,5,8,0:0:0:0:
301,237,136159,5,8,0:0:0:0:
155,104,136262,5,8,0:0:0:0:
92,42,136469,5,0,0:0:0:0:
256,192,137090,5,8,0:0:0:0:
347,262,137297,5,8,0:0:0:0:
135,40,137504,5,8,0:0:0:0:
167,96,137711,5,8,0:0:0:0:
170,97,137917,5,0,0:0:0:0:
321,227,138124,5,8,0:0:0:0:
128,71,138331,5,0,0:0:0:0:
132,78,138538,5,0,0:0:0:0:
306,217,138745,5,8,0:0:0:0:
224,192,138952,1,8,0:0:0:0:
224,192,139055,1,8,0:0:0:0:
224,192,139158,1,8,0:0:0:0:
341,242,139365,5,8,0:0:0:0:
256,192,139469,5,8,0:0:0:0:
256,192,139572,5,8,0:0:0:0:
170,107,139780,5,4,0:0:0:0:
308,233,140193,5,8,0:0:0:0:
113,81,140400,5,0,0:0:0:0:
289,197,140607,5,8,0:0:0:0:
353,257,141021,5,8,0:0:0:0:
353,257,141228,5,8,0:0:0:0:
161,113,141435,5,0,0:0:0:0:
353,265,141642,5,8,0:0:0:0:
353,265,141848,5,8,0:0:0:0:
141,109,142055,5,0,0:0:0:0:
353,265,142262,5,8,0:0:0:0:
256,192,142469,1,8,0:0:0:0:
189,121,142676,5,0,0:0:0:0:
141,109,143090,5,0,0:0:0:0:
301,209,143711,5,8,0:0:0:0:
301,209,143917,5,8,0:0:0:0:
125,113,144331,5,0,0:0:0:0:
329,241,144745,5,8,0:0:0:0:
141,97,144952,5,0,0:0:0:0:
141,97,145159,5,0,0:0:0:0:
297,233,145366,5,8,0:0:0:0:
297,233,145573,5,8,0:0:0:0:
165,81,145986,5,0,0:0:0:0:
325,253,146400,5,8,0:0:0:0:
145,65,146607,5,0,0:0:0:0:
153,69,146814,5,0,0:0:0:0:
393,265,147021,5,8,0:0:0:0:
369,253,147228,5,8,0:0:0:0:
349,241,147642,5,8,0:0:0:0:
169,109,147848,5,0,0:0:0:0:
337,253,148055,5,8,0:0:0:0:
361,257,148262,5,8,0:0:0:0:
201,129,148469,5,0,0:0:0:0:
201,129,148676,5,0,0:0:0:0:
313,217,148883,5,8,0:0:0:0:
345,241,149297,5,8,0:0:0:0:
345,241,149504,5,8,0:0:0:0:
345,241,149711,5,8,0:0:0:0:
161,81,149917,5,0,0:0:0:0:
349,241,150124,5,8,0:0:0:0:
349,241,150331,5,8,0:0:0:0:
133,97,150538,5,0,0:0:0:0:
256,192,150952,1,8,0:0:0:0:
173,85,151159,5,8,0:0:0:0:
137,85,151366,5,8,0:0:0:0:
256,192,151469,1,8,0:0:0:0:
256,192,151573,1,8,0:0:0:0:
256,192,151780,1,0,0:0:0:0:
256,192,151883,1,0,0:0:0:0:
169,125,151986,1,0,0:0:0:0:
321,241,152193,1,8,0:0:0:0:
169,81,152400,1,0,0:0:0:0:
265,173,152607,1,8,0:0:0:0:
149,97,153021,5,4,0:0:0:0:
129,89,153228,5,0,0:0:0:0:
333,281,153435,5,8,0:0:0:0:
73,73,153848,5,0,0:0:0:0:
129,97,154055,5,0,0:0:0:0:
257,237,154262,5,8,0:0:0:0:
141,133,154676,5,0,0:0:0:0:
141,133,154883,5,0,0:0:0:0:
333,225,155090,5,8,0:0:0:0:
273,217,155297,5,8,0:0:0:0:
277,225,155400,5,8,0:0:0:0:
113,109,155504,5,8,0:0:0:0:
345,269,155711,5,8,0:0:0:0:
141,105,155917,5,0,0:0:0:0:
141,121,156331,5,0,0:0:0:0:
133,105,156538,5,0,0:0:0:0:
305,225,156745,5,8,0:0:0:0:
129,113,157159,5,0,0:0:0:0:
117,113,157366,5,0,0:0:0:0:
345,253,157573,5,8,0:0:0:0:
33,69,157986,5,0,0:0:0:0:
149,97,158193,5,8,0:0:0:0:
341,257,158400,5,8,0:0:0:0:
345,233,158607,5,0,0:0:0:0:
245,201,158814,5,8,0:0:0:0:
165,117,159228,5,8,0:0:0:0:
125,85,159642,5,0,0:0:0:0:
145,89,159848,5,0,0:0:0:0:
361,241,160055,5,8,0:0:0:0:
189,109,160469,5,8,0:0:0:0:
333,225,160676,5,8,0:0:0:0:
185,109,160883,5,0,0:0:0:0:
169,85,161297,5,0,0:0:0:0:
333,225,161504,5,8,0:0:0:0:
161,113,161711,5,0,0:0:0:0:
373,253,161917,5,8,0:0:0:0:
169,81,162124,5,0,0:0:0:0:
129,97,162331,5,0,0:0:0:0:
349,273,162538,5,8,0:0:0:0:
149,101,162952,5,0,0:0:0:0:
145,77,163159,5,8,0:0:0:0:
345,281,163366,5,8,0:0:0:0:
149,101,163780,5,0,0:0:0:0:
309,225,163986,5,8,0:0:0:0:
309,225,164193,5,8,0:0:0:0:
161,49,164607,5,0,0:0:0:0:
353,229,164814,5,8,0:0:0:0:
329,245,165021,5,8,0:0:0:0:
157,105,165228,5,0,0:0:0:0:
361,249,165435,5,8,0:0:0:0:
128,256,165848,5,0,0:0:0:0:
353,245,166262,5,12,0:0:0:0:
256,192,166469,12,0,171228,0:0:0:0:
413,273,172469,5,8,0:0:0:0:
161,113,172883,5,0,0:0:0:0:
153,97,173297,5,0,0:0:0:0:
69,73,173711,5,8,0:0:0:0:
381,241,173814,5,8,0:0:0:0:
145,109,174021,5,8,0:0:0:0:
345,237,174124,5,8,0:0:0:0:
117,101,174538,5,0,0:0:0:0:
361,225,174745,5,8,0:0:0:0:
105,69,174952,5,0,0:0:0:0:
137,113,175366,5,8,0:0:0:0:
353,265,175469,5,8,0:0:0:0:
153,109,175780,5,0,0:0:0:0:
345,273,175986,5,8,0:0:0:0:
145,117,176193,5,0,0:0:0:0:
349,249,176607,5,8,0:0:0:0:
349,249,176814,5,8,0:0:0:0:
349,249,177021,5,8,0:0:0:0:
349,249,177435,5,8,0:0:0:0:
141,105,177642,5,0,0:0:0:0:
337,257,177848,5,8,0:0:0:0:
337,257,177952,5,8,0:0:0:0:
337,257,178055,5,8,0:0:0:0:
365,241,178262,5,8,0:0:0:0:
117,73,178469,5,0,0:0:0:0:
117,73,178573,5,0,0:0:0:0:
117,73,178676,5,0,0:0:0:0:
121,81,178883,5,0,0:0:0:0:
273,201,179090,5,8,0:0:0:0:
141,265,179504,5,4,0:0:0:0:
137,49,179711,5,0,0:0:0:0:
337,217,179917,5,8,0:0:0:0:
169,121,180331,5,0,0:0:0:0:
373,261,180538,5,8,0:0:0:0:
89,89,180745,5,0,0:0:0:0:
133,105,181159,5,0,0:0:0:0:
149,121,181366,5,0,0:0:0:0:
377,253,181573,5,8,0:0:0:0:
289,225,182193,5,8,0:0:0:0:
165,121,182400,5,0,0:0:0:0:
101,89,182814,5,0,0:0:0:0:
353,221,183021,5,8,0:0:0:0:
353,221,183228,5,8,0:0:0:0:
321,245,183435,5,8,0:0:0:0:
201,129,183642,5,0,0:0:0:0:
153,89,184055,5,0,0:0:0:0:
353,225,184262,5,8,0:0:0:0:
129,73,184469,5,0,0:0:0:0:
221,117,184883,5,0,0:0:0:0:
329,249,185090,5,8,0:0:0:0:
193,69,185297,5,0,0:0:0:0:
193,77,185504,5,0,0:0:0:0:
353,241,185711,5,8,0:0:0:0:
256,192,185814,1,8,0:0:0:0:
345,233,185917,5,8,0:0:0:0:
133,89,186124,5,0,0:0:0:0:
337,217,186538,5,8,0:0:0:0:
353,257,186745,5,8,0:0:0:0:
169,121,186952,5,0,0:0:0:0:
373,261,187159,5,8,0:0:0:0:
89,89,187366,5,0,0:0:0:0:
133,105,187780,5,0,0:0:0:0:
377,253,187986,5,8,0:0:0:0:
149,121,188193,5,0,0:0:0:0:
289,225,188814,5,8,0:0:0:0:
165,121,189021,5,0,0:0:0:0:
101,89,189435,5,0,0:0:0:0:
353,221,189642,5,8,0:0:0:0:
353,221,189848,5,8,0:0:0:0:
321,245,190055,5,8,0:0:0:0:
201,129,190262,5,0,0:0:0:0:
153,89,190676,5,0,0:0:0:0:
353,225,190883,5,8,0:0:0:0:
129,73,191090,5,0,0:0:0:0:
256,192,191297,5,8,0:0:0:0:
337,245,191504,5,12,0:0:0:0:
329,249,191917,5,8,0:0:0:0:
193,77,192124,5,0,0:0:0:0:
353,241,192331,5,8,0:0:0:0:
353,241,192435,5,8,0:0:0:0:
345,233,192538,5,8,0:0:0:0:
137,253,192745,5,4,0:0:0:0:
256,192,192952,12,0,194193,0:0:0:0:
249,177,194400,5,0,0:0:0:0:
249,177,194607,5,0,0:0:0:0:
249,177,195642,5,0,0:0:0:0:
249,177,196055,5,0,0:0:0:0:
249,177,196262,5,0,0:0:0:0:
249,177,196883,5,0,0:0:0:0:
249,177,197297,5,0,0:0:0:0:
249,177,197711,5,0,0:0:0:0:
249,177,197917,5,0,0:0:0:0:
249,177,199366,5,0,0:0:0:0:
249,177,199573,5,0,0:0:0:0:
256,192,199986,5,0,0:0:0:0:
256,192,200400,5,0,0:0:0:0:
256,192,201021,5,0,0:0:0:0:
249,177,201228,5,0,0:0:0:0:
249,177,201848,5,0,0:0:0:0:
249,177,202676,5,0,0:0:0:0:
249,177,202883,5,0,0:0:0:0:
249,177,203297,5,0,0:0:0:0:
249,177,203504,5,0,0:0:0:0:
249,177,203917,5,0,0:0:0:0:
249,177,204124,5,0,0:0:0:0:
256,192,204331,12,0,205986,0:0:0:0:
341,261,207228,5,8,0:0:0:0:
341,261,207331,5,8,0:0:0:0:
341,261,207435,5,8,0:0:0:0:
192,96,207642,5,0,0:0:0:0:
267,183,207848,5,0,0:0:0:0:
356,236,208055,5,8,0:0:0:0:
164,104,208262,5,0,0:0:0:0:
164,104,208469,5,0,0:0:0:0:
340,236,208883,5,8,0:0:0:0:
348,248,209090,5,8,0:0:0:0:
156,88,209297,5,0,0:0:0:0:
156,88,209504,5,0,0:0:0:0:
372,216,209711,5,8,0:0:0:0:
140,80,210124,5,0,0:0:0:0:
392,252,210538,5,8,0:0:0:0:
340,216,210745,5,8,0:0:0:0:
96,108,210952,5,0,0:0:0:0:
376,232,211366,5,8,0:0:0:0:
164,88,211573,5,0,0:0:0:0:
368,252,211780,5,8,0:0:0:0:
164,108,211986,5,0,0:0:0:0:
356,240,212193,5,8,0:0:0:0:
360,224,212607,5,8,0:0:0:0:
184,52,212814,5,0,0:0:0:0:
412,256,213021,5,8,0:0:0:0:
172,88,213435,5,0,0:0:0:0:
168,84,213642,5,0,0:0:0:0:
428,256,213848,5,8,0:0:0:0:
156,76,214262,5,0,0:0:0:0:
148,72,214366,5,0,0:0:0:0:
308,200,214676,5,8,0:0:0:0:
192,92,215090,5,0,0:0:0:0:
380,232,215504,5,8,0:0:0:0:
200,112,215711,5,0,0:0:0:0:
404,224,215917,5,0,0:0:0:0:
148,92,216021,5,0,0:0:0:0:
212,132,216331,5,8,0:0:0:0:
188,72,216745,5,0,0:0:0:0:
396,240,216952,5,8,0:0:0:0:
120,32,217159,5,0,0:0:0:0:
408,256,217573,5,0,0:0:0:0:
156,72,217676,5,0,0:0:0:0:
324,200,217986,5,8,0:0:0:0:
384,280,218607,5,8,0:0:0:0:
156,80,218814,5,0,0:0:0:0:
168,88,219021,5,0,0:0:0:0:
332,196,219228,5,8,0:0:0:0:
160,72,219331,5,8,0:0:0:0:
332,196,219435,5,8,0:0:0:0:
340,236,219642,5,8,0:0:0:0:
328,220,220055,5,8,0:0:0:0:
160,80,220262,5,0,0:0:0:0:
356,228,220469,5,8,0:0:0:0:
256,192,220676,1,8,0:0:0:0:
160,88,220883,5,4,0:0:0:0:
140,80,221090,5,0,0:0:0:0:
344,272,221297,5,8,0:0:0:0:
84,64,221711,5,0,0:0:0:0:
140,88,221917,5,0,0:0:0:0:
268,228,222124,5,8,0:0:0:0:
152,124,222538,5,0,0:0:0:0:
152,124,222745,5,0,0:0:0:0:
344,216,222952,5,8,0:0:0:0:
284,208,223159,5,8,0:0:0:0:
288,216,223262,5,8,0:0:0:0:
124,100,223366,5,8,0:0:0:0:
356,260,223573,5,8,0:0:0:0:
152,96,223780,5,0,0:0:0:0:
152,112,224193,5,0,0:0:0:0:
144,96,224400,5,0,0:0:0:0:
316,216,224607,5,8,0:0:0:0:
140,104,225021,5,0,0:0:0:0:
128,104,225228,5,0,0:0:0:0:
356,244,225435,5,8,0:0:0:0:
44,60,225848,5,0,0:0:0:0:
160,88,226055,5,8,0:0:0:0:
352,248,226262,5,8,0:0:0:0:
356,224,226469,5,0,0:0:0:0:
256,192,226676,5,8,0:0:0:0:
176,108,227090,5,8,0:0:0:0:
136,76,227504,5,0,0:0:0:0:
156,80,227711,5,0,0:0:0:0:
372,232,227917,5,8,0:0:0:0:
200,100,228331,5,8,0:0:0:0:
344,216,228538,5,8,0:0:0:0:
196,100,228745,5,0,0:0:0:0:
180,76,229159,5,0,0:0:0:0:
344,216,229366,5,8,0:0:0:0:
172,104,229573,5,0,0:0:0:0:
384,244,229780,5,8,0:0:0:0:
180,72,229986,5,0,0:0:0:0:
140,88,230193,5,0,0:0:0:0:
360,264,230400,5,8,0:0:0:0:
160,92,230814,5,0,0:0:0:0:
156,68,231021,5,8,0:0:0:0:
356,272,231228,5,8,0:0:0:0:
160,92,231642,5,0,0:0:0:0:
320,216,231848,5,8,0:0:0:0:
320,216,232055,5,8,0:0:0:0:
172,40,232469,5,0,0:0:0:0:
364,220,232676,5,8,0:0:0:0:
340,236,232883,5,8,0:0:0:0:
168,96,233090,5,0,0:0:0:0:
372,240,233297,5,8,0:0:0:0:
364,236,233711,5,8,0:0:0:0:
380,252,233917,5,8,0:0:0:0:
128,256,234124,5,4,0:0:0:0:
256,192,234435,5,8,0:0:0:0:
320,233,234538,5,8,0:0:0:0:
147,95,234745,5,0,0:0:0:0:
326,229,234952,5,8,0:0:0:0:
308,204,235159,5,8,0:0:0:0:
159,96,235366,5,0,0:0:0:0:
336,229,235573,5,8,0:0:0:0:
321,234,235780,5,8,0:0:0:0:
119,43,235986,5,0,0:0:0:0:
346,256,236193,5,8,0:0:0:0:
256,192,236400,5,0,0:0:0:0:
365,251,236607,5,8,0:0:0:0:
256,192,237228,5,8,0:0:0:0:
321,246,237435,5,8,0:0:0:0:
145,104,237642,5,0,0:0:0:0:
145,104,237848,5,0,0:0:0:0:
359,234,238055,5,8,0:0:0:0:
130,75,238262,5,0,0:0:0:0:
130,75,238469,5,0,0:0:0:0:
295,219,238676,5,8,0:0:0:0:
372,262,238883,5,8,0:0:0:0:
119,86,239090,5,0,0:0:0:0:
256,192,239400,5,8,0:0:0:0:
321,282,239504,5,8,0:0:0:0:
159,102,239711,5,0,0:0:0:0:
140,67,239917,5,0,0:0:0:0:
256,192,240124,5,0,0:0:0:0:
378,57,240331,5,8,0:0:0:0:
371,255,240538,5,8,0:0:0:0:
106,46,240745,5,0,0:0:0:0:
145,77,241055,5,8,0:0:0:0:
372,272,241159,5,8,0:0:0:0:
336,218,241366,5,0,0:0:0:0:
154,79,241573,5,8,0:0:0:0:
393,271,241780,5,8,0:0:0:0:
135,71,241986,5,0,0:0:0:0:
354,230,242193,5,8,0:0:0:0:
344,201,242400,5,8,0:0:0:0:
156,83,242607,5,0,0:0:0:0:
310,213,242814,5,8,0:0:0:0:
301,237,242917,5,8,0:0:0:0:
155,104,243021,5,8,0:0:0:0:
92,42,243228,5,0,0:0:0:0:
256,192,243848,5,8,0:0:0:0:
347,262,244055,5,8,0:0:0:0:
135,40,244262,5,8,0:0:0:0:
167,96,244469,5,8,0:0:0:0:
170,97,244676,5,0,0:0:0:0:
321,227,244883,5,8,0:0:0:0:
128,71,245090,5,0,0:0:0:0:
132,78,245297,5,0,0:0:0:0:
306,217,245504,5,8,0:0:0:0:
143,87,245711,5,0,0:0:0:0:
109,66,245917,5,0,0:0:0:0:
341,242,246124,5,8,0:0:0:0:
256,192,246228,5,8,0:0:0:0:
256,192,246331,5,8,0:0:0:0:
170,107,246538,5,4,0:0:0:0:
140,68,246952,5,8,0:0:0:0:
342,233,247159,5,8,0:0:0:0:
148,98,247366,5,0,0:0:0:0:
121,67,247676,5,8,0:0:0:0:
320,233,247780,5,8,0:0:0:0:
147,95,247986,5,0,0:0:0:0:
326,229,248193,5,8,0:0:0:0:
308,204,248400,5,8,0:0:0:0:
159,96,248607,5,0,0:0:0:0:
336,229,248814,5,8,0:0:0:0:
321,234,249021,5,8,0:0:0:0:
119,43,249228,5,0,0:0:0:0:
346,256,249435,5,8,0:0:0:0:
353,270,249642,5,8,0:0:0:0:
365,251,249848,5,8,0:0:0:0:
256,192,250469,5,8,0:0:0:0:
321,246,250676,5,8,0:0:0:0:
145,104,250883,5,0,0:0:0:0:
145,104,251090,5,0,0:0:0:0:
359,234,251297,5,8,0:0:0:0:
130,75,251504,5,0,0:0:0:0:
130,75,251711,5,0,0:0:0:0:
372,262,251917,5,8,0:0:0:0:
224,192,252124,5,8,0:0:0:0:
119,86,252331,5,0,0:0:0:0:
119,86,252642,5,8,0:0:0:0:
321,282,252745,5,8,0:0:0:0:
159,102,252952,5,0,0:0:0:0:
140,67,253159,5,0,0:0:0:0:
384,64,253573,5,12,0:0:0:0:
371,255,253780,5,8,0:0:0:0:
106,46,253986,5,0,0:0:0:0:
121,67,254297,5,8,0:0:0:0:
320,233,254400,5,8,0:0:0:0:
147,95,254607,5,0,0:0:0:0:
326,229,254814,5,8,0:0:0:0:
308,204,255021,5,8,0:0:0:0:
159,96,255228,5,0,0:0:0:0:
336,229,255435,5,8,0:0:0:0:
321,234,255642,5,8,0:0:0:0:
119,43,255848,5,0,0:0:0:0:
346,256,256055,5,8,0:0:0:0:
131,117,256159,5,8,0:0:0:0:
353,270,256262,5,8,0:0:0:0:
365,251,256469,5,8,0:0:0:0:
256,192,257090,5,8,0:0:0:0:
321,246,257297,5,8,0:0:0:0:
145,104,257504,5,8,0:0:0:0:
359,234,257711,5,8,0:0:0:0:
145,104,257917,5,0,0:0:0:0:
130,75,258124,5,8,0:0:0:0:
130,75,258331,5,0,0:0:0:0:
295,219,258538,5,8,0:0:0:0:
312,254,258745,5,8,0:0:0:0:
335,264,258952,5,8,0:0:0:0:
256,192,259055,1,8,0:0:0:0:
256,192,259159,1,8,0:0:0:0:
256,192,259366,1,0,0:0:0:0:
256,192,259469,1,0,0:0:0:0:
256,192,259573,1,0,0:0:0:0:
150,261,259780,5,4,0:0:0:0:
