osu file format v14

[General]
AudioFilename: audio.mp3
AudioLeadIn: 0
PreviewTime: 114124
Countdown: 0
SampleSet: Normal
StackLeniency: 0.7
Mode: 1
LetterboxInBreaks: 0
WidescreenStoryboard: 0

[Editor]
Bookmarks: 67780,81021,87642,100883,172883,179504,192745,207642
DistanceSpacing: 0.1
BeatDivisor: 8
GridSize: 32
TimelineZoom: 3.299999

[Metadata]
Title:Epona
TitleUnicode:Epona
Artist:Eluveitie
ArtistUnicode:Eluveitie
Creator:Raiden
Version:Inner Oni
Source:
Tags:grimbow EVOCATION II - PANTHEON folk metal gallic gaulish gaul
BeatmapID:1360350
BeatmapSetID:641546

[Difficulty]
HPDrainRate:5
CircleSize:2
OverallDifficulty:6
ApproachRate:10
SliderMultiplier:1.4
SliderTickRate:1

[Events]
//Background and Video events
0,0,"ddyv5bs-e9fc1fe7-bb1b-4e59-942d-8bad29b5f8dc.jpg",0,-50
//Break Periods
//Storyboard Layer 0 (Background)
//Storyboard Layer 1 (Fail)
//Storyboard Layer 2 (Pass)
//Storyboard Layer 3 (Foreground)
//Storyboard Layer 4 (Overlay)
//Storyboard Sound Samples

[TimingPoints]
33849,413.793103448276,4,1,0,55,1,0
37159,-100,4,1,0,55,0,0
40055,-100,4,1,0,85,0,0
66952,413.793103448276,4,1,0,85,1,8
67572,-111.111111111111,4,1,0,85,0,0
67779,413.793103448276,4,1,0,85,1,8
67780,413.793103448276,4,1,0,85,1,0
67780,-111.111111111111,4,1,0,85,0,0
100262,-108.695652173913,4,1,0,85,0,0
100366,-107.52688172043,4,1,0,85,0,0
100469,-105.263157894737,4,1,0,85,0,0
100573,-104.166666666667,4,1,0,85,0,0
100676,-103.092783505155,4,1,0,85,0,0
100780,-102.040816326531,4,1,0,85,0,0
100883,-100,4,1,0,85,0,0
113711,-98.0392156862745,4,1,0,85,0,0
113814,-96.1538461538461,4,1,0,85,0,0
113917,-94.3396226415094,4,1,0,85,0,0
114021,-92.5925925925926,4,1,0,85,0,0
114073,-100,4,1,0,100,0,0
114124,-90.9090909090909,4,1,0,100,0,1
126538,-91.743119266055,4,1,0,100,0,1
126642,-92.5925925925926,4,1,0,100,0,1
126745,-93.4579439252336,4,1,0,100,0,1
126848,-94.3396226415094,4,1,0,100,0,1
126952,-96.1538461538461,4,1,0,100,0,1
127055,-97.0873786407767,4,1,0,100,0,1
127159,-98.0392156862745,4,1,0,100,0,1
127262,-99.009900990099,4,1,0,100,0,1
127366,-100,4,1,0,85,0,0
138952,413.793103448276,4,1,0,85,1,8
138952,-100,4,1,0,85,0,8
139053,-101.252595863426,4,1,0,85,0,8
139157,-102.536969704427,4,1,0,85,0,8
139260,-103.854346356322,4,1,0,85,0,8
139364,-105.206125100603,4,1,0,85,0,8
139432,-106.126919305336,4,1,0,85,0,8
139501,-107.063973936346,4,1,0,85,0,8
139571,-108.017840226492,4,1,0,85,0,8
139674,-109.480820055135,4,1,0,85,0,8
139779,413.793103448276,4,1,0,85,1,8
139779,-110.983972804487,4,1,0,85,0,0
139780,413.793103448276,4,1,0,85,1,0
139780,-110.983972804487,4,1,0,85,0,8
151366,-111.111111111111,4,1,0,85,0,8
151469,-109.58904109589,4,1,0,85,0,8
151573,-108.108108108108,4,1,0,85,0,8
151676,-106.666666666667,4,1,0,85,0,8
151780,-105.263157894737,4,1,0,85,0,8
151883,-103.896103896104,4,1,0,85,0,8
151986,-102.564102564103,4,1,0,85,0,8
152090,-101.26582278481,4,1,0,85,0,8
152193,-100,4,1,0,85,0,8
152400,-100,4,1,0,85,0,0
152504,-99.009900990099,4,1,0,85,0,0
152607,-98.0392156862745,4,1,0,85,0,0
152711,-96.1538461538461,4,1,0,85,0,0
152814,-94.3396226415094,4,1,0,85,0,0
152917,-92.5925925925926,4,1,0,85,0,0
152969,-100,4,1,0,100,0,0
153021,-90.9090909090909,4,1,0,100,0,1
166262,-90.9090909090909,4,1,0,100,0,0
166469,-100,4,1,0,60,0,0
172469,-100,4,1,0,55,0,0
179504,-100,4,1,0,80,0,0
192952,-111.111111111111,4,1,0,30,0,0
194348,-125,4,1,0,30,0,0
204331,-111.111111111111,4,1,0,20,0,0
204745,-100,4,1,0,30,0,0
205159,-100,4,1,0,40,0,0
205573,-100,4,1,0,50,0,0
205986,-100,4,1,0,60,0,0
220467,-98.0392156862745,4,1,0,80,0,0
220571,-96.1538461538461,4,1,0,80,0,0
220674,-94.3396226415094,4,1,0,80,0,0
220778,-92.5925925925926,4,1,0,80,0,0
220829,-100,4,1,0,100,0,0
220883,-90.9090909090909,4,1,0,100,0,1
234124,-90.9090909090909,4,1,0,85,0,0

[HitObjects]
256,192,37159,12,0,39642,0:0:0:0:
256,192,40055,5,0,0:0:0:0:
256,192,40262,1,8,0:0:0:0:
128,256,40470,5,4,0:0:0:0:
121,67,40780,5,0,0:0:0:0:
320,233,40883,5,8,0:0:0:0:
147,95,41090,5,0,0:0:0:0:
160,94,41194,5,0,0:0:0:0:
326,229,41297,5,8,0:0:0:0:
308,204,41504,5,8,0:0:0:0:
159,96,41711,5,0,0:0:0:0:
336,229,41918,5,8,0:0:0:0:
335,234,42021,5,8,0:0:0:0:
321,234,42125,5,8,0:0:0:0:
119,43,42332,5,0,0:0:0:0:
346,256,42538,5,8,0:0:0:0:
119,43,42642,5,0,0:0:0:0:
353,270,42745,5,8,0:0:0:0:
365,251,42952,5,8,0:0:0:0:
365,251,43159,5,8,0:0:0:0:
80,48,43366,5,0,0:0:0:0:
256,192,43573,1,8,0:0:0:0:
321,246,43780,5,8,0:0:0:0:
145,104,43987,5,0,0:0:0:0:
135,73,44090,5,0,0:0:0:0:
145,104,44194,5,0,0:0:0:0:
359,234,44401,5,8,0:0:0:0:
130,75,44607,5,0,0:0:0:0:
130,75,44814,5,0,0:0:0:0:
135,68,44918,5,0,0:0:0:0:
295,219,45021,5,8,0:0:0:0:
372,262,45228,5,8,0:0:0:0:
312,254,45297,5,8,0:0:0:0:
362,257,45366,5,8,0:0:0:0:
119,86,45435,5,0,0:0:0:0:
119,86,45538,5,0,0:0:0:0:
321,282,45849,5,8,0:0:0:0:
159,102,46056,5,0,0:0:0:0:
159,102,46159,5,0,0:0:0:0:
140,67,46366,5,0,0:0:0:0:
140,67,46470,5,0,0:0:0:0:
378,57,46676,5,12,0:0:0:0:
371,255,46883,5,8,0:0:0:0:
369,254,46987,5,8,0:0:0:0:
106,46,47090,5,0,0:0:0:0:
145,77,47401,5,0,0:0:0:0:
372,272,47504,5,12,0:0:0:0:
336,218,47711,5,8,0:0:0:0:
154,79,47918,5,0,0:0:0:0:
154,79,48021,5,0,0:0:0:0:
393,271,48125,5,8,0:0:0:0:
135,71,48332,5,0,0:0:0:0:
135,70,48435,5,0,0:0:0:0:
354,230,48538,5,8,0:0:0:0:
344,201,48642,5,8,0:0:0:0:
344,201,48745,5,8,0:0:0:0:
156,83,48952,5,0,0:0:0:0:
310,213,49159,5,8,0:0:0:0:
301,237,49228,5,8,0:0:0:0:
332,229,49297,5,8,0:0:0:0:
155,104,49366,5,0,0:0:0:0:
92,42,49573,5,0,0:0:0:0:
302,235,49780,5,8,0:0:0:0:
330,268,49883,5,8,0:0:0:0:
148,85,49987,5,0,0:0:0:0:
256,192,50193,1,8,0:0:0:0:
347,262,50401,5,8,0:0:0:0:
135,40,50607,5,0,0:0:0:0:
302,213,50711,5,8,0:0:0:0:
170,97,50814,5,0,0:0:0:0:
167,96,51021,5,0,0:0:0:0:
321,227,51228,5,8,0:0:0:0:
313,219,51332,5,8,0:0:0:0:
128,71,51435,5,0,0:0:0:0:
132,78,51642,5,0,0:0:0:0:
132,78,51745,5,0,0:0:0:0:
306,217,51849,5,8,0:0:0:0:
143,87,52056,5,0,0:0:0:0:
109,66,52263,5,0,0:0:0:0:
170,107,52366,5,0,0:0:0:0:
341,242,52470,5,8,0:0:0:0:
364,242,52538,5,8,0:0:0:0:
349,245,52607,5,8,0:0:0:0:
155,84,52676,5,0,0:0:0:0:
170,107,52883,5,4,0:0:0:0:
140,68,53297,5,8,0:0:0:0:
224,192,53349,1,8,0:0:0:0:
342,233,53504,5,8,0:0:0:0:
354,251,53607,5,8,0:0:0:0:
148,98,53711,5,0,0:0:0:0:
121,67,54021,5,0,0:0:0:0:
320,233,54125,5,8,0:0:0:0:
147,95,54332,5,0,0:0:0:0:
160,94,54435,5,0,0:0:0:0:
326,229,54538,5,8,0:0:0:0:
308,204,54745,5,8,0:0:0:0:
159,96,54952,5,0,0:0:0:0:
336,229,55159,5,8,0:0:0:0:
335,234,55263,5,8,0:0:0:0:
321,234,55366,5,8,0:0:0:0:
119,43,55573,5,0,0:0:0:0:
346,256,55780,5,8,0:0:0:0:
119,43,55883,5,0,0:0:0:0:
353,270,55987,5,8,0:0:0:0:
365,251,56194,5,8,0:0:0:0:
365,251,56401,5,8,0:0:0:0:
80,48,56607,5,0,0:0:0:0:
256,192,56814,1,8,0:0:0:0:
321,246,57021,5,8,0:0:0:0:
145,104,57228,5,0,0:0:0:0:
135,73,57332,5,0,0:0:0:0:
145,104,57435,5,0,0:0:0:0:
359,234,57642,5,8,0:0:0:0:
130,75,57849,5,0,0:0:0:0:
130,75,58056,5,0,0:0:0:0:
135,68,58159,5,0,0:0:0:0:
295,219,58263,5,8,0:0:0:0:
372,262,58470,5,8,0:0:0:0:
362,257,58538,5,8,0:0:0:0:
312,254,58607,5,8,0:0:0:0:
119,86,58676,5,0,0:0:0:0:
119,86,58780,5,0,0:0:0:0:
321,282,59090,5,8,0:0:0:0:
159,102,59297,5,0,0:0:0:0:
159,102,59401,5,0,0:0:0:0:
140,67,59607,5,0,0:0:0:0:
140,67,59711,5,0,0:0:0:0:
378,57,59918,5,12,0:0:0:0:
371,255,60125,5,8,0:0:0:0:
369,254,60228,5,8,0:0:0:0:
106,46,60332,5,0,0:0:0:0:
121,67,60642,5,0,0:0:0:0:
320,233,60745,5,12,0:0:0:0:
147,95,60952,5,0,0:0:0:0:
160,94,61056,5,0,0:0:0:0:
326,229,61159,5,8,0:0:0:0:
308,204,61366,5,8,0:0:0:0:
159,96,61573,5,0,0:0:0:0:
336,229,61780,5,8,0:0:0:0:
335,234,61883,5,8,0:0:0:0:
321,234,61987,5,8,0:0:0:0:
119,43,62194,5,0,0:0:0:0:
346,256,62400,5,8,0:0:0:0:
119,43,62470,5,0,0:0:0:0:
131,117,62538,5,0,0:0:0:0:
353,270,62607,5,8,0:0:0:0:
365,251,62814,5,8,0:0:0:0:
365,251,63021,5,8,0:0:0:0:
80,48,63228,5,0,0:0:0:0:
256,192,63435,1,8,0:0:0:0:
321,246,63642,5,8,0:0:0:0:
145,104,63849,5,0,0:0:0:0:
135,73,63952,5,0,0:0:0:0:
145,104,64056,5,0,0:0:0:0:
359,234,64263,5,8,0:0:0:0:
130,75,64469,5,0,0:0:0:0:
130,75,64676,5,0,0:0:0:0:
135,68,64780,5,0,0:0:0:0:
295,219,64883,5,8,0:0:0:0:
312,254,65090,5,8,0:0:0:0:
335,264,65297,5,8,0:0:0:0:
331,264,65401,5,8,0:0:0:0:
81,60,65504,5,0,0:0:0:0:
321,282,65711,5,8,0:0:0:0:
303,266,65780,5,8,0:0:0:0:
325,272,65849,5,8,0:0:0:0:
137,73,65918,5,0,0:0:0:0:
256,192,66021,1,8,0:0:0:0:
150,261,66125,5,4,0:0:0:0:
113,69,67572,5,0,0:0:0:0:
147,266,67780,5,4,0:0:0:0:
224,192,67986,1,8,0:0:0:0:
357,237,68193,5,8,0:0:0:0:
137,93,68400,5,0,0:0:0:0:
137,93,68607,5,0,0:0:0:0:
417,281,69021,5,8,0:0:0:0:
369,265,69228,5,8,0:0:0:0:
141,89,69435,5,0,0:0:0:0:
385,305,69642,5,8,0:0:0:0:
373,249,69848,5,8,0:0:0:0:
373,289,70055,5,8,0:0:0:0:
97,85,70262,5,0,0:0:0:0:
97,85,70469,5,0,0:0:0:0:
385,265,70676,5,8,0:0:0:0:
256,192,70883,1,0,0:0:0:0:
329,265,71090,5,8,0:0:0:0:
337,289,71297,5,8,0:0:0:0:
141,101,71504,5,0,0:0:0:0:
137,81,71711,5,0,0:0:0:0:
353,237,71917,5,8,0:0:0:0:
161,113,72331,5,0,0:0:0:0:
373,285,72745,5,8,0:0:0:0:
149,93,73159,5,8,0:0:0:0:
393,265,73366,5,8,0:0:0:0:
305,225,73573,5,8,0:0:0:0:
137,93,73780,5,0,0:0:0:0:
256,192,73986,1,8,0:0:0:0:
189,113,74193,5,0,0:0:0:0:
377,293,74400,5,8,0:0:0:0:
161,81,74607,5,0,0:0:0:0:
161,81,74814,5,0,0:0:0:0:
381,305,75021,5,8,0:0:0:0:
381,305,75228,5,8,0:0:0:0:
173,121,75435,5,0,0:0:0:0:
341,245,75642,5,8,0:0:0:0:
121,77,75848,5,0,0:0:0:0:
341,245,76055,5,8,0:0:0:0:
256,192,76262,1,8,0:0:0:0:
165,101,76469,5,0,0:0:0:0:
165,101,76676,5,0,0:0:0:0:
361,257,76883,5,8,0:0:0:0:
256,192,77090,1,0,0:0:0:0:
373,253,77297,5,8,0:0:0:0:
125,113,77504,5,0,0:0:0:0:
341,229,77711,5,8,0:0:0:0:
341,229,77917,5,8,0:0:0:0:
137,109,78021,5,0,0:0:0:0:
417,293,78124,5,8,0:0:0:0:
137,129,78331,5,0,0:0:0:0:
377,237,78538,5,8,0:0:0:0:
256,192,78848,1,0,0:0:0:0:
365,253,78952,5,8,0:0:0:0:
113,65,79159,5,0,0:0:0:0:
345,249,79366,5,8,0:0:0:0:
345,249,79469,5,8,0:0:0:0:
73,57,79573,5,8,0:0:0:0:
73,57,79676,5,0,0:0:0:0:
73,57,79780,5,8,0:0:0:0:
125,81,79883,5,0,0:0:0:0:
313,233,79986,5,8,0:0:0:0:
317,237,80090,5,8,0:0:0:0:
141,81,80193,5,0,0:0:0:0:
305,209,80297,5,8,0:0:0:0:
109,77,80400,5,0,0:0:0:0:
109,77,80504,5,0,0:0:0:0:
321,225,80607,5,8,0:0:0:0:
377,261,80814,5,8,0:0:0:0:
129,257,81021,5,4,0:0:0:0:
337,257,81435,5,8,0:0:0:0:
145,101,81642,5,0,0:0:0:0:
256,192,81848,1,0,0:0:0:0:
145,101,82055,5,0,0:0:0:0:
333,265,82262,5,8,0:0:0:0:
129,93,82676,5,0,0:0:0:0:
141,129,82883,5,0,0:0:0:0:
441,321,83090,5,8,0:0:0:0:
169,117,83504,5,0,0:0:0:0:
389,281,83917,5,8,0:0:0:0:
413,289,84124,5,8,0:0:0:0:
117,113,84331,5,0,0:0:0:0:
401,281,84745,5,8,0:0:0:0:
129,113,84952,5,0,0:0:0:0:
256,192,85159,1,0,0:0:0:0:
129,113,85366,5,0,0:0:0:0:
333,245,85573,5,8,0:0:0:0:
153,97,85780,5,0,0:0:0:0:
153,97,85986,5,0,0:0:0:0:
153,113,86297,5,0,0:0:0:0:
333,245,86400,5,8,0:0:0:0:
121,97,86607,5,0,0:0:0:0:
121,97,86814,5,0,0:0:0:0:
121,97,87021,5,0,0:0:0:0:
121,97,87124,5,0,0:0:0:0:
365,277,87228,5,8,0:0:0:0:
105,57,87435,5,0,0:0:0:0:
169,245,87642,5,4,0:0:0:0:
369,253,87848,5,8,0:0:0:0:
133,85,88055,5,0,0:0:0:0:
133,85,88262,5,0,0:0:0:0:
337,257,88469,5,8,0:0:0:0:
369,253,88883,5,8,0:0:0:0:
369,253,89090,5,8,0:0:0:0:
145,89,89297,5,0,0:0:0:0:
361,253,89504,5,8,0:0:0:0:
329,249,89711,5,8,0:0:0:0:
181,113,89917,5,0,0:0:0:0:
181,113,90124,5,0,0:0:0:0:
337,249,90331,5,8,0:0:0:0:
173,73,90538,5,0,0:0:0:0:
256,192,90745,1,8,0:0:0:0:
169,109,90952,5,0,0:0:0:0:
329,237,91159,5,8,0:0:0:0:
121,49,91366,5,0,0:0:0:0:
141,81,91573,5,0,0:0:0:0:
333,281,91780,5,8,0:0:0:0:
353,261,91986,5,8,0:0:0:0:
349,265,92193,5,8,0:0:0:0:
141,85,92400,5,0,0:0:0:0:
141,113,92607,5,0,0:0:0:0:
345,225,92814,5,8,0:0:0:0:
345,209,93021,5,8,0:0:0:0:
161,73,93228,5,0,0:0:0:0:
353,201,93435,5,8,0:0:0:0:
177,85,93642,5,0,0:0:0:0:
177,85,93848,5,0,0:0:0:0:
401,241,94262,5,8,0:0:0:0:
125,81,94469,5,0,0:0:0:0:
157,101,94676,5,0,0:0:0:0:
169,105,94883,5,0,0:0:0:0:
337,233,95090,5,8,0:0:0:0:
361,201,95297,5,8,0:0:0:0:
165,69,95504,5,0,0:0:0:0:
377,245,95711,5,8,0:0:0:0:
377,245,95917,5,8,0:0:0:0:
137,89,96538,5,0,0:0:0:0:
349,241,96745,5,8,0:0:0:0:
153,85,96952,5,0,0:0:0:0:
153,85,97159,5,0,0:0:0:0:
373,245,97366,5,8,0:0:0:0:
157,117,97573,5,0,0:0:0:0:
365,233,97780,5,8,0:0:0:0:
365,233,97986,5,8,0:0:0:0:
165,73,98193,5,0,0:0:0:0:
317,233,98400,5,8,0:0:0:0:
165,105,98711,5,0,0:0:0:0:
357,233,98814,5,8,0:0:0:0:
157,97,99021,5,0,0:0:0:0:
377,257,99228,5,8,0:0:0:0:
361,241,99331,5,8,0:0:0:0:
141,97,99435,5,0,0:0:0:0:
133,93,99538,5,0,0:0:0:0:
133,93,99642,5,8,0:0:0:0:
133,93,99745,5,0,0:0:0:0:
381,237,99848,5,8,0:0:0:0:
381,237,99952,5,8,0:0:0:0:
169,89,100055,5,0,0:0:0:0:
169,89,100262,5,0,0:0:0:0:
169,89,100366,5,0,0:0:0:0:
329,209,100469,5,8,0:0:0:0:
181,101,100573,5,0,0:0:0:0:
305,225,100676,5,8,0:0:0:0:
305,225,100780,5,8,0:0:0:0:
181,105,100883,5,0,0:0:0:0:
153,113,101193,5,0,0:0:0:0:
345,245,101297,5,8,0:0:0:0:
153,113,101504,5,0,0:0:0:0:
153,113,101607,5,0,0:0:0:0:
153,113,101711,5,0,0:0:0:0:
153,113,101917,5,0,0:0:0:0:
329,245,102124,5,8,0:0:0:0:
337,257,102331,5,8,0:0:0:0:
145,97,102538,5,0,0:0:0:0:
145,97,102745,5,0,0:0:0:0:
145,97,102848,5,0,0:0:0:0:
361,225,102952,5,8,0:0:0:0:
121,93,103159,5,0,0:0:0:0:
337,217,103366,5,8,0:0:0:0:
337,217,103469,5,8,0:0:0:0:
129,89,103573,5,0,0:0:0:0:
381,261,103780,5,8,0:0:0:0:
329,225,103986,5,8,0:0:0:0:
85,117,104193,5,0,0:0:0:0:
141,105,104400,5,0,0:0:0:0:
141,105,104504,5,0,0:0:0:0:
365,241,104607,5,8,0:0:0:0:
153,97,104814,5,0,0:0:0:0:
357,261,105021,5,8,0:0:0:0:
341,249,105124,5,8,0:0:0:0:
153,117,105228,5,0,0:0:0:0:
345,249,105435,5,8,0:0:0:0:
345,249,105538,5,8,0:0:0:0:
125,105,105642,5,0,0:0:0:0:
129,105,105745,5,0,0:0:0:0:
349,233,105848,5,8,0:0:0:0:
173,61,106055,5,0,0:0:0:0:
401,265,106262,5,8,0:0:0:0:
177,101,106366,5,0,0:0:0:0:
341,221,106469,5,8,0:0:0:0:
357,233,106573,5,8,0:0:0:0:
161,97,106676,5,0,0:0:0:0:
157,93,106883,5,0,0:0:0:0:
157,93,106986,5,0,0:0:0:0:
417,265,107090,5,8,0:0:0:0:
169,113,107297,5,0,0:0:0:0:
353,241,107400,5,8,0:0:0:0:
145,85,107504,5,0,0:0:0:0:
137,81,107607,5,0,0:0:0:0:
137,81,107814,5,0,0:0:0:0:
297,209,107917,5,8,0:0:0:0:
121,49,108124,5,0,0:0:0:0:
121,49,108228,5,0,0:0:0:0:
181,101,108331,5,0,0:0:0:0:
161,77,108538,5,0,0:0:0:0:
369,241,108745,5,8,0:0:0:0:
189,121,108952,5,0,0:0:0:0:
341,217,109055,5,8,0:0:0:0:
393,233,109159,5,8,0:0:0:0:
137,101,109262,5,0,0:0:0:0:
381,257,109469,5,8,0:0:0:0:
201,141,109573,5,0,0:0:0:0:
177,89,109780,5,0,0:0:0:0:
329,213,109883,5,8,0:0:0:0:
177,81,109986,5,0,0:0:0:0:
177,81,110090,5,0,0:0:0:0:
385,249,110193,5,8,0:0:0:0:
385,249,110297,5,8,0:0:0:0:
109,41,110400,5,0,0:0:0:0:
397,265,110607,5,8,0:0:0:0:
397,265,110711,5,8,0:0:0:0:
397,265,110814,5,8,0:0:0:0:
145,81,110917,5,0,0:0:0:0:
145,81,111124,5,0,0:0:0:0:
313,209,111228,5,8,0:0:0:0:
137,69,111435,5,0,0:0:0:0:
137,69,111538,5,0,0:0:0:0:
137,69,111642,5,8,0:0:0:0:
373,289,111848,5,8,0:0:0:0:
361,249,111952,5,8,0:0:0:0:
145,89,112055,5,0,0:0:0:0:
157,97,112262,5,0,0:0:0:0:
321,205,112366,5,8,0:0:0:0:
321,205,112469,5,8,0:0:0:0:
149,81,112573,5,0,0:0:0:0:
321,205,112676,5,8,0:0:0:0:
177,109,112780,5,0,0:0:0:0:
329,245,112883,5,8,0:0:0:0:
129,81,113090,5,0,0:0:0:0:
129,81,113193,5,0,0:0:0:0:
317,229,113297,5,8,0:0:0:0:
149,89,113400,5,0,0:0:0:0:
149,89,113504,5,0,0:0:0:0:
345,237,113711,5,8,0:0:0:0:
345,237,113814,5,8,0:0:0:0:
345,237,113917,5,8,0:0:0:0:
345,237,114021,5,8,0:0:0:0:
149,97,114124,5,4,0:0:0:0:
129,89,114331,5,0,0:0:0:0:
129,89,114435,5,0,0:0:0:0:
333,281,114538,5,8,0:0:0:0:
73,73,114745,5,0,0:0:0:0:
73,73,114848,5,0,0:0:0:0:
73,73,114952,5,0,0:0:0:0:
129,97,115159,5,0,0:0:0:0:
257,237,115366,5,8,0:0:0:0:
141,133,115573,5,0,0:0:0:0:
141,133,115676,5,0,0:0:0:0:
141,133,115780,5,0,0:0:0:0:
141,133,115986,5,0,0:0:0:0:
333,225,116193,5,8,0:0:0:0:
185,133,116297,5,0,0:0:0:0:
273,217,116400,5,8,0:0:0:0:
277,225,116504,5,8,0:0:0:0:
113,109,116607,5,0,0:0:0:0:
113,109,116711,5,0,0:0:0:0:
345,269,116814,5,8,0:0:0:0:
141,105,117021,5,0,0:0:0:0:
141,105,117124,5,0,0:0:0:0:
305,249,117228,5,8,0:0:0:0:
141,121,117435,5,0,0:0:0:0:
133,105,117642,5,0,0:0:0:0:
141,117,117745,5,0,0:0:0:0:
305,225,117848,5,8,0:0:0:0:
313,265,118055,5,8,0:0:0:0:
293,253,118159,5,8,0:0:0:0:
129,113,118262,5,0,0:0:0:0:
117,113,118469,5,0,0:0:0:0:
345,253,118676,5,8,0:0:0:0:
153,129,118883,5,0,0:0:0:0:
153,129,118952,5,0,0:0:0:0:
256,192,119021,1,0,0:0:0:0:
33,69,119090,5,0,0:0:0:0:
149,97,119297,5,0,0:0:0:0:
341,257,119504,5,8,0:0:0:0:
345,233,119711,5,8,0:0:0:0:
153,97,119814,5,0,0:0:0:0:
153,97,119917,5,0,0:0:0:0:
245,201,120021,5,8,0:0:0:0:
165,117,120228,5,0,0:0:0:0:
285,225,120331,5,8,0:0:0:0:
177,105,120435,5,0,0:0:0:0:
289,213,120538,5,8,0:0:0:0:
289,213,120642,5,8,0:0:0:0:
125,85,120745,5,0,0:0:0:0:
145,89,120952,5,0,0:0:0:0:
145,89,121055,5,0,0:0:0:0:
361,241,121159,5,12,0:0:0:0:
153,85,121366,5,0,0:0:0:0:
189,109,121573,5,0,0:0:0:0:
333,257,121676,5,8,0:0:0:0:
185,109,121780,5,0,0:0:0:0:
185,109,121883,5,0,0:0:0:0:
333,225,121986,5,8,0:0:0:0:
177,85,122193,5,0,0:0:0:0:
169,85,122400,5,0,0:0:0:0:
333,225,122607,5,8,0:0:0:0:
385,293,122711,5,8,0:0:0:0:
161,113,122814,5,0,0:0:0:0:
161,113,122917,5,0,0:0:0:0:
373,253,123021,5,8,0:0:0:0:
169,81,123228,5,0,0:0:0:0:
329,237,123331,5,8,0:0:0:0:
129,97,123435,5,0,0:0:0:0:
129,97,123538,5,0,0:0:0:0:
349,273,123642,5,8,0:0:0:0:
353,281,123745,5,8,0:0:0:0:
97,73,123848,5,0,0:0:0:0:
149,101,124055,5,0,0:0:0:0:
145,77,124262,5,8,0:0:0:0:
345,281,124366,5,8,0:0:0:0:
345,281,124469,5,8,0:0:0:0:
149,101,124676,5,0,0:0:0:0:
149,101,124883,5,0,0:0:0:0:
309,225,125090,5,8,0:0:0:0:
309,225,125193,5,8,0:0:0:0:
309,225,125297,5,8,0:0:0:0:
309,225,125400,5,8,0:0:0:0:
133,81,125504,5,0,0:0:0:0:
161,49,125711,5,0,0:0:0:0:
377,225,125814,5,8,0:0:0:0:
353,229,125917,5,8,0:0:0:0:
137,85,126021,5,0,0:0:0:0:
329,245,126124,5,8,0:0:0:0:
321,233,126228,5,8,0:0:0:0:
157,105,126331,5,0,0:0:0:0:
157,105,126435,5,0,0:0:0:0:
361,249,126538,5,8,0:0:0:0:
129,81,126642,5,0,0:0:0:0:
225,137,126745,5,0,0:0:0:0:
157,85,126848,5,0,0:0:0:0:
353,245,126952,5,8,0:0:0:0:
189,113,127055,5,0,0:0:0:0:
369,261,127159,5,8,0:0:0:0:
369,261,127262,5,8,0:0:0:0:
128,256,127366,5,4,0:0:0:0:
121,67,127676,5,0,0:0:0:0:
320,233,127779,5,8,0:0:0:0:
147,95,127986,5,0,0:0:0:0:
160,94,128090,5,0,0:0:0:0:
326,229,128193,5,8,0:0:0:0:
308,204,128400,5,8,0:0:0:0:
159,96,128607,5,0,0:0:0:0:
336,229,128814,5,8,0:0:0:0:
335,234,128917,5,8,0:0:0:0:
321,234,129021,5,8,0:0:0:0:
119,43,129228,5,0,0:0:0:0:
346,256,129434,5,8,0:0:0:0:
119,43,129538,5,0,0:0:0:0:
353,270,129641,5,8,0:0:0:0:
365,251,129848,5,8,0:0:0:0:
365,251,130055,5,8,0:0:0:0:
80,48,130262,5,0,0:0:0:0:
256,192,130469,1,8,0:0:0:0:
321,246,130676,5,8,0:0:0:0:
145,104,130883,5,0,0:0:0:0:
135,73,130986,5,0,0:0:0:0:
145,104,131090,5,0,0:0:0:0:
359,234,131297,5,8,0:0:0:0:
130,75,131503,5,0,0:0:0:0:
130,75,131710,5,0,0:0:0:0:
135,68,131814,5,0,0:0:0:0:
295,219,131917,5,8,0:0:0:0:
372,262,132124,5,8,0:0:0:0:
312,254,132193,5,8,0:0:0:0:
362,257,132262,5,8,0:0:0:0:
119,86,132331,5,0,0:0:0:0:
119,86,132434,5,0,0:0:0:0:
321,282,132745,5,8,0:0:0:0:
159,102,132952,5,0,0:0:0:0:
159,102,133055,5,0,0:0:0:0:
140,67,133262,5,0,0:0:0:0:
140,67,133366,5,0,0:0:0:0:
378,57,133572,5,12,0:0:0:0:
371,255,133779,5,8,0:0:0:0:
369,254,133883,5,8,0:0:0:0:
106,46,133986,5,0,0:0:0:0:
145,77,134297,5,0,0:0:0:0:
372,272,134400,5,12,0:0:0:0:
336,218,134607,5,8,0:0:0:0:
154,79,134814,5,0,0:0:0:0:
154,79,134917,5,0,0:0:0:0:
393,271,135021,5,8,0:0:0:0:
135,71,135228,5,0,0:0:0:0:
135,70,135331,5,0,0:0:0:0:
354,230,135434,5,8,0:0:0:0:
344,201,135538,5,8,0:0:0:0:
344,201,135641,5,8,0:0:0:0:
156,83,135848,5,0,0:0:0:0:
310,213,136055,5,8,0:0:0:0:
301,237,136124,5,8,0:0:0:0:
332,229,136193,5,8,0:0:0:0:
155,104,136262,5,0,0:0:0:0:
92,42,136469,5,0,0:0:0:0:
302,235,136676,5,8,0:0:0:0:
330,268,136779,5,8,0:0:0:0:
148,85,136883,5,0,0:0:0:0:
256,192,137090,1,8,0:0:0:0:
140,68,137297,5,0,0:0:0:0:
342,233,137504,5,8,0:0:0:0:
354,251,137607,5,8,0:0:0:0:
148,98,137711,5,0,0:0:0:0:
145,105,137917,5,0,0:0:0:0:
320,233,138125,5,8,0:0:0:0:
147,95,138332,5,0,0:0:0:0:
160,94,138435,5,0,0:0:0:0:
326,229,138538,5,8,0:0:0:0:
185,97,138745,5,0,0:0:0:0:
335,216,138952,5,8,0:0:0:0:
335,216,139055,1,8,0:0:0:0:
176,100,139159,1,0,0:0:0:0:
380,248,139262,1,8,0:0:0:0:
150,112,139366,1,0,0:0:0:0:
135,93,139434,1,0,0:0:0:0:
125,81,139503,1,0,0:0:0:0:
374,237,139573,1,8,0:0:0:0:
389,245,139676,1,8,0:0:0:0:
194,260,139780,1,4,0:0:0:0:
309,233,139986,5,8,0:0:0:0:
309,233,140193,5,8,0:0:0:0:
113,81,140400,5,0,0:0:0:0:
289,197,140607,5,8,0:0:0:0:
149,73,140814,5,0,0:0:0:0:
353,257,141021,5,8,0:0:0:0:
353,257,141228,5,8,0:0:0:0:
161,113,141435,5,0,0:0:0:0:
353,265,141642,5,8,0:0:0:0:
353,265,141848,5,8,0:0:0:0:
141,109,142055,5,0,0:0:0:0:
353,265,142262,5,8,0:0:0:0:
353,265,142469,5,8,0:0:0:0:
189,121,142676,5,0,0:0:0:0:
141,109,143090,5,0,0:0:0:0:
301,209,143711,5,8,0:0:0:0:
301,209,143917,5,8,0:0:0:0:
125,113,144331,5,0,0:0:0:0:
329,241,144745,5,8,0:0:0:0:
141,97,144952,5,0,0:0:0:0:
141,97,145159,5,0,0:0:0:0:
297,233,145366,5,8,0:0:0:0:
297,233,145573,5,8,0:0:0:0:
297,233,145780,5,8,0:0:0:0:
165,81,145986,5,0,0:0:0:0:
325,253,146193,5,8,0:0:0:0:
325,253,146400,5,8,0:0:0:0:
145,65,146607,5,0,0:0:0:0:
153,69,146814,5,0,0:0:0:0:
393,265,147021,5,8,0:0:0:0:
369,253,147228,5,8,0:0:0:0:
157,81,147435,5,0,0:0:0:0:
349,241,147642,5,8,0:0:0:0:
169,109,147848,5,0,0:0:0:0:
337,253,148055,5,8,0:0:0:0:
361,257,148262,5,8,0:0:0:0:
201,129,148469,5,0,0:0:0:0:
201,129,148676,5,0,0:0:0:0:
313,217,148883,5,8,0:0:0:0:
189,93,149090,5,0,0:0:0:0:
345,241,149297,5,8,0:0:0:0:
345,241,149504,5,8,0:0:0:0:
345,241,149711,5,8,0:0:0:0:
161,81,149917,5,0,0:0:0:0:
133,97,150021,5,0,0:0:0:0:
349,241,150124,5,8,0:0:0:0:
349,241,150331,5,8,0:0:0:0:
133,97,150538,5,0,0:0:0:0:
149,97,150745,5,0,0:0:0:0:
149,97,150848,5,0,0:0:0:0:
369,265,150952,5,8,0:0:0:0:
173,85,151159,5,0,0:0:0:0:
137,85,151366,5,0,0:0:0:0:
169,81,151469,1,0,0:0:0:0:
353,241,151573,1,8,0:0:0:0:
153,93,151676,1,0,0:0:0:0:
345,237,151780,1,8,0:0:0:0:
345,237,151883,1,8,0:0:0:0:
169,125,151986,1,0,0:0:0:0:
177,129,152090,1,0,0:0:0:0:
321,241,152193,1,8,0:0:0:0:
169,81,152400,5,0,0:0:0:0:
169,81,152504,5,0,0:0:0:0:
265,173,152607,5,8,0:0:0:0:
177,113,152711,5,0,0:0:0:0:
337,257,152814,5,8,0:0:0:0:
337,277,152917,5,8,0:0:0:0:
149,97,153021,5,4,0:0:0:0:
129,89,153228,5,0,0:0:0:0:
129,89,153332,5,0,0:0:0:0:
333,281,153435,5,8,0:0:0:0:
73,73,153642,5,0,0:0:0:0:
73,73,153745,5,0,0:0:0:0:
73,73,153849,5,0,0:0:0:0:
129,97,154056,5,0,0:0:0:0:
257,237,154263,5,8,0:0:0:0:
141,133,154470,5,0,0:0:0:0:
141,133,154573,5,0,0:0:0:0:
141,133,154677,5,0,0:0:0:0:
141,133,154883,5,0,0:0:0:0:
333,225,155090,5,8,0:0:0:0:
185,133,155194,5,0,0:0:0:0:
273,217,155297,5,8,0:0:0:0:
277,225,155401,5,8,0:0:0:0:
113,109,155504,5,0,0:0:0:0:
113,109,155608,5,0,0:0:0:0:
345,269,155711,5,8,0:0:0:0:
141,105,155918,5,0,0:0:0:0:
141,105,156021,5,0,0:0:0:0:
305,249,156125,5,8,0:0:0:0:
301,221,156228,5,8,0:0:0:0:
141,121,156332,5,0,0:0:0:0:
133,105,156539,5,0,0:0:0:0:
141,117,156642,5,0,0:0:0:0:
305,225,156745,5,8,0:0:0:0:
313,265,156952,5,8,0:0:0:0:
293,253,157056,5,8,0:0:0:0:
129,113,157159,5,0,0:0:0:0:
117,113,157366,5,0,0:0:0:0:
345,253,157573,5,8,0:0:0:0:
153,129,157780,5,0,0:0:0:0:
153,129,157883,5,0,0:0:0:0:
33,69,157987,5,0,0:0:0:0:
149,97,158194,5,0,0:0:0:0:
341,257,158401,5,8,0:0:0:0:
357,249,158504,5,8,0:0:0:0:
345,233,158608,5,8,0:0:0:0:
153,97,158814,5,0,0:0:0:0:
245,201,158918,5,8,0:0:0:0:
165,117,159021,5,0,0:0:0:0:
181,93,159124,5,0,0:0:0:0:
285,225,159228,5,8,0:0:0:0:
177,105,159332,5,0,0:0:0:0:
289,213,159435,5,8,0:0:0:0:
289,213,159539,5,8,0:0:0:0:
125,85,159642,5,0,0:0:0:0:
145,89,159849,5,0,0:0:0:0:
145,89,159952,5,0,0:0:0:0:
361,241,160056,5,12,0:0:0:0:
153,85,160263,5,0,0:0:0:0:
189,109,160470,5,0,0:0:0:0:
333,257,160573,5,8,0:0:0:0:
185,109,160677,5,0,0:0:0:0:
185,109,160780,5,0,0:0:0:0:
333,225,160883,5,8,0:0:0:0:
177,85,161090,5,0,0:0:0:0:
169,85,161297,5,0,0:0:0:0:
333,225,161504,5,8,0:0:0:0:
385,293,161608,5,8,0:0:0:0:
161,113,161711,5,0,0:0:0:0:
161,113,161814,5,0,0:0:0:0:
373,253,161918,5,8,0:0:0:0:
169,81,162125,5,0,0:0:0:0:
329,237,162228,5,8,0:0:0:0:
129,97,162332,5,0,0:0:0:0:
129,97,162435,5,0,0:0:0:0:
349,273,162539,5,8,0:0:0:0:
353,281,162642,5,8,0:0:0:0:
97,73,162745,5,0,0:0:0:0:
33,117,162848,5,0,0:0:0:0:
149,101,162952,5,0,0:0:0:0:
441,289,163159,5,8,0:0:0:0:
345,281,163263,5,8,0:0:0:0:
345,281,163366,5,8,0:0:0:0:
149,101,163573,5,0,0:0:0:0:
149,101,163780,5,0,0:0:0:0:
309,225,163987,5,8,0:0:0:0:
309,225,164090,5,8,0:0:0:0:
309,225,164194,5,8,0:0:0:0:
309,225,164297,5,8,0:0:0:0:
133,81,164401,5,0,0:0:0:0:
161,49,164608,5,0,0:0:0:0:
377,225,164711,5,8,0:0:0:0:
353,229,164814,5,8,0:0:0:0:
137,85,164918,5,0,0:0:0:0:
329,245,165021,5,8,0:0:0:0:
321,233,165125,5,8,0:0:0:0:
157,105,165228,5,0,0:0:0:0:
157,105,165332,5,0,0:0:0:0:
361,249,165435,5,8,0:0:0:0:
129,81,165539,5,0,0:0:0:0:
225,137,165642,5,0,0:0:0:0:
157,85,165745,5,0,0:0:0:0:
353,245,165849,5,8,0:0:0:0:
189,113,165952,5,0,0:0:0:0:
369,261,166056,5,8,0:0:0:0:
369,261,166159,5,8,0:0:0:0:
128,256,166263,5,4,0:0:0:0:
256,192,166469,12,0,172055,0:0:0:0:
413,273,172469,5,8,0:0:0:0:
381,289,172676,5,8,0:0:0:0:
381,289,172780,5,8,0:0:0:0:
161,113,172883,5,0,0:0:0:0:
365,249,173090,5,8,0:0:0:0:
153,97,173297,5,0,0:0:0:0:
377,261,173504,5,8,0:0:0:0:
377,261,173607,5,8,0:0:0:0:
69,73,173711,5,0,0:0:0:0:
381,241,173814,5,8,0:0:0:0:
145,109,174021,5,0,0:0:0:0:
345,237,174124,5,8,0:0:0:0:
153,97,174331,5,0,0:0:0:0:
377,261,174435,5,8,0:0:0:0:
117,101,174538,5,0,0:0:0:0:
361,225,174745,5,8,0:0:0:0:
361,225,174848,5,8,0:0:0:0:
105,69,174952,5,0,0:0:0:0:
361,261,175159,5,8,0:0:0:0:
361,257,175262,5,8,0:0:0:0:
137,113,175366,5,0,0:0:0:0:
353,265,175469,5,8,0:0:0:0:
121,81,175676,5,0,0:0:0:0:
349,265,175780,5,8,0:0:0:0:
153,109,175883,5,0,0:0:0:0:
345,273,175986,5,8,0:0:0:0:
345,273,176090,5,8,0:0:0:0:
145,117,176193,5,0,0:0:0:0:
349,249,176400,5,8,0:0:0:0:
349,249,176607,5,8,0:0:0:0:
349,249,176814,5,8,0:0:0:0:
349,249,177021,5,8,0:0:0:0:
349,249,177228,5,8,0:0:0:0:
349,249,177435,5,8,0:0:0:0:
141,105,177642,5,0,0:0:0:0:
337,253,177745,5,8,0:0:0:0:
337,257,177848,5,8,0:0:0:0:
337,257,177952,5,8,0:0:0:0:
337,257,178055,5,8,0:0:0:0:
345,233,178159,5,8,0:0:0:0:
345,233,178262,5,8,0:0:0:0:
365,241,178366,5,8,0:0:0:0:
117,73,178469,5,0,0:0:0:0:
117,73,178573,5,0,0:0:0:0:
117,73,178676,5,0,0:0:0:0:
117,73,178780,5,0,0:0:0:0:
121,81,178883,5,0,0:0:0:0:
121,81,178986,5,0,0:0:0:0:
273,201,179090,5,8,0:0:0:0:
256,192,179142,1,8,0:0:0:0:
165,105,179297,5,0,0:0:0:0:
141,265,179504,5,4,0:0:0:0:
137,49,179711,5,0,0:0:0:0:
137,49,179814,5,0,0:0:0:0:
337,217,179917,5,8,0:0:0:0:
353,257,180124,5,8,0:0:0:0:
169,121,180331,5,0,0:0:0:0:
373,261,180538,5,8,0:0:0:0:
89,89,180745,5,0,0:0:0:0:
333,249,180952,5,8,0:0:0:0:
337,249,181055,5,8,0:0:0:0:
133,105,181159,5,0,0:0:0:0:
377,253,181366,5,8,0:0:0:0:
149,121,181573,5,0,0:0:0:0:
149,121,181676,5,0,0:0:0:0:
377,249,181780,5,8,0:0:0:0:
141,81,181986,5,0,0:0:0:0:
177,105,182090,5,0,0:0:0:0:
289,225,182193,5,8,0:0:0:0:
165,121,182297,5,0,0:0:0:0:
165,121,182400,5,0,0:0:0:0:
369,245,182607,5,8,0:0:0:0:
101,89,182814,5,0,0:0:0:0:
353,221,183021,5,8,0:0:0:0:
353,221,183124,5,8,0:0:0:0:
353,221,183228,5,8,0:0:0:0:
321,245,183435,5,8,0:0:0:0:
201,129,183642,5,0,0:0:0:0:
297,197,183848,5,8,0:0:0:0:
153,89,184055,5,0,0:0:0:0:
353,225,184262,5,8,0:0:0:0:
353,225,184366,5,8,0:0:0:0:
129,73,184469,5,0,0:0:0:0:
341,269,184676,5,8,0:0:0:0:
221,117,184883,5,0,0:0:0:0:
197,97,184986,5,0,0:0:0:0:
329,249,185090,5,8,0:0:0:0:
193,69,185297,5,0,0:0:0:0:
193,77,185504,5,0,0:0:0:0:
353,241,185711,5,8,0:0:0:0:
353,241,185814,5,8,0:0:0:0:
345,233,185917,5,8,0:0:0:0:
345,233,186021,5,8,0:0:0:0:
133,89,186124,5,0,0:0:0:0:
137,49,186331,5,0,0:0:0:0:
337,217,186537,5,8,0:0:0:0:
137,49,186642,5,0,0:0:0:0:
353,257,186744,5,8,0:0:0:0:
169,121,186951,5,0,0:0:0:0:
373,261,187158,5,8,0:0:0:0:
89,89,187365,5,0,0:0:0:0:
333,249,187572,5,8,0:0:0:0:
133,105,187779,5,0,0:0:0:0:
377,253,187986,5,8,0:0:0:0:
381,301,188090,5,8,0:0:0:0:
149,121,188193,5,0,0:0:0:0:
377,249,188400,5,8,0:0:0:0:
141,81,188606,5,0,0:0:0:0:
177,105,188710,5,0,0:0:0:0:
289,225,188813,5,8,0:0:0:0:
165,121,188917,5,0,0:0:0:0:
165,121,189020,5,0,0:0:0:0:
369,245,189227,5,8,0:0:0:0:
101,89,189434,5,0,0:0:0:0:
353,221,189641,5,8,0:0:0:0:
353,221,189744,5,8,0:0:0:0:
353,221,189848,5,8,0:0:0:0:
321,245,190055,5,8,0:0:0:0:
201,129,190262,5,0,0:0:0:0:
297,197,190468,5,8,0:0:0:0:
153,89,190675,5,0,0:0:0:0:
353,225,190882,5,8,0:0:0:0:
353,225,190986,5,8,0:0:0:0:
129,73,191089,5,0,0:0:0:0:
341,269,191296,5,12,0:0:0:0:
337,245,191503,5,12,0:0:0:0:
193,69,191710,5,0,0:0:0:0:
329,249,191917,5,8,0:0:0:0:
256,192,191969,1,8,0:0:0:0:
193,77,192124,5,0,0:0:0:0:
169,77,192228,5,0,0:0:0:0:
353,241,192331,5,8,0:0:0:0:
353,241,192434,5,8,0:0:0:0:
345,233,192537,5,8,0:0:0:0:
345,233,192641,5,8,0:0:0:0:
137,253,192744,5,4,0:0:0:0:
256,192,192952,12,0,194193,0:0:0:0:
249,177,194400,5,0,0:0:0:0:
249,177,194607,5,0,0:0:0:0:
249,177,195642,5,0,0:0:0:0:
249,177,196055,5,0,0:0:0:0:
249,177,196262,5,0,0:0:0:0:
249,177,196883,5,0,0:0:0:0:
249,177,197297,5,0,0:0:0:0:
249,177,197711,5,0,0:0:0:0:
249,177,197917,5,0,0:0:0:0:
249,177,199366,5,0,0:0:0:0:
249,177,199573,5,0,0:0:0:0:
256,192,199986,5,0,0:0:0:0:
256,192,200400,5,0,0:0:0:0:
256,192,201021,5,0,0:0:0:0:
249,177,201228,5,0,0:0:0:0:
249,177,201848,5,0,0:0:0:0:
249,177,202676,5,0,0:0:0:0:
249,177,202883,5,0,0:0:0:0:
249,177,203297,5,0,0:0:0:0:
249,177,203504,5,0,0:0:0:0:
249,177,203917,5,0,0:0:0:0:
249,177,204124,5,0,0:0:0:0:
256,192,204331,12,0,207021,0:0:0:0:
341,261,207228,5,8,0:0:0:0:
341,261,207331,5,8,0:0:0:0:
341,261,207435,5,8,0:0:0:0:
341,261,207538,5,8,0:0:0:0:
181,105,207642,5,0,0:0:0:0:
153,113,207952,5,0,0:0:0:0:
345,245,208056,5,8,0:0:0:0:
153,113,208263,5,0,0:0:0:0:
153,113,208366,5,0,0:0:0:0:
153,113,208470,5,0,0:0:0:0:
153,113,208676,5,0,0:0:0:0:
329,245,208883,5,8,0:0:0:0:
337,257,209090,5,8,0:0:0:0:
145,97,209297,5,0,0:0:0:0:
145,97,209504,5,0,0:0:0:0:
145,97,209607,5,0,0:0:0:0:
361,225,209711,5,8,0:0:0:0:
121,93,209918,5,0,0:0:0:0:
337,217,210125,5,8,0:0:0:0:
337,217,210228,5,8,0:0:0:0:
129,89,210332,5,0,0:0:0:0:
381,261,210539,5,8,0:0:0:0:
329,225,210745,5,8,0:0:0:0:
85,117,210952,5,0,0:0:0:0:
141,105,211159,5,0,0:0:0:0:
141,105,211263,5,0,0:0:0:0:
365,241,211366,5,8,0:0:0:0:
153,97,211573,5,0,0:0:0:0:
357,261,211780,5,8,0:0:0:0:
341,249,211883,5,8,0:0:0:0:
153,117,211987,5,0,0:0:0:0:
345,249,212194,5,8,0:0:0:0:
345,249,212297,5,8,0:0:0:0:
125,105,212401,5,0,0:0:0:0:
129,105,212504,5,0,0:0:0:0:
349,233,212607,5,8,0:0:0:0:
173,61,212814,5,0,0:0:0:0:
401,265,213021,5,8,0:0:0:0:
177,101,213125,5,0,0:0:0:0:
341,221,213228,5,8,0:0:0:0:
357,233,213332,5,8,0:0:0:0:
161,97,213435,5,0,0:0:0:0:
157,93,213642,5,0,0:0:0:0:
157,93,213745,5,0,0:0:0:0:
417,265,213849,5,8,0:0:0:0:
169,113,214056,5,0,0:0:0:0:
353,241,214159,5,8,0:0:0:0:
145,85,214263,5,0,0:0:0:0:
137,81,214366,5,0,0:0:0:0:
137,81,214573,5,0,0:0:0:0:
297,209,214676,5,8,0:0:0:0:
121,49,214883,5,0,0:0:0:0:
121,49,214987,5,0,0:0:0:0:
181,101,215090,5,0,0:0:0:0:
161,77,215297,5,0,0:0:0:0:
369,241,215504,5,8,0:0:0:0:
189,121,215711,5,0,0:0:0:0:
341,217,215814,5,8,0:0:0:0:
393,233,215918,5,8,0:0:0:0:
137,101,216021,5,0,0:0:0:0:
381,257,216228,5,8,0:0:0:0:
201,141,216332,5,0,0:0:0:0:
177,89,216539,5,0,0:0:0:0:
329,213,216642,5,8,0:0:0:0:
177,81,216745,5,0,0:0:0:0:
177,81,216849,5,0,0:0:0:0:
385,249,216952,5,8,0:0:0:0:
385,249,217056,5,8,0:0:0:0:
109,41,217159,5,0,0:0:0:0:
397,265,217366,5,8,0:0:0:0:
397,265,217470,5,8,0:0:0:0:
397,265,217573,5,8,0:0:0:0:
145,81,217676,5,0,0:0:0:0:
145,81,217883,5,0,0:0:0:0:
313,209,217987,5,8,0:0:0:0:
137,69,218194,5,0,0:0:0:0:
137,69,218297,5,0,0:0:0:0:
137,69,218401,5,8,0:0:0:0:
373,289,218607,5,8,0:0:0:0:
361,249,218711,5,8,0:0:0:0:
145,89,218814,5,0,0:0:0:0:
157,97,219021,5,0,0:0:0:0:
321,205,219125,5,8,0:0:0:0:
321,205,219228,5,8,0:0:0:0:
149,81,219332,5,0,0:0:0:0:
321,205,219435,5,8,0:0:0:0:
177,109,219539,5,0,0:0:0:0:
329,245,219642,5,8,0:0:0:0:
129,81,219849,5,0,0:0:0:0:
129,81,219952,5,0,0:0:0:0:
317,229,220056,5,8,0:0:0:0:
149,89,220159,5,0,0:0:0:0:
149,89,220263,5,0,0:0:0:0:
345,237,220469,5,8,0:0:0:0:
345,237,220573,5,8,0:0:0:0:
345,237,220676,5,8,0:0:0:0:
345,237,220780,5,8,0:0:0:0:
149,97,220883,5,4,0:0:0:0:
129,89,221090,5,0,0:0:0:0:
129,89,221194,5,0,0:0:0:0:
333,281,221297,5,8,0:0:0:0:
73,73,221504,5,0,0:0:0:0:
73,73,221607,5,0,0:0:0:0:
73,73,221711,5,8,0:0:0:0:
153,109,221814,5,8,0:0:0:0:
129,97,221918,5,0,0:0:0:0:
257,237,222125,5,8,0:0:0:0:
141,133,222332,5,0,0:0:0:0:
141,133,222435,5,0,0:0:0:0:
141,133,222539,5,8,0:0:0:0:
141,133,222745,5,0,0:0:0:0:
333,225,222952,5,8,0:0:0:0:
185,133,223056,5,0,0:0:0:0:
273,217,223159,5,8,0:0:0:0:
277,225,223263,5,8,0:0:0:0:
113,109,223366,5,0,0:0:0:0:
113,109,223470,5,0,0:0:0:0:
345,269,223573,5,8,0:0:0:0:
141,105,223780,5,0,0:0:0:0:
141,105,223883,5,0,0:0:0:0:
305,249,223987,5,8,0:0:0:0:
365,273,224090,5,8,0:0:0:0:
141,121,224194,5,0,0:0:0:0:
133,105,224401,5,0,0:0:0:0:
141,117,224504,5,0,0:0:0:0:
305,225,224607,5,8,0:0:0:0:
313,265,224814,5,8,0:0:0:0:
293,253,224918,5,8,0:0:0:0:
129,113,225021,5,0,0:0:0:0:
117,113,225228,5,0,0:0:0:0:
101,105,225331,5,0,0:0:0:0:
345,253,225435,5,8,0:0:0:0:
153,129,225642,5,0,0:0:0:0:
153,129,225711,5,0,0:0:0:0:
256,192,225780,1,0,0:0:0:0:
33,69,225849,5,0,0:0:0:0:
149,97,226056,5,0,0:0:0:0:
341,257,226263,5,8,0:0:0:0:
345,233,226470,5,8,0:0:0:0:
153,97,226573,5,0,0:0:0:0:
153,97,226676,5,0,0:0:0:0:
245,201,226780,5,8,0:0:0:0:
149,57,226883,5,0,0:0:0:0:
165,117,226987,5,0,0:0:0:0:
285,225,227090,5,8,0:0:0:0:
177,105,227194,5,0,0:0:0:0:
289,213,227297,5,8,0:0:0:0:
289,213,227401,5,8,0:0:0:0:
125,85,227504,5,0,0:0:0:0:
145,89,227711,5,0,0:0:0:0:
145,89,227814,5,0,0:0:0:0:
361,241,227918,5,12,0:0:0:0:
153,85,228125,5,0,0:0:0:0:
189,109,228332,5,0,0:0:0:0:
333,257,228435,5,8,0:0:0:0:
185,109,228539,5,0,0:0:0:0:
185,109,228642,5,0,0:0:0:0:
333,225,228745,5,8,0:0:0:0:
177,85,228952,5,0,0:0:0:0:
169,85,229159,5,0,0:0:0:0:
333,225,229366,5,8,0:0:0:0:
385,293,229470,5,8,0:0:0:0:
161,113,229573,5,0,0:0:0:0:
161,113,229676,5,0,0:0:0:0:
373,253,229780,5,8,0:0:0:0:
169,81,229987,5,0,0:0:0:0:
329,237,230090,5,8,0:0:0:0:
129,97,230194,5,0,0:0:0:0:
129,97,230297,5,0,0:0:0:0:
349,273,230401,5,8,0:0:0:0:
353,281,230504,5,8,0:0:0:0:
97,73,230607,5,0,0:0:0:0:
149,101,230814,5,0,0:0:0:0:
145,77,231021,5,8,0:0:0:0:
345,281,231125,5,8,0:0:0:0:
345,281,231228,5,8,0:0:0:0:
369,257,231331,5,8,0:0:0:0:
149,101,231435,5,0,0:0:0:0:
149,101,231642,5,0,0:0:0:0:
309,225,231849,5,8,0:0:0:0:
309,225,231952,5,8,0:0:0:0:
309,225,232056,5,8,0:0:0:0:
309,225,232159,5,8,0:0:0:0:
133,81,232263,5,0,0:0:0:0:
161,49,232470,5,0,0:0:0:0:
377,225,232573,5,8,0:0:0:0:
353,229,232676,5,8,0:0:0:0:
137,85,232780,5,0,0:0:0:0:
329,245,232883,5,8,0:0:0:0:
321,233,232987,5,8,0:0:0:0:
157,105,233090,5,0,0:0:0:0:
157,105,233194,5,0,0:0:0:0:
361,249,233297,5,8,0:0:0:0:
129,81,233401,5,0,0:0:0:0:
225,137,233504,5,0,0:0:0:0:
157,85,233607,5,0,0:0:0:0:
353,245,233711,5,8,0:0:0:0:
189,113,233814,5,0,0:0:0:0:
369,261,233918,5,8,0:0:0:0:
369,261,234021,5,8,0:0:0:0:
128,256,234124,5,4,0:0:0:0:
121,67,234434,5,0,0:0:0:0:
320,233,234537,5,8,0:0:0:0:
147,95,234744,5,0,0:0:0:0:
160,94,234848,5,0,0:0:0:0:
326,229,234951,5,8,0:0:0:0:
308,204,235158,5,8,0:0:0:0:
159,96,235365,5,0,0:0:0:0:
336,229,235572,5,8,0:0:0:0:
335,234,235675,5,8,0:0:0:0:
321,234,235779,5,8,0:0:0:0:
119,43,235986,5,0,0:0:0:0:
346,256,236192,5,8,0:0:0:0:
119,43,236296,5,0,0:0:0:0:
353,270,236399,5,8,0:0:0:0:
365,251,236606,5,8,0:0:0:0:
365,251,236813,5,8,0:0:0:0:
80,48,237020,5,0,0:0:0:0:
346,256,237228,5,8,0:0:0:0:
321,246,237434,5,8,0:0:0:0:
145,104,237641,5,0,0:0:0:0:
135,73,237744,5,0,0:0:0:0:
145,104,237848,5,0,0:0:0:0:
359,234,238055,5,8,0:0:0:0:
130,75,238261,5,0,0:0:0:0:
130,75,238468,5,0,0:0:0:0:
135,68,238572,5,0,0:0:0:0:
295,219,238675,5,8,0:0:0:0:
372,262,238882,5,8,0:0:0:0:
312,254,238951,5,8,0:0:0:0:
362,257,239020,5,8,0:0:0:0:
119,86,239089,5,0,0:0:0:0:
119,86,239192,5,0,0:0:0:0:
321,282,239503,5,8,0:0:0:0:
159,102,239710,5,0,0:0:0:0:
159,102,239813,5,0,0:0:0:0:
140,67,240020,5,0,0:0:0:0:
140,67,240124,5,0,0:0:0:0:
378,57,240330,5,12,0:0:0:0:
371,255,240537,5,8,0:0:0:0:
369,254,240641,5,8,0:0:0:0:
106,46,240744,5,0,0:0:0:0:
145,77,241055,5,0,0:0:0:0:
372,272,241158,5,12,0:0:0:0:
336,218,241365,5,8,0:0:0:0:
154,79,241572,5,0,0:0:0:0:
154,79,241675,5,0,0:0:0:0:
393,271,241779,5,8,0:0:0:0:
135,71,241986,5,0,0:0:0:0:
135,70,242089,5,0,0:0:0:0:
354,230,242192,5,8,0:0:0:0:
344,201,242296,5,8,0:0:0:0:
344,201,242399,5,8,0:0:0:0:
156,83,242606,5,0,0:0:0:0:
310,213,242813,5,8,0:0:0:0:
301,237,242882,5,8,0:0:0:0:
332,229,242951,5,8,0:0:0:0:
155,104,243020,5,0,0:0:0:0:
92,42,243227,5,0,0:0:0:0:
302,235,243434,5,8,0:0:0:0:
330,268,243537,5,8,0:0:0:0:
148,85,243641,5,0,0:0:0:0:
381,277,243848,5,8,0:0:0:0:
347,262,244055,5,8,0:0:0:0:
135,40,244261,5,0,0:0:0:0:
302,213,244365,5,8,0:0:0:0:
170,97,244468,5,0,0:0:0:0:
309,249,244538,5,8,0:0:0:0:
309,249,244607,5,8,0:0:0:0:
167,96,244676,5,0,0:0:0:0:
321,227,244882,5,8,0:0:0:0:
313,219,244986,5,8,0:0:0:0:
128,71,245089,5,0,0:0:0:0:
132,78,245296,5,0,0:0:0:0:
132,78,245399,5,0,0:0:0:0:
306,217,245503,5,8,0:0:0:0:
143,87,245710,5,0,0:0:0:0:
109,66,245917,5,0,0:0:0:0:
170,107,246020,5,0,0:0:0:0:
341,242,246124,5,8,0:0:0:0:
364,242,246192,5,8,0:0:0:0:
349,245,246261,5,8,0:0:0:0:
155,84,246330,5,0,0:0:0:0:
170,107,246537,5,4,0:0:0:0:
356,230,246745,5,8,0:0:0:0:
356,230,246848,5,8,0:0:0:0:
140,68,246951,5,0,0:0:0:0:
162,76,247055,5,0,0:0:0:0:
342,233,247158,5,8,0:0:0:0:
354,251,247261,5,8,0:0:0:0:
148,98,247365,5,0,0:0:0:0:
121,67,247675,5,0,0:0:0:0:
320,233,247779,5,8,0:0:0:0:
147,95,247986,5,0,0:0:0:0:
160,94,248089,5,0,0:0:0:0:
326,229,248192,5,8,0:0:0:0:
308,204,248399,5,8,0:0:0:0:
159,96,248606,5,0,0:0:0:0:
336,229,248813,5,8,0:0:0:0:
335,234,248917,5,8,0:0:0:0:
321,234,249020,5,8,0:0:0:0:
119,43,249227,5,0,0:0:0:0:
346,256,249434,5,8,0:0:0:0:
353,270,249538,5,8,0:0:0:0:
91,82,249642,5,0,0:0:0:0:
365,251,249848,5,8,0:0:0:0:
365,251,250055,5,8,0:0:0:0:
80,48,250261,5,0,0:0:0:0:
353,261,250469,5,8,0:0:0:0:
321,246,250675,5,8,0:0:0:0:
145,104,250882,5,0,0:0:0:0:
135,73,250986,5,0,0:0:0:0:
145,104,251089,5,0,0:0:0:0:
359,234,251296,5,8,0:0:0:0:
130,75,251503,5,0,0:0:0:0:
130,75,251710,5,0,0:0:0:0:
135,68,251813,5,0,0:0:0:0:
295,219,251917,5,8,0:0:0:0:
372,262,252124,5,8,0:0:0:0:
362,257,252192,5,8,0:0:0:0:
312,254,252261,5,8,0:0:0:0:
119,86,252330,5,0,0:0:0:0:
119,86,252434,5,0,0:0:0:0:
321,282,252744,5,8,0:0:0:0:
159,102,252951,5,0,0:0:0:0:
159,102,253055,5,0,0:0:0:0:
140,67,253261,5,0,0:0:0:0:
140,67,253365,5,0,0:0:0:0:
378,57,253572,5,12,0:0:0:0:
371,255,253779,5,8,0:0:0:0:
369,254,253882,5,8,0:0:0:0:
106,46,253986,5,0,0:0:0:0:
177,106,254297,5,0,0:0:0:0:
342,240,254400,5,12,0:0:0:0:
354,240,254607,5,8,0:0:0:0:
340,235,254814,5,8,0:0:0:0:
167,101,255021,5,0,0:0:0:0:
166,100,255124,5,0,0:0:0:0:
306,225,255228,5,8,0:0:0:0:
177,114,255435,5,0,0:0:0:0:
325,243,255642,5,8,0:0:0:0:
190,123,255848,5,0,0:0:0:0:
190,122,255952,5,0,0:0:0:0:
340,251,256055,5,8,0:0:0:0:
340,251,256124,5,8,0:0:0:0:
329,269,256193,5,8,0:0:0:0:
145,87,256262,5,0,0:0:0:0:
152,86,256469,5,0,0:0:0:0:
145,87,256676,5,0,0:0:0:0:
342,244,256883,5,8,0:0:0:0:
352,242,257090,5,8,0:0:0:0:
191,114,257193,5,0,0:0:0:0:
341,215,257297,5,8,0:0:0:0:
179,111,257504,5,0,0:0:0:0:
158,115,257607,5,0,0:0:0:0:
363,245,257711,5,8,0:0:0:0:
363,245,257814,5,8,0:0:0:0:
142,102,257917,5,0,0:0:0:0:
351,213,258124,5,8,0:0:0:0:
161,76,258331,5,0,0:0:0:0:
161,76,258435,5,0,0:0:0:0:
285,199,258538,5,8,0:0:0:0:
162,86,258745,5,0,0:0:0:0:
373,254,258952,5,8,0:0:0:0:
375,259,259055,5,8,0:0:0:0:
174,127,259159,5,0,0:0:0:0:
174,127,259262,5,0,0:0:0:0:
326,212,259366,5,8,0:0:0:0:
347,212,259435,5,8,0:0:0:0:
347,212,259504,5,8,0:0:0:0:
140,78,259573,5,0,0:0:0:0:
138,257,259780,5,4,0:0:0:0:
