osu file format v14

[General]
AudioFilename: Eluveitie - Bloodstained Ground.mp3
AudioLeadIn: 0
PreviewTime: -1
Countdown: 1
SampleSet: Normal
StackLeniency: 0.7
Mode: 0
LetterboxInBreaks: 0
WidescreenStoryboard: 0

[Editor]
Bookmarks: 17693
DistanceSpacing: 0.8
BeatDivisor: 4
GridSize: 4
TimelineZoom: 2.1

[Metadata]
Title:Bloodstained Ground
TitleUnicode:Bloodstained Ground
Artist:Eluveitie
ArtistUnicode:Eluveitie
Creator:Silleth
Version:BATTLEFIELD
Source:
Tags:death melodic folk metal deathstream stream
BeatmapID:866242
BeatmapSetID:398399

[Difficulty]
HPDrainRate:6.5
CircleSize:4
OverallDifficulty:8.3
ApproachRate:10
SliderMultiplier:1.9
SliderTickRate:1

[Events]
//Background and Video events
//Break Periods
//Storyboard Layer 0 (Background)
//Storyboard Layer 1 (Fail)
//Storyboard Layer 2 (Pass)
//Storyboard Layer 3 (Foreground)
//Storyboard Sound Samples

[TimingPoints]
532,254.237288135593,4,1,0,100,1,0
16803,-153.846153846154,4,1,0,100,0,0
24938,-100,4,1,0,100,0,0
41209,-153.846153846154,4,1,0,100,0,0
49345,-86.9565217391304,4,1,0,100,0,1
50362,-68.9655172413793,4,1,0,100,0,1
50489,-86.9565217391304,4,1,0,100,0,1
56464,-68.9655172413793,4,1,0,100,0,1
56718,-133.333333333333,4,1,0,100,0,1
56972,-86.9565217391304,4,1,0,100,0,1
65616,-86.9565217391304,4,1,0,100,0,0

[HitObjects]
128,316,532,6,0,L|236:320,1,95
316,88,786,1,0,0:0:0:0:
56,156,913,1,0,0:0:0:0:
332,276,1040,1,0,0:0:0:0:
160,32,1167,1,0,0:0:0:0:
156,352,1294,2,0,L|164:232,1,95
416,108,1548,1,0,0:0:0:0:
172,128,1676,1,0,0:0:0:0:
468,128,1803,5,0,0:0:0:0:
468,128,1866,1,0,0:0:0:0:
468,128,1931,1,0,0:0:0:0:
152,216,2057,1,0,0:0:0:0:
460,268,2185,1,0,0:0:0:0:
104,152,2311,5,0,0:0:0:0:
76,148,2375,1,0,0:0:0:0:
48,144,2439,1,0,0:0:0:0:
224,368,2565,2,0,L|236:264,1,95
256,28,2820,1,0,0:0:0:0:
32,152,2947,2,0,P|12:192|12:260,1,95
256,340,3201,1,0,0:0:0:0:
332,52,3328,1,0,0:0:0:0:
112,180,3455,1,0,0:0:0:0:
432,296,3582,6,0,P|444:244|436:188,1,95
80,88,3837,2,0,P|68:140|76:196,1,95
352,336,4091,1,0,0:0:0:0:
204,56,4218,1,0,0:0:0:0:
128,356,4345,1,0,0:0:0:0:
424,200,4472,2,0,L|312:192,1,95
76,172,4726,5,0,0:0:0:0:
33,362,4854,2,0,L|145:354,1,95
336,344,5108,1,0,0:0:0:0:
272,52,5235,1,0,0:0:0:0:
152,240,5362,1,0,0:0:0:0:
448,176,5489,1,0,0:0:0:0:
152,240,5616,5,0,0:0:0:0:
336,344,5743,1,0,0:0:0:0:
460,176,5870,1,0,0:0:0:0:
460,176,5934,1,0,0:0:0:0:
460,176,5998,1,0,0:0:0:0:
125,246,6125,5,0,0:0:0:0:
266,24,6252,1,0,0:0:0:0:
328,284,6379,1,0,0:0:0:0:
332,312,6443,1,0,0:0:0:0:
336,344,6507,1,0,0:0:0:0:
264,24,6633,6,0,L|256:136,1,95
232,344,6887,1,0,0:0:0:0:
36,228,7015,2,0,P|16:164|28:132,1,95
200,24,7269,1,0,0:0:0:0:
392,108,7396,2,0,P|412:172|400:204,1,95
220,336,7650,5,0,0:0:0:0:
272,60,7777,1,0,0:0:0:0:
232,356,7904,1,0,0:0:0:0:
252,40,8031,1,0,0:0:0:0:
456,224,8159,5,0,0:0:0:0:
76,248,8286,1,0,0:0:0:0:
472,272,8413,5,0,0:0:0:0:
48,208,8540,1,0,0:0:0:0:
280,64,8667,6,0,P|284:120|268:168,1,95
96,328,8921,1,0,0:0:0:0:
40,56,9048,2,0,L|152:40,1,95
272,268,9303,1,0,0:0:0:0:
408,92,9430,2,0,P|364:68|308:56,1,95
104,48,9684,5,0,0:0:0:0:
140,360,9811,1,0,0:0:0:0:
128,36,9938,5,0,0:0:0:0:
128,36,10002,1,0,0:0:0:0:
128,36,10065,1,0,0:0:0:0:
336,152,10193,5,0,0:0:0:0:
4,184,10320,1,0,0:0:0:0:
360,148,10447,5,0,0:0:0:0:
388,144,10510,1,0,0:0:0:0:
416,140,10574,1,0,0:0:0:0:
176,20,10701,1,0,0:0:0:0:
160,264,10828,2,0,L|156:380,1,95
472,344,11082,1,0,0:0:0:0:
472,344,11209,2,0,L|476:228,1,95
352,32,11464,1,0,0:0:0:0:
192,224,11591,2,0,P|132:216|100:168,1,95
256,16,11845,5,0,0:0:0:0:
336,260,11972,2,0,P|328:312|292:352,1,95
16,200,12226,2,0,P|21:153|49:115,1,95
336,56,12481,1,0,0:0:0:0:
328,344,12608,2,0,L|212:332,1,95
132,76,12862,5,0,0:0:0:0:
108,352,12989,1,0,0:0:0:0:
356,228,13116,2,0,P|372:184|364:128,1,95
40,92,13370,1,0,0:0:0:0:
40,92,13498,2,0,P|35:138|51:183,1,95
240,352,13752,5,0,0:0:0:0:
432,116,13879,1,0,0:0:0:0:
240,364,14006,1,0,0:0:0:0:
240,364,14070,1,0,0:0:0:0:
240,364,14133,1,0,0:0:0:0:
88,104,14260,5,0,0:0:0:0:
424,188,14387,1,0,0:0:0:0:
104,252,14515,1,0,0:0:0:0:
76,256,14578,1,0,0:0:0:0:
48,260,14642,1,0,0:0:0:0:
384,352,14769,6,0,L|392:252,1,95
328,36,15023,1,0,0:0:0:0:
120,257,15150,2,0,L|128:352,1,95
400,128,15404,1,0,0:0:0:0:
84,72,15531,1,0,0:0:0:0:
416,100,15659,1,0,0:0:0:0:
368,272,15786,5,0,0:0:0:0:
352,308,15849,1,0,0:0:0:0:
320,336,15913,1,0,0:0:0:0:
284,348,15976,1,0,0:0:0:0:
244,344,16040,1,0,0:0:0:0:
208,328,16104,1,0,0:0:0:0:
188,296,16167,1,0,0:0:0:0:
184,260,16231,1,0,0:0:0:0:
188,220,16294,1,0,0:0:0:0:
184,176,16358,1,0,0:0:0:0:
160,136,16421,1,0,0:0:0:0:
120,112,16485,1,0,0:0:0:0:
72,108,16548,1,0,0:0:0:0:
28,128,16612,1,0,0:0:0:0:
0,168,16676,1,0,0:0:0:0:
0,216,16739,1,0,0:0:0:0:
20,260,16803,6,0,L|156:252,1,123.499994346619
432,284,17311,2,0,P|412:336|324:356,1,123.499994346619
116,132,17693,6,0,P|148:184|224:196,1,123.499994346619
460,112,18074,6,0,P|428:164|384:176,1,92.6249957599642
292,80,18328,2,0,P|324:28|368:16,1,92.6249957599642
376,92,18582,1,0,0:0:0:0:
316,344,18837,6,0,P|232:344|204:296,1,123.499994346619
104,60,19345,2,0,L|96:192,1,123.499994346619
336,208,19726,6,0,L|344:340,1,123.499994346619
236,208,20108,1,0,0:0:0:0:
468,144,20235,1,0,0:0:0:0:
220,92,20362,1,0,0:0:0:0:
384,244,20489,1,0,0:0:0:0:
152,136,20616,1,0,0:0:0:0:
460,60,20743,1,0,0:0:0:0:
276,28,20870,6,0,L|272:164,1,123.499994346619
152,336,21379,2,0,P|104:300|20:300,1,123.499994346619
360,320,21760,6,0,P|408:272|408:192,1,123.499994346619
168,48,22142,6,0,P|160:108|192:152,1,92.6249957599642
320,124,22396,2,0,P|328:64|296:20,1,92.6249957599642
244,88,22650,1,0,0:0:0:0:
116,320,22904,6,0,L|248:328,1,123.499994346619
468,92,23413,2,0,L|336:100,1,123.499994346619
104,324,23794,6,0,P|76:260|108:196,1,123.499994346619
204,48,24176,1,0,0:0:0:0:
388,160,24303,1,0,0:0:0:0:
388,160,24366,1,0,0:0:0:0:
388,160,24430,1,0,0:0:0:0:
112,252,24557,1,0,0:0:0:0:
308,44,24684,1,0,0:0:0:0:
324,356,24811,1,0,0:0:0:0:
120,120,24938,6,0,L|228:116,1,95
428,232,25193,1,0,0:0:0:0:
428,232,25256,1,0,0:0:0:0:
428,232,25320,1,0,0:0:0:0:
220,264,25447,1,0,0:0:0:0:
356,64,25574,1,0,0:0:0:0:
376,288,25701,1,0,0:0:0:0:
380,320,25765,1,0,0:0:0:0:
384,352,25828,1,0,0:0:0:0:
200,168,25955,5,0,0:0:0:0:
480,204,26082,2,0,L|416:196,1,47.5
200,168,26209,2,0,L|320:144,1,95
460,56,26464,6,0,L|412:48,1,47.5
200,124,26591,2,0,L|256:112,1,47.5
444,220,26718,2,0,L|380:212,1,47.5
244,324,26845,2,0,L|312:312,1,47.5
408,292,26972,5,0,0:0:0:0:
104,244,27099,1,0,0:0:0:0:
328,172,27226,1,0,0:0:0:0:
328,172,27290,1,0,0:0:0:0:
328,172,27354,1,0,0:0:0:0:
208,360,27481,1,0,0:0:0:0:
68,88,27608,1,0,0:0:0:0:
40,308,27735,1,0,0:0:0:0:
36,336,27798,1,0,0:0:0:0:
32,364,27862,1,0,0:0:0:0:
204,144,27989,1,0,0:0:0:0:
320,368,28116,2,0,L|315:320,1,47.5
300,144,28243,2,0,L|292:32,1,95
320,368,28498,6,0,L|315:320,1,47.5
220,76,28625,2,0,L|215:123,1,47.5
116,336,28752,2,0,L|111:288,1,47.5
40,132,28879,2,0,L|35:179,1,47.5
20,300,29006,1,0,0:0:0:0:
296,152,29133,1,0,0:0:0:0:
104,52,29260,1,0,0:0:0:0:
104,52,29324,1,0,0:0:0:0:
104,52,29387,1,0,0:0:0:0:
200,236,29515,1,0,0:0:0:0:
388,20,29642,1,0,0:0:0:0:
420,208,29769,1,0,0:0:0:0:
424,236,29832,1,0,0:0:0:0:
428,264,29896,1,0,0:0:0:0:
232,56,30023,5,0,0:0:0:0:
120,296,30150,2,0,L|112:372,1,47.5
208,196,30277,2,0,P|160:160|104:160,1,95
100,312,30531,6,0,L|92:388,1,47.5
320,188,30659,2,0,L|328:264,1,47.5
120,112,30786,2,0,L|112:188,1,47.5
244,44,30913,2,0,L|252:120,1,47.5
264,212,31040,5,0,0:0:0:0:
444,96,31167,1,0,0:0:0:0:
396,336,31294,1,0,0:0:0:0:
396,336,31358,1,0,0:0:0:0:
396,336,31421,1,0,0:0:0:0:
96,132,31548,6,0,L|143:134,1,47.5
448,164,31676,2,0,L|384:160,1,47.5
80,144,31803,6,0,L|127:146,1,47.5
464,180,31931,2,0,L|400:176,1,47.5
244,312,32057,5,0,0:0:0:0:
228,276,32120,1,0,0:0:0:0:
228,236,32184,1,0,0:0:0:0:
244,204,32248,1,0,0:0:0:0:
272,176,32311,1,0,0:0:0:0:
300,148,32375,1,0,0:0:0:0:
308,112,32438,1,0,0:0:0:0:
296,76,32502,1,0,0:0:0:0:
272,48,32565,5,0,0:0:0:0:
320,292,32693,1,0,0:0:0:0:
116,132,32820,1,0,0:0:0:0:
412,80,32947,1,0,0:0:0:0:
168,292,33074,6,0,P|129:279|92:232,1,95
188,32,33328,1,0,0:0:0:0:
360,248,33455,2,0,L|356:360,1,95
128,192,33709,1,0,0:0:0:0:
392,72,33837,2,0,P|432:104|456:160,1,95
412,332,34091,5,0,0:0:0:0:
152,232,34218,1,0,0:0:0:0:
312,104,34345,1,0,0:0:0:0:
308,144,34409,1,0,0:0:0:0:
304,180,34472,1,0,0:0:0:0:
104,332,34599,1,0,0:0:0:0:
176,60,34726,1,0,0:0:0:0:
296,348,34854,1,0,0:0:0:0:
296,348,34917,1,0,0:0:0:0:
296,348,34981,1,0,0:0:0:0:
157,142,35108,6,0,L|164:48,1,95
424,56,35362,1,0,0:0:0:0:
424,56,35426,1,0,0:0:0:0:
424,56,35489,1,0,0:0:0:0:
360,304,35616,1,0,0:0:0:0:
172,140,35743,1,0,0:0:0:0:
392,164,35870,1,0,0:0:0:0:
432,168,35934,1,0,0:0:0:0:
472,172,35998,1,0,0:0:0:0:
368,320,36125,5,0,0:0:0:0:
148,136,36252,1,0,0:0:0:0:
420,44,36379,1,0,0:0:0:0:
420,44,36443,1,0,0:0:0:0:
420,44,36506,1,0,0:0:0:0:
384,328,36633,2,0,L|392:220,1,95
192,28,36887,2,0,L|184:96,1,47.5
164,224,37015,1,0,0:0:0:0:
32,68,37142,6,0,L|40:188,1,95
224,348,37396,1,0,0:0:0:0:
224,348,37459,1,0,0:0:0:0:
224,348,37523,2,0,P|280:352|328:332,1,95
376,64,37777,1,0,0:0:0:0:
176,232,37904,1,0,0:0:0:0:
176,232,37968,1,0,0:0:0:0:
176,232,38031,1,0,0:0:0:0:
464,56,38159,5,0,0:0:0:0:
172,88,38286,1,0,0:0:0:0:
488,144,38413,1,0,0:0:0:0:
488,144,38476,1,0,0:0:0:0:
488,144,38540,1,0,0:0:0:0:
152,172,38667,5,0,0:0:0:0:
472,216,38794,1,0,0:0:0:0:
172,256,38921,1,0,0:0:0:0:
172,256,38985,1,0,0:0:0:0:
172,256,39048,1,0,0:0:0:0:
456,292,39176,6,0,L|356:280,1,95
104,232,39430,2,0,L|111:185,1,47.5
224,40,39557,2,0,P|256:84|264:136,1,95
228,312,39811,1,0,0:0:0:0:
104,120,39938,1,0,0:0:0:0:
404,156,40065,1,0,0:0:0:0:
228,312,40193,5,0,0:0:0:0:
204,284,40256,1,0,0:0:0:0:
196,248,40320,1,0,0:0:0:0:
204,212,40383,1,0,0:0:0:0:
228,180,40447,1,0,0:0:0:0:
264,164,40510,1,0,0:0:0:0:
304,168,40574,1,0,0:0:0:0:
336,192,40637,1,0,0:0:0:0:
352,228,40701,5,0,0:0:0:0:
332,184,40765,1,0,0:0:0:0:
332,136,40828,1,0,0:0:0:0:
364,100,40892,1,0,0:0:0:0:
408,88,40955,1,0,0:0:0:0:
452,104,41019,1,0,0:0:0:0:
476,144,41082,1,0,0:0:0:0:
476,192,41146,1,0,0:0:0:0:
448,232,41209,6,0,P|412:232|380:228,1,61.7499971733095
260,104,41464,2,0,P|278:133|290:164,1,61.7499971733095
236,324,41654,1,0,0:0:0:0:
236,324,41718,6,0,P|248:296|273:267,1,61.7499971733095
408,160,41972,1,0,0:0:0:0:
336,324,42099,5,0,0:0:0:0:
172,292,42226,1,0,0:0:0:0:
388,244,42354,1,0,0:0:0:0:
76,232,42481,5,0,0:0:0:0:
276,312,42608,1,0,0:0:0:0:
24,360,42735,1,0,0:0:0:0:
284,284,42862,5,0,0:0:0:0:
4,280,42989,1,0,0:0:0:0:
260,148,43116,1,0,0:0:0:0:
76,288,43243,6,0,L|80:216,1,61.7499971733095
172,36,43498,2,0,L|175:97,1,61.7499971733095
280,260,43688,1,0,0:0:0:0:
280,260,43752,6,0,L|276:198,1,61.7499971733095
272,52,44006,1,0,0:0:0:0:
432,252,44133,5,0,0:0:0:0:
408,48,44260,1,0,0:0:0:0:
348,304,44387,1,0,0:0:0:0:
216,140,44515,5,0,0:0:0:0:
348,304,44642,1,0,0:0:0:0:
416,40,44769,5,0,0:0:0:0:
352,312,44896,1,0,0:0:0:0:
204,128,45023,5,0,0:0:0:0:
360,324,45150,1,0,0:0:0:0:
432,36,45277,2,0,P|440:80|432:120,1,61.7499971733095
384,336,45531,2,0,P|354:327|328:311,1,61.7499971733095
168,156,45722,1,0,0:0:0:0:
168,156,45786,2,0,B|208:120|240:184|288:136,1,123.499994346619
376,40,46167,1,0,0:0:0:0:
416,284,46294,5,0,0:0:0:0:
372,24,46421,1,0,0:0:0:0:
400,292,46548,1,0,0:0:0:0:
356,24,46676,1,0,0:0:0:0:
252,325,46803,5,0,0:0:0:0:
283,140,46930,1,0,0:0:0:0:
263,330,47057,1,0,0:0:0:0:
294,140,47185,1,0,0:0:0:0:
448,256,47311,6,0,L|360:248,1,61.7499971733095
248,80,47565,2,0,L|336:72,1,61.7499971733095
156,244,47756,1,0,0:0:0:0:
144,248,47820,2,0,P|112:224|96:196,1,61.7499971733095
64,48,48074,1,0,0:0:0:0:
104,320,48201,5,0,0:0:0:0:
268,96,48328,1,0,0:0:0:0:
332,368,48455,1,0,0:0:0:0:
120,192,48582,1,0,0:0:0:0:
396,172,48709,1,0,0:0:0:0:
396,172,48773,1,0,0:0:0:0:
396,172,48837,5,0,0:0:0:0:
68,80,48964,1,0,0:0:0:0:
292,336,49091,1,0,0:0:0:0:
356,4,49218,1,0,0:0:0:0:
268,340,49345,6,0,P|205:338|160:304,1,109.250002083778
76,176,49536,1,0,0:0:0:0:
76,176,49599,1,0,0:0:0:0:
324,60,49726,1,0,0:0:0:0:
288,332,49854,1,0,0:0:0:0:
64,168,49981,1,0,0:0:0:0:
400,212,50108,1,0,0:0:0:0:
116,64,50235,1,0,0:0:0:0:
108,96,50298,1,0,0:0:0:0:
100,132,50362,6,0,L|108:288,1,137.750004203797
376,336,50616,1,0,0:0:0:0:
420,324,50680,1,0,0:0:0:0:
452,296,50743,1,0,0:0:0:0:
468,256,50807,1,0,0:0:0:0:
476,212,50870,6,0,P|476:164|460:88,1,109.250002083778
160,304,51125,1,0,0:0:0:0:
119,282,51189,1,0,0:0:0:0:
94,247,51252,1,0,0:0:0:0:
88,205,51316,1,0,0:0:0:0:
90,160,51379,6,0,P|102:106|124:57,1,109.250002083778
412,328,51633,2,0,L|304:316,1,109.250002083778
240,132,51887,2,0,L|348:120,1,109.250002083778
192,264,52142,1,0,0:0:0:0:
84,108,52269,1,0,0:0:0:0:
64,360,52396,6,0,P|124:364|168:336,1,109.250002083778
328,76,52650,1,0,0:0:0:0:
360,292,52777,1,0,0:0:0:0:
172,180,52904,2,0,L|164:52,1,109.250002083778
344,72,53159,1,0,0:0:0:0:
288,352,53286,1,0,0:0:0:0:
64,176,53413,6,0,L|57:66,1,109.250002083778
304,56,53667,1,0,0:0:0:0:
168,296,53794,1,0,0:0:0:0:
440,224,53921,1,0,0:0:0:0:
144,96,54048,1,0,0:0:0:0:
320,356,54176,1,0,0:0:0:0:
380,40,54303,1,0,0:0:0:0:
128,260,54430,6,0,P|192:260|248:232,1,109.250002083778
460,108,54684,1,0,0:0:0:0:
440,68,54748,1,0,0:0:0:0:
400,52,54811,1,0,0:0:0:0:
356,52,54875,1,0,0:0:0:0:
316,68,54938,6,0,P|308:128|304:188,1,109.250002083778
44,228,55193,1,0,0:0:0:0:
64,188,55257,1,0,0:0:0:0:
104,172,55320,1,0,0:0:0:0:
148,172,55384,1,0,0:0:0:0:
188,188,55447,6,0,P|196:248|200:308,1,109.250002083778
352,104,55701,1,0,0:0:0:0:
296,348,55828,1,0,0:0:0:0:
208,96,55955,1,0,0:0:0:0:
452,232,56082,1,0,0:0:0:0:
160,208,56209,1,0,0:0:0:0:
472,204,56337,1,0,0:0:0:0:
136,228,56464,6,0,L|284:220,1,137.750004203797
440,64,56718,6,0,L|344:56,1,71.2500027179719
168,108,56972,1,0,0:0:0:0:
412,208,57099,1,0,0:0:0:0:
128,280,57226,1,0,0:0:0:0:
300,44,57354,1,0,0:0:0:0:
324,348,57481,6,0,P|317:293|312:224,1,109.250002083778
352,60,57735,1,0,0:0:0:0:
196,256,57862,1,0,0:0:0:0:
64,40,57989,2,0,P|124:28|192:24,1,109.250002083778
444,200,58243,2,0,P|389:195|336:184,1,109.250002083778
80,352,58498,6,0,P|134:347|187:336,1,109.250002083778
328,72,58752,1,0,0:0:0:0:
380,340,58879,1,0,0:0:0:0:
152,192,59006,1,0,0:0:0:0:
472,168,59133,1,0,0:0:0:0:
260,340,59260,2,0,L|256:220,1,109.250002083778
312,40,59515,5,0,0:0:0:0:
300,232,59642,1,0,0:0:0:0:
144,128,59769,2,0,P|96:102|42:102,1,109.250002083778
240,336,60023,2,0,P|294:336|341:310,1,109.250002083778
408,40,60277,2,0,L|396:156,1,109.250002083778
124,328,60531,6,0,L|112:219,1,109.250002083778
