osu file format v14

[General]
AudioFilename: audio.mp3
AudioLeadIn: 0
PreviewTime: 47675
Countdown: 0
SampleSet: Soft
StackLeniency: 0.7
Mode: 0
LetterboxInBreaks: 0
WidescreenStoryboard: 0

[Editor]
DistanceSpacing: 1.6
BeatDivisor: 6
GridSize: 32
TimelineZoom: 3.299999

[Metadata]
Title:Sunday Sunday Fruit Fool
TitleUnicode:サンデーサンデー・フルーツフール
Artist:Elu, SisterCleaire
ArtistUnicode:える、シスター・クレア
Creator:Yugu
Version:Sweet
Source:
Tags:SMASH The PAINT!! 八城雄太 Yuta Yashiro 石濱 翔 MONACA Ishihama Kakeru Vtuber virtual youtuber バーチャルyoutuber 2434 seeds スノー・ホワイト・パラダイス・エルサント・フロウ・ワスレナ・ピュア・プリンセス・リーブル・ラブ・ハイデルン・ドコドコ・ヤッタゼ・ヴァルキュリア・パッション・アールヴ・ノエル・チャコボシ・エルアリア・フロージア・メイドイン・ブルーム・エル japanese pop
BeatmapID:2323588
BeatmapSetID:1112138

[Difficulty]
HPDrainRate:6
CircleSize:5
OverallDifficulty:7
ApproachRate:8
SliderMultiplier:1.4
SliderTickRate:1

[Events]
//Background and Video events
0,0,"71006761_p0.png",0,0
//Break Periods
//Storyboard Layer 0 (Background)
//Storyboard Layer 1 (Fail)
//Storyboard Layer 2 (Pass)
//Storyboard Layer 3 (Foreground)
//Storyboard Layer 4 (Overlay)
//Storyboard Sound Samples

[TimingPoints]
14,483.870967741935,4,2,1,40,1,0
376,-100,4,2,1,10,0,0
497,-100,4,2,1,40,0,0
1465,-100,4,2,1,40,0,0
4247,-100,4,2,1,10,0,0
4368,-100,4,2,1,40,0,0
5215,-100,4,2,1,10,0,0
5336,-100,4,2,1,40,0,0
6788,-100,4,2,1,60,0,0
7755,-83.3333333333333,4,2,1,60,0,0
8118,-83.3333333333333,4,2,1,10,0,0
8239,-83.3333333333333,4,2,1,60,0,0
10901,-83.3333333333333,4,2,0,60,0,0
11143,-83.3333333333333,4,2,1,60,0,0
11384,-83.3333333333333,4,2,0,60,0,0
11626,-83.3333333333333,4,2,1,60,0,0
11989,-83.3333333333333,4,2,1,10,0,0
12110,-83.3333333333333,4,2,1,60,0,0
15497,-83.3333333333333,4,2,1,50,0,0
18763,-83.3333333333333,4,2,1,10,0,0
18884,-83.3333333333333,4,2,1,50,0,0
19247,-83.3333333333333,4,2,1,10,0,0
19368,-83.3333333333333,4,2,1,50,0,0
20820,-100,4,2,1,50,0,0
21183,-83.3333333333333,4,2,1,50,0,0
22634,-83.3333333333333,4,2,1,10,0,0
22755,-83.3333333333333,4,2,1,50,0,0
23118,-83.3333333333333,4,2,1,10,0,0
23239,-83.3333333333333,4,2,1,50,0,0
26505,-83.3333333333333,4,2,1,10,0,0
26626,-83.3333333333333,4,2,1,50,0,0
26989,-83.3333333333333,4,2,1,10,0,0
27110,-83.3333333333333,4,2,1,50,0,0
30981,-83.3333333333333,4,2,1,70,0,0
40901,-83.3333333333333,4,2,0,70,0,0
41143,-83.3333333333333,4,2,1,70,0,0
41384,-83.3333333333333,4,2,0,70,0,0
41626,-83.3333333333333,4,2,1,70,0,0
41868,-83.3333333333333,4,2,0,70,0,0
41989,-83.3333333333333,4,2,1,70,0,0
42352,-83.3333333333333,4,2,0,70,0,0
42473,-83.3333333333333,4,2,1,70,0,0
42594,-200,4,2,1,40,0,0
46223,-100,4,2,1,60,0,0
46707,-76.9230769230769,4,2,1,60,0,0
47554,-100,4,2,1,60,0,0
48401,-83.3333333333333,4,2,1,80,0,0
65578,-200,4,2,1,60,0,0
69933,-100,4,2,1,40,0,0
71143,-100,4,2,0,40,0,0
71263,-100,4,2,1,40,0,0
71626,-83.3333333333333,4,2,1,60,0,0
71989,-83.3333333333333,4,2,1,10,0,0
72110,-83.3333333333333,4,2,1,60,0,0
74772,-83.3333333333333,4,2,0,60,0,0
75013,-83.3333333333333,4,2,1,60,0,0
75255,-83.3333333333333,4,2,0,60,0,0
75496,-83.3333333333333,4,2,1,60,0,0
75860,-83.3333333333333,4,2,1,10,0,0
75981,-83.3333333333333,4,2,1,60,0,0
78643,-83.3333333333333,4,2,0,60,0,0
78884,-83.3333333333333,4,2,1,60,0,0
79731,-83.3333333333333,4,2,1,10,0,0
79852,-83.3333333333333,4,2,1,60,0,0
82513,-83.3333333333333,4,2,0,60,0,0
82754,-83.3333333333333,4,2,1,60,0,0
82997,-83.3333333333333,4,2,0,60,0,0
83238,-83.3333333333333,4,2,1,60,0,0
83602,-83.3333333333333,4,2,1,10,0,0
83723,-83.3333333333333,4,2,1,60,0,0

[Colours]
Combo1 : 223,198,168
Combo2 : 226,54,79

[HitObjects]
87,90,14,6,0,P|137:101|157:148,1,105,8|0,0:0|0:0,0:0:0:0:
142,179,497,1,10,0:0:0:0:
53,234,860,2,0,P|47:285|136:317,1,140,2|0,0:0|0:0,0:0:0:0:
143,302,1465,1,10,0:0:0:0:
211,222,1828,2,0,P|252:246|261:313,1,105,2|2,0:0|0:0,0:0:0:0:
338,273,2433,5,8,0:0:0:0:
338,273,2554,2,0,L|389:269,2,35,0|0|0,0:0|0:0|0:0,0:0:0:0:
404,276,2917,2,0,P|415:309|402:341,2,70,10|2|10,0:0|0:0|0:0,0:0:0:0:
256,192,3643,1,2,3:0:0:0:
256,192,3763,1,2,3:0:0:0:
256,192,3884,6,0,L|256:69,1,105,8|0,0:0|0:0,0:0:0:0:
256,51,4368,1,10,0:0:0:0:
350,6,4731,2,0,P|415:21|430:86,1,140,2|0,0:0|0:0,0:0:0:0:
400,103,5336,1,10,0:0:0:0:
316,166,5699,2,0,P|323:216|368:239,1,105,2|2,0:0|0:0,0:0:0:0:
440,254,6304,5,8,0:0:0:0:
440,254,6425,2,0,L|480:245,2,35,2|0|0,0:0|0:0|0:0,0:0:0:0:
354,319,6788,5,2,0:0:0:0:
308,313,6909,1,2,0:0:0:0:
135,243,7272,5,2,0:0:0:0:
89,249,7393,1,2,0:0:0:0:
183,138,7755,6,0,P|195:91|187:5,1,125.999996154785,12|0,0:0|0:0,0:0:0:0:
148,0,8239,2,0,P|181:24|222:33,1,83.9999974365235,2|0,1:2|0:0,0:0:0:0:
260,13,8602,1,2,0:0:0:0:
260,13,8723,2,0,L|349:6,1,83.9999974365235,8|0,0:0|0:0,0:0:0:0:
427,81,9207,2,0,P|400:137|394:200,1,125.999996154785,2|2,1:2|0:0,0:0:0:0:
422,231,9691,2,0,L|505:221,1,83.9999974365235,8|2,0:0|0:0,0:0:0:0:
404,332,10175,5,0,1:0:0:0:
404,332,10296,2,0,L|345:325,2,41.9999987182618,0|0|0,0:0|0:0|0:0,0:0:0:0:
466,293,10659,5,8,0:0:0:0:
295,319,10901,1,8,0:0:0:0:
170,234,11143,1,0,1:0:0:0:
341,260,11384,1,8,0:0:0:0:
269,76,11626,6,0,P|243:133|229:194,1,125.999996154785,8|0,0:0|0:0,0:0:0:0:
255,226,12110,2,0,P|268:266|272:308,1,83.9999974365235,2|0,1:2|0:0,0:0:0:0:
240,337,12473,1,2,0:0:0:0:
240,337,12594,2,0,L|147:325,1,83.9999974365235,8|0,0:0|0:0,0:0:0:0:
42,271,13078,2,0,P|57:211|93:160,1,125.999996154785,2|2,1:2|0:0,0:0:0:0:
135,153,13562,1,8,0:0:0:0:
31,27,13804,5,8,0:3:0:0:
32,39,13925,1,8,0:3:0:0:
33,51,14046,1,8,1:3:0:0:
34,63,14167,1,8,0:3:0:0:
36,75,14288,2,0,L|30:129,1,41.9999987182618,8|8,0:3|0:3,0:0:0:0:
132,132,14530,2,0,L|135:153,2,20.9999993591309,8|2|2,0:2|3:0|3:0,0:0:0:0:
112,225,14772,1,2,3:0:0:0:
112,225,14893,1,2,3:0:0:0:
112,225,15013,5,0,1:0:0:0:
158,220,15134,1,0,1:0:0:0:
204,216,15255,1,0,1:0:0:0:
250,212,15376,1,0,1:0:0:0:
296,208,15497,5,8,0:0:0:0:
356,156,15981,5,8,0:1:0:0:
415,323,16344,1,8,0:0:0:0:
475,271,16949,5,8,0:1:0:0:
265,315,17312,1,8,0:0:0:0:
221,105,17675,1,0,0:0:0:0:
291,137,17917,1,8,0:1:0:0:
290,145,18038,1,0,0:0:0:0:
289,153,18159,1,0,0:0:0:0:
288,161,18280,1,0,0:0:0:0:
286,168,18401,6,0,P|251:118|251:56,1,125.999996154785,10|0,0:0|0:0,0:0:0:0:
323,32,18884,2,0,P|358:82|358:144,1,125.999996154785,10|0,0:0|0:0,0:0:0:0:
343,219,19368,5,8,0:0:0:0:
275,272,19852,5,8,0:1:0:0:
64,230,20215,1,8,0:0:0:0:
205,68,20578,1,0,0:0:0:0:
259,118,20820,2,0,P|260:153|244:184,1,70,8|0,0:1|0:0,0:0:0:0:
212,198,21183,5,8,0:0:0:0:
73,34,21546,1,0,0:0:0:0:
14,81,21788,2,0,P|17:122|30:162,1,83.9999974365235,8|0,0:1|0:0,0:0:0:0:
92,228,22272,6,0,P|86:288|117:342,1,125.999996154785,10|0,0:0|0:0,0:0:0:0:
192,327,22755,2,0,P|197:266|166:212,1,125.999996154785,10|0,0:0|0:0,0:0:0:0:
116,155,23239,5,8,0:0:0:0:
144,75,23723,5,8,0:1:0:0:
351,127,24086,1,8,0:0:0:0:
323,207,24691,5,8,0:1:0:0:
256,3,25054,1,8,0:0:0:0:
189,207,25417,1,0,0:0:0:0:
235,147,25659,1,8,0:1:0:0:
227,144,25780,1,0,0:0:0:0:
219,141,25901,1,0,0:0:0:0:
211,138,26022,1,0,0:0:0:0:
203,135,26143,6,0,L|58:141,1,125.999996154785,10|0,0:0|0:0,0:0:0:0:
63,212,26626,2,0,L|188:206,1,125.999996154785,10|0,0:0|0:0,0:0:0:0:
250,252,27110,5,8,0:0:0:0:
327,216,27594,5,8,0:1:0:0:
479,366,27957,1,8,0:0:0:0:
495,152,28320,1,0,0:0:0:0:
435,105,28562,2,0,P|419:144|426:184,1,83.9999974365235,8|0,0:1|0:0,0:0:0:0:
484,224,28925,1,8,0:0:0:0:
484,224,29288,6,0,L|479:261,3,27.9999991455078,0|0|0|8,1:0|1:0|1:0|0:0,0:0:0:0:
423,300,29651,1,2,3:0:0:0:
423,300,29772,2,0,L|361:293,1,41.9999987182618,0|8,1:0|0:0,0:0:0:0:
324,234,30013,5,8,0:0:0:0:
302,231,30134,1,8,0:3:0:0:
281,233,30255,1,8,0:3:0:0:
262,242,30376,1,8,0:3:0:0:
245,254,30497,1,8,0:0:0:0:
228,266,30618,1,8,0:3:0:0:
208,275,30739,1,8,0:3:0:0:
188,277,30860,1,8,0:3:0:0:
167,274,30981,6,0,P|149:220|190:104,1,167.999994873047,12|8,0:0|0:1,0:0:0:0:
256,32,31707,1,0,0:0:0:0:
344,274,31949,2,0,P|363:214|352:152,2,125.999996154785,10|2|2,0:0|0:0|0:0,0:0:0:0:
256,352,32917,5,8,0:0:0:0:
423,276,33159,1,0,0:0:0:0:
255,192,33401,2,0,P|239:230|243:271,1,83.9999974365235,8|0,0:1|0:0,0:0:0:0:
334,114,33884,1,8,0:0:0:0:
334,114,34005,2,0,L|270:100,2,41.9999987182618,2|2|2,3:0|3:0|3:0,0:0:0:0:
256,31,34368,1,8,0:1:0:0:
256,31,34489,2,0,L|192:45,2,41.9999987182618,2|2|2,3:0|3:0|3:0,0:0:0:0:
142,121,34852,6,0,P|64:93|20:23,1,167.999994873047,12|8,0:0|0:1,0:0:0:0:
32,192,35578,1,0,0:0:0:0:
20,360,35820,2,0,P|48:304|101:271,2,125.999996154785,10|2|2,0:0|0:0|0:0,0:0:0:0:
172,293,36788,5,8,0:0:0:0:
119,138,37030,1,0,0:0:0:0:
116,348,37272,2,0,P|152:367|194:368,1,83.9999974365235,8|0,0:1|0:0,0:0:0:0:
251,239,37755,5,8,0:0:0:0:
251,239,37876,2,0,L|266:279,2,41.9999987182618,2|2|2,3:0|3:0|3:0,0:0:0:0:
251,144,38239,1,8,0:1:0:0:
251,144,38360,2,0,L|266:104,2,41.9999987182618,2|2|2,3:0|3:0|3:0,0:0:0:0:
304,192,38723,6,0,L|496:192,1,167.999994873047,12|8,0:0|0:1,0:0:0:0:
493,281,39449,1,0,0:0:0:0:
493,103,39691,2,0,L|358:103,2,125.999996154785,10|2|2,0:0|0:0|0:0,0:0:0:0:
416,192,40659,5,8,0:0:0:0:
454,32,40901,1,8,0:0:0:0:
313,50,41143,2,0,P|295:87|296:129,1,83.9999974365235,8|8,0:1|0:0,0:0:0:0:
217,206,41626,1,8,0:0:0:0:
217,206,41747,2,0,L|158:218,2,41.9999987182618,2|8|2,3:0|0:0|3:0,0:0:0:0:
165,311,42110,1,8,0:1:0:0:
165,311,42231,2,0,L|125:265,2,41.9999987182618,2|8|2,3:0|0:0|3:0,0:0:0:0:
48,318,42594,6,0,P|66:238|96:174,2,140,10|2|0,0:0|0:0|0:0,0:0:0:0:
61,129,46223,6,0,L|32:112,2,23.3333333333333,0|0|0,1:0|1:0|1:0,0:0:0:0:
70,142,46465,2,0,L|79:198,1,35,0|0,1:0|1:0,0:0:0:0:
95,281,46707,6,0,P|112:239|143:206,1,90.9999958343508,14|0,0:0|0:0,0:0:0:0:
145,110,47070,2,0,P|189:104|234:114,1,90.9999958343508,14|0,0:0|0:0,0:0:0:0:
337,27,47433,5,14,0:0:0:0:
330,48,47554,2,0,L|304:40,1,17.5,8|8,0:3|0:3,0:0:0:0:
324,70,47675,1,8,0:3:0:0:
318,92,47796,1,8,0:3:0:0:
313,114,47917,1,8,0:3:0:0:
309,137,48038,1,8,0:0:0:0:
305,159,48159,1,8,0:0:0:0:
302,182,48280,1,8,0:0:0:0:
299,204,48401,6,0,P|311:243|319:303,1,83.9999974365235,14|0,0:0|0:0,0:0:0:0:
409,92,48884,1,0,1:0:0:0:
213,204,49126,1,0,0:0:0:0:
213,204,49247,1,0,0:0:0:0:
213,204,49368,6,0,P|201:243|193:303,1,83.9999974365235,10|0,0:0|0:0,0:0:0:0:
103,92,49852,1,0,1:0:0:0:
256,0,50094,1,0,0:0:0:0:
256,0,50215,1,0,0:0:0:0:
256,0,50336,6,0,L|256:106,1,83.9999974365235,10|0,0:0|0:0,0:0:0:0:
306,129,50699,1,2,0:0:0:0:
306,129,50820,2,0,L|361:141,1,41.9999987182618,0|0,1:0|0:0,0:0:0:0:
436,86,51062,2,0,P|433:44|413:8,2,83.9999974365235,2|8|0,0:0|0:0|0:0,0:0:0:0:
382,243,51788,1,0,1:0:0:0:
382,243,51909,2,0,L|437:255,1,41.9999987182618
406,348,52151,1,0,0:0:0:0:
387,329,52272,6,0,P|427:317|467:327,1,83.9999974365235,8|0,0:0|0:0,0:0:0:0:
125,329,52755,2,0,P|84:317|44:327,1,83.9999974365235,0|0,1:0|0:0,0:0:0:0:
256,223,53239,2,0,P|270:163|255:102,1,125.999996154785,8|0,0:0|0:0,0:0:0:0:
256,72,53723,1,0,1:0:0:0:
156,201,53965,1,0,0:0:0:0:
356,201,54207,5,8,0:0:0:0:
256,330,54449,1,0,0:0:0:0:
83,220,54691,2,0,P|85:178|106:142,1,83.9999974365235,0|0,1:0|0:0,0:0:0:0:
405,142,55175,2,0,P|426:178|429:220,1,83.9999974365235,10|0,0:0|0:0,0:0:0:0:
256,330,55659,2,0,L|256:234,1,83.9999974365235,2|0,1:2|0:0,0:0:0:0:
317,98,56143,6,0,P|311:139|298:180,1,83.9999974365235,10|0,0:0|0:0,0:0:0:0:
103,292,56626,1,0,1:0:0:0:
194,98,56868,1,0,0:0:0:0:
194,98,56989,1,0,0:0:0:0:
194,98,57110,6,0,P|200:139|213:180,1,83.9999974365235,10|0,0:0|0:0,0:0:0:0:
409,292,57594,1,0,1:0:0:0:
256,384,57836,1,0,0:0:0:0:
396,220,58078,6,0,P|455:236|482:292,1,125.999996154785,10|2,0:0|0:0,0:0:0:0:
475,321,58562,1,0,1:0:0:0:
321,251,58804,2,0,P|317:209|329:169,1,83.9999974365235,2|8,0:0|0:0,0:0:0:0:
461,62,59288,1,0,0:0:0:0:
270,27,59530,1,0,1:0:0:0:
270,27,59651,2,0,L|194:14,1,41.9999987182618,0|0,0:0|0:0,0:0:0:0:
207,118,59893,1,0,0:0:0:0:
198,93,60013,6,0,P|239:92|275:113,1,83.9999974365235,10|0,0:0|0:0,0:0:0:0:
219,315,60497,2,0,P|177:315|141:294,1,83.9999974365235,0|0,1:0|0:0,0:0:0:0:
61,131,60981,2,0,P|56:89|47:48,1,83.9999974365235,10|0,0:0|0:0,0:0:0:0:
110,7,61344,1,2,0:0:0:0:
110,7,61465,2,0,P|129:15|149:18,1,41.9999987182618,0|0,1:0|0:0,0:0:0:0:
237,85,61707,2,0,P|276:70|317:62,1,83.9999974365235,2|8,0:0|0:0,0:0:0:0:
425,144,62191,5,0,0:0:0:0:
399,0,62433,1,0,1:0:0:0:
398,0,62554,2,0,P|389:19|385:39,1,41.9999987182618,0|0,0:0|0:0,0:0:0:0:
332,131,62796,1,0,0:0:0:0:
332,130,62917,2,0,P|347:169|353:210,1,83.9999974365235,8|0,0:0|0:0,0:0:0:0:
216,349,63401,1,0,1:0:0:0:
216,349,63522,2,0,L|162:334,1,41.9999987182618,0|0,0:0|0:0,0:0:0:0:
171,242,63763,1,0,0:0:0:0:
192,222,63884,6,0,P|226:244|240:283,1,83.9999974365235,10|0,0:0|0:0,0:0:0:0:
20,209,64368,1,0,1:0:0:0:
118,67,64610,1,0,0:0:0:0:
270,183,64852,2,0,P|291:123|322:69,1,125.999996154785,10|10,0:0|0:0,0:0:0:0:
350,58,65336,1,2,0:0:0:0:
366,282,65578,6,0,P|383:331|408:377,1,105,14|0,0:0|0:0,0:0:0:0:
256,192,66425,12,2,67755,0:0:0:0:
256,192,67876,12,2,69449,0:0:0:0:
246,116,69933,6,0,L|238:153,2,23.3333333333333,0|0|0,1:0|1:0|1:0,0:0:0:0:
256,104,70175,2,0,L|310:115,1,35,0|0,1:0|1:0,0:0:0:0:
218,11,70417,2,0,L|207:65,1,35,0|0,1:0|1:0,0:0:0:0:
136,154,70659,5,8,0:0:0:0:
118,151,70780,1,8,0:3:0:0:
101,146,70901,1,8,0:0:0:0:
85,138,71022,1,8,0:3:0:0:
71,127,71143,2,0,P|64:83|41:7,1,105,8|0,0:0|0:0,0:0:0:0:
129,34,71626,6,0,P|191:32|250:11,1,125.999996154785,12|0,0:0|0:0,0:0:0:0:
287,32,72110,2,0,P|301:74|298:119,1,83.9999974365235,2|0,1:2|0:0,0:0:0:0:
271,145,72473,1,2,0:0:0:0:
271,145,72594,2,0,P|257:187|260:232,1,83.9999974365235,8|0,0:0|0:0,0:0:0:0:
460,360,73078,2,0,P|470:298|451:239,1,125.999996154785,2|2,1:2|0:0,0:0:0:0:
410,229,73562,2,0,L|318:242,1,83.9999974365235,8|2,0:0|0:0,0:0:0:0:
174,349,74046,5,0,1:0:0:0:
174,349,74167,2,0,L|115:342,2,41.9999987182618,0|0|0,0:0|0:0|0:0,0:0:0:0:
240,318,74530,5,8,0:0:0:0:
104,210,74772,1,8,0:0:0:0:
226,196,75013,1,0,1:0:0:0:
118,332,75255,1,8,0:0:0:0:
24,181,75497,6,0,P|46:122|86:73,1,125.999996154785,8|0,0:0|0:0,0:0:0:0:
126,59,75981,2,0,P|167:61|207:76,1,83.9999974365235,2|0,1:2|0:0,0:0:0:0:
238,104,76344,1,2,0:0:0:0:
238,104,76465,2,0,L|327:92,1,83.9999974365235,8|0,0:0|0:0,0:0:0:0:
414,185,76949,2,0,P|399:245|363:296,1,125.999996154785,2|2,1:2|0:0,0:0:0:0:
321,303,77433,1,8,0:0:0:0:
190,225,77675,5,2,0:0:0:0:
190,225,77796,2,0,L|177:155,1,41.9999987182618,0|0,0:0|1:0,0:0:0:0:
322,225,78038,1,0,0:0:0:0:
322,225,78159,2,0,L|335:155,1,41.9999987182618,0|0,0:0|0:0,0:0:0:0:
256,128,78401,5,10,0:0:0:0:
256,320,78643,1,8,0:0:0:0:
65,247,78884,1,2,1:2:0:0:
53,202,79005,1,0,1:0:0:0:
60,157,79126,1,0,1:0:0:0:
86,119,79247,1,0,1:0:0:0:
125,95,79368,6,0,P|182:73|201:15,1,125.999996154785,8|0,0:0|0:0,0:0:0:0:
161,0,79852,2,0,P|172:39|206:64,1,83.9999974365235,2|0,1:2|0:0,0:0:0:0:
248,65,80215,1,2,0:0:0:0:
248,65,80336,2,0,L|348:50,1,83.9999974365235,8|0,0:0|0:0,0:0:0:0:
387,180,80820,2,0,P|437:142|496:119,1,125.999996154785,2|2,1:2|0:0,0:0:0:0:
496,162,81304,2,0,P|486:202|484:244,1,83.9999974365235,8|2,0:0|0:0,0:0:0:0:
401,356,81788,5,0,1:0:0:0:
401,356,81909,2,0,P|396:335|389:315,2,41.9999987182618,0|0|0,0:0|0:0|0:0,0:0:0:0:
320,328,82272,5,8,0:0:0:0:
300,207,82513,1,8,0:0:0:0:
415,250,82755,1,0,1:0:0:0:
205,285,82997,1,8,0:0:0:0:
128,153,83239,6,0,P|118:91|93:33,1,125.999996154785,8|0,0:0|0:0,0:0:0:0:
59,57,83723,2,0,P|34:90|19:129,1,83.9999974365235,2|0,1:2|0:0,0:0:0:0:
40,166,84086,1,2,0:0:0:0:
40,166,84207,2,0,L|52:267,1,83.9999974365235,8|0,0:0|0:0,0:0:0:0:
153,348,84691,2,0,P|214:339|261:298,1,125.999996154785,2|2,1:2|0:0,0:0:0:0:
268,256,85175,1,8,0:0:0:0:
182,142,85417,5,8,0:3:0:0:
178,114,85538,1,8,0:3:0:0:
187,86,85659,1,8,1:3:0:0:
208,67,85780,1,8,0:3:0:0:
237,60,85901,1,8,0:3:0:0:
265,68,86022,1,8,0:3:0:0:
286,88,86143,2,0,L|319:85,2,20.9999993591309,8|2|2,0:0|0:3|0:3,0:0:0:0:
376,22,86384,5,0,1:0:0:0:
376,22,86505,1,2,0:3:0:0:
376,22,86626,5,0,1:0:0:0:
372,68,86747,1,0,1:0:0:0:
369,114,86868,1,0,1:0:0:0:
366,160,86989,1,0,1:0:0:0:
363,206,87110,5,10,0:0:0:0:
400,376,87473,1,10,0:0:0:0:
