osu file format v14

[General]
AudioFilename: audio.mp3
AudioLeadIn: 0
PreviewTime: 47675
Countdown: 0
SampleSet: Soft
StackLeniency: 0.7
Mode: 0
LetterboxInBreaks: 0
WidescreenStoryboard: 1

[Editor]
Bookmarks: 16949
DistanceSpacing: 1.2
BeatDivisor: 4
GridSize: 32
TimelineZoom: 2.7

[Metadata]
Title:Sunday Sunday Fruit Fool
TitleUnicode:サンデーサンデー・フルーツフール
Artist:Elu, SisterCleaire
ArtistUnicode:える、シスター・クレア
Creator:Yugu
Version:Normal
Source:
Tags:SMASH The PAINT!! 八城雄太 Yuta Yashiro 石濱 翔 MONACA Ishihama Kakeru Vtuber virtual youtuber バーチャルyoutuber 2434 seeds スノー・ホワイト・パラダイス・エルサント・フロウ・ワスレナ・ピュア・プリンセス・リーブル・ラブ・ハイデルン・ドコドコ・ヤッタゼ・ヴァルキュリア・パッション・アールヴ・ノエル・チャコボシ・エルアリア・フロージア・メイドイン・ブルーム・エル japanese pop
BeatmapID:2323587
BeatmapSetID:1112138

[Difficulty]
HPDrainRate:4
CircleSize:3.5
OverallDifficulty:4
ApproachRate:5
SliderMultiplier:1.3
SliderTickRate:1

[Events]
//Background and Video events
0,0,"79364952_p0.png",0,0
//Break Periods
//Storyboard Layer 0 (Background)
//Storyboard Layer 1 (Fail)
//Storyboard Layer 2 (Pass)
//Storyboard Layer 3 (Foreground)
//Storyboard Layer 4 (Overlay)
//Storyboard Sound Samples

[TimingPoints]
14,483.870967741935,4,2,1,40,1,0
376,-100,4,2,1,10,0,0
497,-100,4,2,1,40,0,0
1344,-100,4,2,1,10,0,0
1465,-100,4,2,1,40,0,0
4247,-100,4,2,1,10,0,0
4368,-100,4,2,1,40,0,0
5215,-100,4,2,1,10,0,0
5336,-100,4,2,1,40,0,0
6788,-100,4,2,1,60,0,0
7755,-100,4,2,1,60,0,0
8118,-100,4,2,1,10,0,0
8239,-100,4,2,1,60,0,0
10901,-100,4,2,0,60,0,0
11143,-100,4,2,1,60,0,0
11384,-100,4,2,0,60,0,0
11626,-100,4,2,1,60,0,0
11989,-100,4,2,1,10,0,0
12110,-100,4,2,1,60,0,0
15497,-100,4,2,1,50,0,0
18763,-100,4,2,1,10,0,0
18884,-100,4,2,1,50,0,0
19247,-100,4,2,1,10,0,0
19368,-100,4,2,1,50,0,0
20820,-100,4,2,1,50,0,0
21183,-100,4,2,1,50,0,0
22634,-100,4,2,1,10,0,0
22755,-100,4,2,1,50,0,0
23118,-100,4,2,1,10,0,0
23239,-100,4,2,1,50,0,0
26505,-100,4,2,1,10,0,0
26626,-100,4,2,1,50,0,0
26989,-100,4,2,1,10,0,0
27110,-100,4,2,1,50,0,0
30981,-100,4,2,1,70,0,0
42594,-100,4,2,1,40,0,0
46223,-100,4,2,1,60,0,0
46707,-100,4,2,1,60,0,0
47554,-100,4,2,1,60,0,0
48401,-100,4,2,1,80,0,0
65578,-100,4,2,1,60,0,0
69933,-100,4,2,1,40,0,0
71143,-100,4,2,0,40,0,0
71626,-100,4,2,1,60,0,0
71989,-100,4,2,1,10,0,0
72110,-100,4,2,1,60,0,0
74772,-100,4,2,0,60,0,0
75013,-100,4,2,1,60,0,0
75255,-100,4,2,0,60,0,0
75496,-100,4,2,1,60,0,0
75860,-100,4,2,1,10,0,0
75981,-100,4,2,1,60,0,0
78643,-100,4,2,0,60,0,0
78884,-100,4,2,1,60,0,0
79731,-100,4,2,1,10,0,0
79852,-100,4,2,1,60,0,0
82513,-100,4,2,0,60,0,0
82754,-100,4,2,1,60,0,0
82997,-100,4,2,0,60,0,0
83238,-100,4,2,1,60,0,0
83602,-100,4,2,1,10,0,0
83723,-100,4,2,1,60,0,0

[Colours]
Combo1 : 223,198,168
Combo2 : 226,54,79

[HitObjects]
105,59,14,6,0,P|164:82|202:134,1,130,8|10,0:0|0:0,0:0:0:0:
210,251,860,1,2,0:0:0:0:
401,286,1465,2,0,P|441:313|466:354,2,97.5,10|2|2,0:0|0:0|0:0,0:0:0:0:
185,194,2917,6,0,L|101:186,1,65,8|0,0:0|0:0,0:0:0:0:
75,123,3401,2,0,L|83:39,1,65,8|2,0:0|3:0,0:0:0:0:
140,7,3884,6,0,P|201:25|250:68,1,130,8|10,0:0|0:0,0:0:0:0:
366,81,4731,1,2,0:0:0:0:
258,243,5336,2,0,P|238:287|231:335,2,97.5,10|2|2,0:0|0:0|0:0,0:0:0:0:
477,160,6788,5,2,0:0:0:0:
425,12,7272,1,2,0:0:0:0:
277,64,7755,5,12,0:0:0:0:
329,212,8239,2,0,P|274:244|192:226,1,130,2|8,1:2|0:0,0:0:0:0:
165,172,8965,1,0,0:0:0:0:
165,172,9207,2,0,L|53:157,2,97.5,2|2|2,1:2|0:0|0:0,0:0:0:0:
204,104,10175,1,0,1:0:0:0:
346,40,10659,2,0,L|359:120,1,65,8|8,0:0|0:0,0:0:0:0:
405,165,11143,2,0,L|418:245,1,65,0|8,1:0|0:0,0:0:0:0:
463,290,11626,5,8,0:0:0:0:
316,342,12110,2,0,P|262:307|199:296,1,130,2|8,1:2|0:0,0:0:0:0:
141,244,12836,1,0,0:0:0:0:
141,244,13078,2,0,L|32:229,1,97.5,2|2,1:2|0:0,0:0:0:0:
22,115,13804,5,8,0:3:0:0:
22,115,14046,2,0,P|66:100|157:102,1,130,8|8,1:3|0:2,0:0:0:0:
209,50,14772,1,2,3:0:0:0:
273,93,15013,2,0,P|317:108|408:106,1,130,0|8,1:0|0:0,0:0:0:0:
469,247,15981,6,0,L|448:342,1,97.5,8|8,0:1|0:0,0:0:0:0:
253,342,16949,2,0,L|229:230,2,97.5,8|8|0,0:1|0:0|0:0,0:0:0:0:
47,228,18401,1,10,0:0:0:0:
21,74,18884,1,10,0:0:0:0:
175,48,19368,5,8,0:0:0:0:
316,114,19852,2,0,P|363:106|405:81,2,97.5,8|8|0,0:1|0:0|0:0,0:0:0:0:
252,159,20820,2,0,P|234:204|235:252,2,97.5,8|8|0,0:1|0:0|0:0,0:0:0:0:
245,80,21788,1,8,0:1:0:0:
90,59,22272,1,10,0:0:0:0:
69,214,22755,1,10,0:0:0:0:
224,235,23239,5,8,0:0:0:0:
345,332,23723,2,0,P|371:291|370:243,1,97.5,8|8,0:1|0:0,0:0:0:0:
298,62,24691,2,0,L|426:47,2,97.5,8|8|0,0:1|0:0|0:0,0:0:0:0:
66,28,26143,1,10,0:0:0:0:
87,182,26626,1,10,0:0:0:0:
108,336,27110,5,8,0:0:0:0:
229,239,27594,2,0,P|276:224|324:229,2,97.5,8|8|0,0:1|0:0|0:0,0:0:0:0:
175,182,28562,2,0,P|139:149|119:105,2,97.5,8|8|0,0:1|0:0|1:0,0:0:0:0:
229,239,29530,2,0,L|234:327,1,65,8|0,0:0|1:0,0:0:0:0:
308,353,30013,1,8,0:0:0:0:
308,353,30255,1,8,0:3:0:0:
308,353,30497,1,8,0:0:0:0:
443,276,30981,6,0,P|460:216|448:130,1,130,12|8,0:0|0:1,0:0:0:0:
307,95,31949,2,0,P|300:52|317:-23,2,97.5,10|2|2,0:0|0:0|0:0,0:0:0:0:
256,155,32917,1,8,0:0:0:0:
256,155,33159,2,0,L|177:145,2,65,0|8|0,0:0|0:1|0:0,0:0:0:0:
313,207,33884,2,0,P|313:258|235:324,1,130,8|8,0:0|0:1,0:0:0:0:
109,342,34852,6,0,P|94:279|68:194,1,130,12|8,0:0|0:1,0:0:0:0:
173,94,35820,2,0,P|182:30|195:-6,2,97.5,10|2|2,0:0|0:0|0:0,0:0:0:0:
142,166,36788,1,8,0:0:0:0:
142,166,37030,2,0,L|63:178,2,65,0|8|0,0:0|0:1|0:0,0:0:0:0:
208,206,37755,2,0,P|226:255|235:321,2,97.5,8|2|2,0:0|3:0|3:0,0:0:0:0:
276,168,38723,6,0,L|413:183,1,130,12|8,0:0|0:1,0:0:0:0:
370,334,39691,2,0,P|321:348|270:372,2,97.5,10|2|2,0:0|0:0|0:0,0:0:0:0:
428,281,40659,1,8,0:0:0:0:
428,281,40901,2,0,P|431:243|423:200,2,65,8|8|8,0:0|0:1|0:0,0:0:0:0:
370,334,41626,2,0,P|303:317|288:251,1,130,8|8,0:0|0:1,0:0:0:0:
258,110,42594,6,0,B|130:83|130:83|138:213,2,260,10|2|0,0:0|0:0|0:0,0:0:0:0:
353,192,46707,6,0,L|466:182,2,97.5,14|14|14,0:0|0:0|0:0,0:0:0:0:
285,151,47675,1,8,0:3:0:0:
110,307,48401,6,0,P|94:235|57:163,1,130,14|0,0:0|1:0,0:0:0:0:
22,122,49126,1,0,0:0:0:0:
74,63,49368,2,0,P|143:55|213:27,1,130,10|0,0:0|1:0,0:0:0:0:
341,99,50336,2,0,P|382:106|442:129,2,97.5,10|2|2,0:0|0:0|0:0,0:0:0:0:
269,132,51304,2,0,P|248:181|242:217,1,65,8|0,0:0|0:0,0:0:0:0:
268,267,51788,1,0,1:0:0:0:
393,359,52272,6,0,P|425:336|452:252,1,130,8|0,0:0|1:0,0:0:0:0:
401,193,52997,1,0,0:0:0:0:
401,193,53239,2,0,P|411:139|436:78,2,97.5,8|0|0,0:0|0:0|0:0,0:0:0:0:
253,140,54449,1,0,0:0:0:0:
253,140,54691,2,0,L|161:131,1,65,0|0,1:0|0:0,0:0:0:0:
129,81,55175,2,0,P|95:128|109:212,1,130,10|2,0:0|1:2,0:0:0:0:
85,352,56143,6,0,P|145:329|210:321,1,130,10|0,0:0|1:0,0:0:0:0:
266,267,56868,1,0,0:0:0:0:
334,304,57110,2,0,P|394:326|459:334,1,130,10|0,0:0|1:0,0:0:0:0:
463,177,58078,6,0,P|467:138|497:57,2,97.5,10|2|2,0:0|0:0|0:0,0:0:0:0:
319,113,59288,1,0,0:0:0:0:
319,113,59530,1,0,1:0:0:0:
189,200,60013,2,0,P|178:230|176:262,2,65,10|0|0,0:0|0:0|1:0,0:0:0:0:
110,65,60981,6,0,P|71:36|24:22,2,97.5,10|2|2,0:0|0:0|0:0,0:0:0:0:
262,100,62191,1,0,0:0:0:0:
262,100,62433,2,0,P|279:141|280:214,2,97.5,0|0|0,1:0|0:0|0:0,0:0:0:0:
315,42,63401,2,0,L|388:29,1,65,0|0,1:0|0:0,0:0:0:0:
449,64,63884,5,10,0:0:0:0:
376,201,64368,1,0,1:0:0:0:
448,338,64852,2,0,P|405:360|357:361,1,97.5,10|10,0:0|0:0,0:0:0:0:
256,301,65578,6,0,P|165:317|304:146,1,585,14|2,0:0|0:0,0:0:0:0:
451,124,69449,2,0,P|467:230|194:281,1,455,2|8,0:0|0:0,0:0:0:0:
59,217,71626,5,12,0:0:0:0:
96,65,72110,2,0,L|243:50,1,130,2|8,1:2|0:0,0:0:0:0:
287,100,72836,1,0,0:0:0:0:
287,100,73078,2,0,P|293:160|279:226,2,97.5,2|2|2,1:2|0:0|0:0,0:0:0:0:
351,55,74046,1,0,1:0:0:0:
462,162,74530,2,0,P|460:195|454:227,1,65,8|8,0:0|0:0,0:0:0:0:
456,305,75013,2,0,P|427:319|396:330,1,65,0|8,1:0|0:0,0:0:0:0:
320,310,75497,5,8,0:0:0:0:
261,164,75981,2,0,P|207:129|144:118,1,130,2|8,1:2|0:0,0:0:0:0:
72,152,76707,1,0,0:0:0:0:
72,152,76949,2,0,L|84:294,1,130,2|8,1:2|0:0,0:0:0:0:
151,333,77675,5,2,0:0:0:0:
151,333,77917,2,0,P|214:322|268:287,1,130,0|10,1:0|0:0,0:0:0:0:
279,209,78643,1,8,0:0:0:0:
339,160,78884,2,0,P|402:170|456:205,1,130,2|8,1:2|0:0,0:0:0:0:
478,51,79852,6,0,L|339:37,1,130,2|8,1:2|0:0,0:0:0:0:
279,74,80578,1,0,0:0:0:0:
279,74,80820,2,0,L|167:62,2,97.5,2|2|2,1:2|0:0|0:0,0:0:0:0:
330,132,81788,1,0,1:0:0:0:
246,264,82272,2,0,P|215:271|183:269,1,65,8|8,0:0|0:0,0:0:0:0:
108,292,82755,2,0,P|85:268|71:239,1,65,0|8,1:0|0:0,0:0:0:0:
14,185,83239,5,8,0:0:0:0:
122,72,83723,2,0,L|273:50,1,130,2|8,1:2|0:0,0:0:0:0:
334,62,84449,1,0,0:0:0:0:
334,62,84691,2,0,L|350:177,1,97.5,2|2,1:2|0:0,0:0:0:0:
266,243,85417,1,8,0:3:0:0:
266,243,85659,2,0,P|265:307|340:297,2,130,8|8|0,1:3|0:0|1:0,0:0:0:0:
419,215,87110,6,0,P|422:172|443:108,1,97.5,10|10,0:0|0:0,0:0:0:0:
