osu file format v14

[General]
AudioFilename: audio.mp3
AudioLeadIn: 0
PreviewTime: 47675
Countdown: 0
SampleSet: Soft
StackLeniency: 0.7
Mode: 0
LetterboxInBreaks: 0
WidescreenStoryboard: 1

[Editor]
DistanceSpacing: 1.6
BeatDivisor: 4
GridSize: 32
TimelineZoom: 2.7

[Metadata]
Title:Sunday Sunday Fruit Fool
TitleUnicode:サンデーサンデー・フルーツフール
Artist:Elu, SisterCleaire
ArtistUnicode:える、シスター・クレア
Creator:Yugu
Version:Hard
Source:
Tags:SMASH The PAINT!! 八城雄太 Yuta Yashiro 石濱 翔 MONACA Ishihama Kakeru Vtuber virtual youtuber バーチャルyoutuber 2434 seeds スノー・ホワイト・パラダイス・エルサント・フロウ・ワスレナ・ピュア・プリンセス・リーブル・ラブ・ハイデルン・ドコドコ・ヤッタゼ・ヴァルキュリア・パッション・アールヴ・ノエル・チャコボシ・エルアリア・フロージア・メイドイン・ブルーム・エル japanese pop
BeatmapID:2323585
BeatmapSetID:1112138

[Difficulty]
HPDrainRate:5
CircleSize:4
OverallDifficulty:6
ApproachRate:7
SliderMultiplier:1.4
SliderTickRate:0.5

[Events]
//Background and Video events
0,0,"71006761_p0.png",0,0
//Break Periods
//Storyboard Layer 0 (Background)
//Storyboard Layer 1 (Fail)
//Storyboard Layer 2 (Pass)
//Storyboard Layer 3 (Foreground)
//Storyboard Layer 4 (Overlay)
//Storyboard Sound Samples

[TimingPoints]
14,483.870967741935,4,2,1,40,1,0
376,-100,4,2,1,10,0,0
497,-100,4,2,1,40,0,0
1344,-100,4,2,1,10,0,0
1465,-100,4,2,1,40,0,0
4247,-100,4,2,1,10,0,0
4368,-100,4,2,1,40,0,0
5215,-100,4,2,1,10,0,0
5336,-100,4,2,1,40,0,0
6788,-100,4,2,1,60,0,0
7755,-100,4,2,1,60,0,0
8118,-100,4,2,1,10,0,0
8239,-100,4,2,1,60,0,0
10901,-100,4,2,0,60,0,0
11143,-100,4,2,1,60,0,0
11384,-100,4,2,0,60,0,0
11626,-100,4,2,1,60,0,0
11989,-100,4,2,1,10,0,0
12110,-100,4,2,1,60,0,0
15497,-100,4,2,1,50,0,0
18763,-100,4,2,1,10,0,0
18884,-100,4,2,1,50,0,0
19247,-100,4,2,1,10,0,0
19368,-100,4,2,1,50,0,0
20820,-100,4,2,1,50,0,0
21183,-100,4,2,1,50,0,0
22634,-100,4,2,1,10,0,0
22755,-100,4,2,1,50,0,0
23118,-100,4,2,1,10,0,0
23239,-100,4,2,1,50,0,0
26505,-100,4,2,1,10,0,0
26626,-100,4,2,1,50,0,0
26989,-100,4,2,1,10,0,0
27110,-100,4,2,1,50,0,0
30981,-100,4,2,1,70,0,0
42594,-100,4,2,1,40,0,0
46223,-100,4,2,1,60,0,0
46707,-100,4,2,1,60,0,0
47554,-100,4,2,1,60,0,0
48401,-100,4,2,1,80,0,0
65578,-100,4,2,1,60,0,0
69933,-100,4,2,1,40,0,0
71143,-100,4,2,0,40,0,0
71626,-100,4,2,1,60,0,0
71989,-100,4,2,1,10,0,0
72110,-100,4,2,1,60,0,0
74772,-100,4,2,0,60,0,0
75013,-100,4,2,1,60,0,0
75255,-100,4,2,0,60,0,0
75496,-100,4,2,1,60,0,0
75860,-100,4,2,1,10,0,0
75981,-100,4,2,1,60,0,0
78643,-100,4,2,0,60,0,0
78884,-100,4,2,1,60,0,0
79731,-100,4,2,1,10,0,0
79852,-100,4,2,1,60,0,0
82513,-100,4,2,0,60,0,0
82754,-100,4,2,1,60,0,0
82997,-100,4,2,0,60,0,0
83238,-100,4,2,1,60,0,0
83602,-100,4,2,1,10,0,0
83723,-100,4,2,1,60,0,0

[Colours]
Combo1 : 223,198,168
Combo2 : 226,54,79

[HitObjects]
208,166,14,6,0,P|195:97|175:30,1,140,8|10,0:0|0:0,0:0:0:0:
58,78,860,1,2,0:0:0:0:
26,285,1465,2,0,P|77:277|127:261,2,105,10|2|2,0:0|0:0|0:0,0:0:0:0:
266,360,2917,6,0,P|270:326|267:291,1,70,8|0,0:0|0:0,0:0:0:0:
213,226,3401,2,0,P|208:191|211:156,1,70,8|2,0:0|3:0,0:0:0:0:
254,83,3884,6,0,P|321:63|390:63,1,140,8|10,0:0|0:0,0:0:0:0:
471,160,4731,1,2,0:0:0:0:
289,266,5336,2,0,P|241:247|189:240,2,105,10|2|2,0:0|0:0|0:0,0:0:0:0:
49,343,6788,6,0,P|47:326|45:309,1,35,2|2,0:0|0:0,0:0:0:0:
88,190,7272,2,0,P|89:172|91:155,1,35,2|2,0:0|0:0,0:0:0:0:
26,46,7755,6,0,P|77:59|129:65,1,105,12|0,0:0|0:0,0:0:0:0:
161,49,8239,1,2,1:2:0:0:
285,29,8602,2,0,P|285:81|272:132,1,105,2|0,0:0|0:0,0:0:0:0:
206,184,9207,1,2,1:2:0:0:
296,271,9570,2,0,P|348:273|399:262,1,105,2|2,0:0|0:0,0:0:0:0:
452,196,10175,5,0,1:0:0:0:
397,132,10417,1,0,0:0:0:0:
432,55,10659,2,0,P|468:33|512:28,2,70,8|8|0,0:0|0:0|1:0,0:0:0:0:
360,10,11384,1,8,0:0:0:0:
286,53,11626,6,0,P|239:73|186:74,1,105,8|0,0:0|0:0,0:0:0:0:
154,60,12110,1,2,1:2:0:0:
206,174,12473,2,0,P|214:225|205:277,1,105,2|0,0:0|0:0,0:0:0:0:
132,320,13078,1,2,1:2:0:0:
12,277,13441,2,0,P|3:225|12:173,1,105,2|8,0:0|0:3,0:0:0:0:
68,110,14046,6,0,L|63:64,2,35,8|8|8,1:3|0:3|0:3,0:0:0:0:
149,130,14530,2,0,P|167:164|173:199,1,70,8|2,0:2|3:0,0:0:0:0:
249,229,15013,1,0,1:0:0:0:
249,229,15134,1,0,1:0:0:0:
249,229,15255,2,0,L|309:220,1,35,0|0,1:0|1:0,0:0:0:0:
311,202,15497,6,0,P|296:258|288:356,1,140,8|8,0:0|0:1,0:0:0:0:
409,373,16344,2,0,P|425:310|434:200,1,175,8|8,0:0|0:1,0:0:0:0:
380,86,17312,2,0,L|246:67,1,105,8|0,0:0|0:0,0:0:0:0:
211,16,17917,1,8,0:1:0:0:
147,71,18159,1,0,0:0:0:0:
70,34,18401,2,0,P|25:86|29:154,1,140,10|10,0:0|0:0,0:0:0:0:
184,219,19368,6,0,P|186:285|129:319,1,140,8|8,0:0|0:1,0:0:0:0:
20,254,20215,2,0,P|49:174|129:147,1,175,8|8,0:0|0:1,0:0:0:0:
233,75,21183,2,0,L|368:98,1,105,8|0,0:0|0:0,0:0:0:0:
411,54,21788,1,8,0:1:0:0:
483,97,22030,1,0,0:0:0:0:
473,180,22272,2,0,P|474:249|492:317,1,140,10|10,0:0|0:0,0:0:0:0:
327,350,23239,6,0,P|269:322|287:260,1,140,8|8,0:0|0:1,0:0:0:0:
388,185,24086,2,0,P|394:103|318:76,1,175,8|8,0:0|0:1,0:0:0:0:
206,17,25054,2,0,P|183:63|190:114,1,105,8|0,0:0|0:0,0:0:0:0:
241,181,25659,1,8,0:1:0:0:
183,242,25901,1,0,0:0:0:0:
233,308,26143,2,0,L|379:289,1,140,10|10,0:0|0:0,0:0:0:0:
460,147,27110,6,0,L|321:128,1,140,8|8,0:0|0:1,0:0:0:0:
230,40,27957,2,0,P|156:54|77:142,1,175,8|8,0:0|0:1,0:0:0:0:
151,229,28925,2,0,P|167:278|168:330,1,105,8|0,0:0|1:0,0:0:0:0:
248,304,29530,1,8,0:0:0:0:
323,340,29772,1,0,1:0:0:0:
394,295,30013,1,8,0:0:0:0:
394,295,30134,1,8,0:3:0:0:
394,295,30255,2,0,L|405:239,5,35,8|8|8|8|8|8,0:3|0:3|0:0|0:3|0:3|0:3,0:0:0:0:
432,232,30981,6,0,P|441:186|351:155,1,140,12|8,0:0|0:1,0:0:0:0:
301,95,31707,1,0,0:0:0:0:
242,155,31949,2,0,P|201:160|133:117,2,105,10|2|2,0:0|0:0|0:0,0:0:0:0:
262,236,32917,1,8,0:0:0:0:
242,317,33159,6,0,P|207:310|174:320,1,70,0|8,0:0|0:1,0:0:0:0:
100,361,33643,1,0,0:0:0:0:
35,307,33884,2,0,P|32:252|68:195,1,105,8|2,0:0|3:0,0:0:0:0:
50,173,34368,2,0,P|96:142|163:145,1,105,8|2,0:1|3:0,0:0:0:0:
175,158,34852,6,0,P|232:171|315:146,1,140,12|8,0:0|0:1,0:0:0:0:
360,82,35578,1,0,0:0:0:0:
308,13,35820,2,0,P|260:-5|208:-3,2,105,10|2|2,0:0|0:0|0:0,0:0:0:0:
360,82,36788,1,8,0:0:0:0:
441,61,37030,6,0,P|443:95|431:128,1,70,0|8,0:0|0:1,0:0:0:0:
377,192,37513,1,0,0:0:0:0:
377,192,37634,1,0,0:0:0:0:
377,192,37755,2,0,P|374:226|386:259,1,70,8|2,0:0|3:0,0:0:0:0:
447,317,38239,2,0,P|449:351|437:384,1,70,8|2,0:1|3:0,0:0:0:0:
359,353,38723,6,0,P|290:337|221:331,1,140,12|8,0:0|0:1,0:0:0:0:
142,361,39449,1,0,0:0:0:0:
133,277,39691,2,0,P|120:227|94:170,2,105,10|2|2,0:0|0:0|0:0,0:0:0:0:
49,268,40659,1,8,0:0:0:0:
12,192,40901,6,0,P|20:140|37:112,1,70,8|8,0:0|0:1,0:0:0:0:
61,48,41384,1,8,0:0:0:0:
129,97,41626,2,0,P|179:94|236:60,1,105,8|2,0:0|3:0,0:0:0:0:
250,42,42110,2,0,P|300:45|357:79,1,105,8|2,0:1|3:0,0:0:0:0:
382,75,42594,5,10,0:0:0:0:
317,305,43562,1,2,0:0:0:0:
150,133,44530,1,0,0:0:0:0:
195,295,46707,5,14,0:0:0:0:
77,337,47070,1,14,0:0:0:0:
42,216,47433,1,14,0:0:0:0:
59,133,47675,5,8,0:3:0:0:
59,133,47796,1,8,0:3:0:0:
59,133,47917,2,0,P|128:136|165:168,1,105,8|8,0:3|0:0,0:0:0:0:
178,183,48401,6,0,P|239:197|320:148,1,140,14|0,0:0|1:0,0:0:0:0:
337,86,49126,1,0,0:0:0:0:
337,86,49247,1,0,0:0:0:0:
337,86,49368,2,0,P|398:72|479:121,1,140,10|0,0:0|1:0,0:0:0:0:
425,177,50094,1,0,0:0:0:0:
425,177,50215,1,0,0:0:0:0:
425,177,50336,6,0,P|442:228|447:251,1,70,10|0,0:0|0:0,0:0:0:0:
418,276,50699,2,0,P|365:265|342:258,1,70,2|0,0:0|0:0,0:0:0:0:
319,231,51062,1,2,0:0:0:0:
238,256,51304,1,8,0:0:0:0:
189,186,51546,1,0,0:0:0:0:
240,117,51788,1,0,1:0:0:0:
240,117,51909,1,0,0:0:0:0:
240,117,52030,1,0,0:0:0:0:
320,144,52272,6,0,P|326:109|315:76,1,70,8|0,0:0|0:0,0:0:0:0:
254,18,52755,2,0,L|167:10,1,70,0|0,1:0|0:0,0:0:0:0:
104,41,53239,2,0,P|80:67|67:100,1,70,8|0,0:0|0:0,0:0:0:0:
46,128,53602,2,0,P|56:161|78:188,1,70,0|0,0:0|0:0,0:0:0:0:
113,189,53965,1,0,0:0:0:0:
171,249,54207,5,8,0:0:0:0:
251,228,54449,1,0,0:0:0:0:
309,288,54691,1,0,1:0:0:0:
389,267,54933,1,0,0:0:0:0:
447,326,55175,2,0,P|467:279|459:228,1,105,10|0,0:0|0:0,0:0:0:0:
470,194,55659,2,0,P|439:152|390:133,1,105,2|0,1:2|0:0,0:0:0:0:
365,99,56143,6,0,L|215:109,1,140,10|0,0:0|1:0,0:0:0:0:
172,173,56868,1,0,0:0:0:0:
172,173,56989,1,0,0:0:0:0:
172,173,57110,2,0,L|182:323,1,140,10|0,0:0|1:0,0:0:0:0:
109,356,57836,1,0,0:0:0:0:
30,325,58078,6,0,L|23:224,1,70,10|0,0:0|0:0,0:0:0:0:
23,219,58441,2,0,L|16:118,1,70,2|0,0:0|0:0,0:0:0:0:
16,113,58804,1,2,0:0:0:0:
84,63,59046,1,8,0:0:0:0:
161,96,59288,1,0,0:0:0:0:
229,46,59530,1,0,1:0:0:0:
229,46,59651,1,0,0:0:0:0:
229,46,59772,1,0,0:0:0:0:
305,78,60013,6,0,P|340:75|374:67,1,70,10|0,0:0|0:0,0:0:0:0:
434,126,60497,2,0,P|419:157|409:191,1,70,0|0,1:0|0:0,0:0:0:0:
329,213,60981,2,0,P|308:184|284:159,1,70,10|0,0:0|0:0,0:0:0:0:
250,150,61344,2,0,L|160:168,1,70,2|0,0:0|0:0,0:0:0:0:
157,190,61707,1,2,0:0:0:0:
77,161,61949,5,8,0:0:0:0:
106,81,62191,1,0,0:0:0:0:
186,110,62433,1,0,1:0:0:0:
186,110,62554,1,0,0:0:0:0:
186,110,62675,1,0,0:0:0:0:
243,48,62917,2,0,L|329:31,1,70,8|0,0:0|0:0,0:0:0:0:
353,107,63401,2,0,L|284:120,1,70,0|0,1:0|0:0,0:0:0:0:
240,192,63884,6,0,P|246:261|266:328,1,140,10|0,0:0|1:0,0:0:0:0:
345,359,64610,1,0,0:0:0:0:
405,300,64852,2,0,P|436:286|508:279,1,105,10|10,0:0|0:0,0:0:0:0:
451,164,65578,1,14,0:0:0:0:
256,192,65699,12,2,67755,0:0:0:0:
256,192,67876,12,2,69449,0:0:0:0:
189,142,69933,2,0,L|182:73,2,70,0|0|0,1:0|1:0|0:0,0:0:0:0:
263,183,70659,2,0,P|245:230|144:249,1,140,8|8,0:0|0:0,0:0:0:0:
26,338,71626,6,0,P|77:325|129:319,1,105,12|0,0:0|0:0,0:0:0:0:
161,335,72110,1,2,1:2:0:0:
285,355,72473,2,0,P|285:303|272:252,1,105,2|0,0:0|0:0,0:0:0:0:
206,200,73078,1,2,1:2:0:0:
296,113,73441,2,0,P|348:111|399:122,1,105,2|2,0:0|0:0,0:0:0:0:
452,188,74046,5,0,1:0:0:0:
397,252,74288,1,0,0:0:0:0:
432,329,74530,2,0,P|468:351|512:356,2,70,8|8|0,0:0|0:0|1:0,0:0:0:0:
360,374,75255,1,8,0:0:0:0:
286,331,75497,6,0,P|239:311|186:310,1,105,8|0,0:0|0:0,0:0:0:0:
154,324,75981,1,2,1:2:0:0:
206,210,76344,2,0,P|214:159|205:107,1,105,2|0,0:0|0:0,0:0:0:0:
132,64,76949,1,2,1:2:0:0:
12,107,77312,2,0,P|3:159|12:211,1,105,2|2,0:0|0:0,0:0:0:0:
68,274,77917,6,0,L|63:320,2,35,0|0|0,1:0|0:0|0:0,0:0:0:0:
149,254,78401,2,0,P|167:220|173:185,1,70,10|8,0:0|0:0,0:0:0:0:
249,155,78884,1,2,1:2:0:0:
249,155,79005,1,0,1:0:0:0:
249,155,79126,2,0,L|309:164,1,35,0|0,1:0|1:0,0:0:0:0:
315,144,79368,6,0,P|329:89|372:33,1,105,8|0,0:0|0:0,0:0:0:0:
388,38,79852,1,2,1:2:0:0:
472,131,80215,2,0,P|500:175|512:225,1,105,2|0,0:0|0:0,0:0:0:0:
461,293,80820,1,2,1:2:0:0:
337,265,81183,2,0,P|284:266|234:281,1,105,2|2,0:0|0:0,0:0:0:0:
168,334,81788,5,0,1:0:0:0:
115,268,82030,1,0,0:0:0:0:
153,193,82272,2,0,L|147:110,2,70,8|8|0,0:0|0:0|1:0,0:0:0:0:
236,188,82997,1,8,0:0:0:0:
297,131,83239,6,0,P|310:69|303:17,1,105,8|0,0:0|0:0,0:0:0:0:
274,10,83723,1,2,1:2:0:0:
164,71,84086,2,0,P|118:81|47:51,1,105,2|0,0:0|0:0,0:0:0:0:
12,131,84691,1,2,1:2:0:0:
109,211,85054,2,0,P|137:260|144:325,1,105,2|8,0:0|0:3,0:0:0:0:
223,339,85659,6,0,L|229:380,2,35,8|8|8,1:3|0:3|0:3,0:0:0:0:
288,285,86143,2,0,P|311:252|309:198,1,70,8|0,0:0|1:0,0:0:0:0:
268,153,86626,1,0,1:0:0:0:
268,153,86747,1,0,1:0:0:0:
268,153,86868,2,0,L|259:93,1,35,0|0,1:0|1:0,0:0:0:0:
258,83,87110,6,0,P|311:88|377:129,1,105,10|10,0:0|0:0,0:0:0:0:
