osu file format v14

[General]
AudioFilename: audio.mp3
AudioLeadIn: 0
PreviewTime:55797
Countdown: 0
SampleSet: Soft
StackLeniency: 0.7
Mode: 0
LetterboxInBreaks: 0
WidescreenStoryboard: 1

[Editor]
Bookmarks: 2035,19979,37923,55867,73811,78297,82783,100727,114185,118671,136615,154559,159045,172503
DistanceSpacing: 1
BeatDivisor: 16
GridSize: 16
TimelineZoom: 2.599999

[Metadata]
Title:Dream Yoga
TitleUnicode:Dream Yoga
Artist:Elroy
ArtistUnicode:Elroy
Creator:hehe
Version:Insane
Source:
Tags:english rap hiphop hip-hop hip hop emo experimental pop electronic alternative hyper-pop hyperpop hyper
BeatmapID:4185853
BeatmapSetID:1999305

[Difficulty]
HPDrainRate:4
CircleSize:4
OverallDifficulty:7.8
ApproachRate:8.8
SliderMultiplier:2.6
SliderTickRate:1

[Events]
//Background and Video events
0,0,"dream__REAL.jpg",0,0
//Break Periods
2,118871,124771
//Storyboard Layer 0 (Background)
//Storyboard Layer 1 (Fail)
//Storyboard Layer 2 (Pass)
//Storyboard Layer 3 (Foreground)
//Storyboard Layer 4 (Overlay)
//Storyboard Sound Samples

[TimingPoints]
2036,560.747663551402,4,2,1,50,1,0
19979,-83.3333333333333,4,2,1,70,0,0
37923,-166.666666666667,4,2,1,40,0,0
46895,-142.857142857143,4,2,1,50,0,0
51381,-125,4,2,1,70,0,0
55867,-100,4,2,1,80,0,1
56428,-100,4,2,1,60,0,0
59091,-100,4,2,1,70,0,0
60353,-83.3333333333333,4,2,1,80,0,1
73811,-100,4,2,1,80,0,1
74092,-166.666666666667,4,2,1,40,0,0
76335,-166.666666666667,4,2,1,50,0,0
77175,-125,4,2,1,60,0,0
77456,-100,4,2,1,60,0,0
78297,-100,4,2,1,70,0,0
99886,-142.857142857143,4,2,1,70,0,0
100727,-100,4,2,1,70,0,0
114185,-333.333333333333,4,2,1,40,0,0
118671,-166.666666666667,4,2,1,50,0,0
125400,-125,4,2,1,50,0,0
127643,-125,4,2,1,60,0,0
132129,-250.000000000001,4,2,1,50,0,0
135774,-125,4,2,1,70,0,0
136054,-100,4,2,1,70,0,0
136615,-83.3333333333333,4,2,1,80,0,1
152316,-100,4,2,1,60,0,0
154559,-166.666666666667,4,2,1,60,0,0
156802,-125,4,2,1,60,0,0
158203,-100,4,2,1,70,0,0
158484,-100,4,2,1,70,0,0
159045,-100,4,2,1,80,0,0
168017,-100,4,2,1,80,0,0

[Colours]
Combo1 : 173,255,95
Combo2 : 255,88,100
Combo3 : 255,94,55
Combo4 : 17,254,176
Combo5 : 131,159,105
Combo6 : 164,89,91
Combo7 : 174,125,94
Combo8 : 84,163,137

[HitObjects]
177,165,2035,54,0,P|193:204|192:294,1,130,0|0,0:2|0:2,0:2:0:0:
282,256,2456,2,0,L|265:178,1,65,0|8,0:2|0:2,0:2:0:0:
329,145,2736,1,0,0:2:0:0:
439,185,2877,1,0,0:2:0:0:
370,213,3017,1,0,0:2:0:0:
406,83,3157,2,0,L|479:70,1,65,0|0,0:2|0:2,0:0:0:0:
448,154,3437,2,0,L|520:165,1,65,0|0,0:2|0:2,0:2:0:0:
399,286,3718,2,0,P|349:254|269:249,1,130,8|0,0:2|0:0,0:2:0:0:
23,278,4278,6,0,L|-1:141,1,130,0|0,0:2|0:2,0:2:0:0:
86,196,4699,2,0,P|93:154|85:116,1,65,0|8,0:2|0:2,0:2:0:0:
61,7,4979,1,0,0:2:0:0:
33,82,5120,1,0,0:2:0:0:
139,28,5260,1,0,0:2:0:0:
232,109,5400,2,0,L|223:173,1,65,2|2,0:2|0:2,0:0:0:0:
300,64,5680,2,0,L|308:128,1,65,2|0,0:2|0:2,0:2:0:0:
391,137,5961,1,10,0:2:0:0:
391,137,6101,1,2,0:2:0:0:
453,88,6241,1,2,0:2:0:0:
386,316,6521,6,0,P|432:301|518:288,1,130,0|0,0:2|0:2,0:2:0:0:
301,368,6942,2,0,L|311:295,1,65,0|8,0:2|0:2,0:2:0:0:
227,168,7222,1,0,0:2:0:0:
324,227,7363,1,0,0:2:0:0:
301,158,7503,1,0,0:2:0:0:
218,292,7643,2,0,L|151:309,1,65,2|2,0:2|0:2,0:0:0:0:
133,236,7923,2,0,L|66:219,1,65,0|0,0:2|0:2,0:0:0:0:
21,372,8204,2,0,P|16:315|-3:236,1,130,8|0,0:2|0:0,0:2:0:0:
223,21,8764,6,0,P|275:47|274:125,1,130,0|0,0:2|0:2,0:2:0:0:
178,148,9185,2,0,P|176:108|171:69,1,65,0|8,0:2|0:2,0:2:0:0:
248,192,9465,1,0,0:2:0:0:
188,278,9606,1,0,0:2:0:0:
261,268,9746,1,0,0:2:0:0:
286,371,9886,2,0,L|362:386,1,65,0|0,0:2|0:2,0:0:0:0:
337,247,10166,2,0,L|413:232,1,65,0|0,0:2|0:2,0:2:0:0:
504,297,10447,2,0,P|520:257|509:171,1,130,8|0,0:2|0:2,0:2:0:0:
434,161,10867,1,0,0:2:0:0:
441,83,11007,70,0,L|311:58,1,130,0|0,0:2|0:2,0:0:0:0:
184,139,11428,2,0,P|137:153|110:162,1,65,0|8,0:2|0:2,0:2:0:0:
250,12,11708,1,0,0:2:0:0:
250,12,11849,2,0,L|219:74,1,65,0|0,0:2|0:0,0:2:0:0:
258,174,12129,1,2,0:2:0:0:
258,174,12269,2,0,P|273:206|273:238,1,65,2|0,0:2|0:0,0:2:0:0:
202,258,12550,1,0,0:2:0:0:
202,258,12690,2,0,P|176:302|208:379,1,130,8|0,0:2|0:0,0:2:0:0:
495,263,13250,6,0,L|479:125,1,130,0|0,0:2|0:2,0:0:0:0:
412,207,13671,2,0,P|392:244|386:275,1,65,0|8,0:2|0:2,0:2:0:0:
256,198,13951,1,0,0:2:0:0:
256,198,14092,2,0,L|326:217,1,65,0|0,0:2|0:0,0:2:0:0:
219,269,14372,1,2,0:2:0:0:
150,306,14512,1,2,0:2:0:0:
100,249,14652,1,2,0:2:0:0:
142,183,14793,1,2,0:2:0:0:
88,132,14933,2,0,L|18:149,1,65,10|2,0:2|0:2,0:0:0:0:
190,34,15213,2,0,L|114:15,1,65,2|0,0:2|0:2,0:2:0:0:
214,157,15493,6,0,P|251:131|346:119,1,130,0|0,0:2|0:0,0:0:0:0:
375,5,15914,2,0,L|396:71,1,65,0|8,0:2|0:2,0:2:0:0:
503,122,16194,2,0,L|490:192,1,65,2|0,0:2|0:2,0:2:0:0:
423,217,16475,1,0,0:2:0:0:
453,328,16615,2,0,P|490:338|528:348,1,65,2|0,0:2|0:0,0:2:0:0:
384,288,16895,2,0,L|284:314,1,97.5,2|0,0:2|0:0,0:2:0:0:
290,314,17176,2,0,P|248:285|159:276,1,130,8|0,0:2|0:0,0:2:0:0:
111,225,17596,1,0,0:2:0:0:
54,273,17736,6,0,P|59:313|61:350,1,65,2|2,0:2|0:2,0:0:0:0:
207,368,18017,1,2,0:2:0:0:
207,368,18157,1,2,0:2:0:0:
330,143,18437,2,0,P|295:115|201:127,1,130,2|2,0:2|0:2,0:2:0:0:
147,168,18858,2,0,L|133:99,2,65,2|0|2,0:2|0:2|0:2,0:2:0:0:
411,190,19419,1,2,0:2:0:0:
411,190,19559,1,0,0:0:0:0:
473,144,19699,1,0,0:2:0:0:
473,144,19839,1,0,0:2:0:0:
511,210,19979,70,0,P|500:260|496:382,1,155.999995239258,8|0,3:0|0:2,0:0:0:0:
417,348,20400,2,0,L|407:256,1,77.999997619629,0|8,0:2|0:2,0:2:0:0:
336,243,20680,1,0,0:2:0:0:
277,293,20821,2,0,P|261:249|268:202,1,77.999997619629,0|0,0:2|0:2,0:0:0:0:
197,175,21101,2,0,L|189:95,1,77.999997619629,2|0,0:2|0:0,0:2:0:0:
58,216,21381,2,0,P|107:215|153:231,1,77.999997619629,2|0,0:2|0:2,0:2:0:0:
178,287,21662,1,10,0:2:0:0:
178,287,21802,1,0,0:2:0:0:
308,212,21942,2,0,L|315:124,1,77.999997619629,2|0,0:2|0:0,0:2:0:0:
366,264,22222,5,2,0:2:0:0:
484,32,22503,1,2,0:2:0:0:
409,53,22643,1,2,0:2:0:0:
436,166,22783,2,0,P|483:174|525:184,1,77.999997619629,10|2,0:2|0:2,0:2:0:0:
368,122,23064,2,0,P|320:125|266:48,1,116.999996429443,2|0,0:2|0:0,0:0:0:0:
271,81,23344,1,2,0:2:0:0:
294,12,23484,1,0,0:0:0:0:
122,53,23624,2,0,P|133:108|142:218,1,155.999995239258,4|8,3:0|0:2,0:0:0:0:
262,162,24045,2,0,P|273:217|282:327,1,155.999995239258,4|0,3:0|0:2,0:0:0:0:
409,53,24465,6,0,P|471:55|497:119,1,116.999996429443,8|0,3:0|0:0,0:0:0:0:
497,97,24746,2,0,P|480:155|471:192,1,77.999997619629,2|0,0:2|0:2,0:2:0:0:
406,204,25026,1,10,0:2:0:0:
406,204,25166,1,2,0:2:0:0:
512,287,25307,2,0,L|405:313,1,77.999997619629,2|0,0:2|0:0,0:2:0:0:
305,368,25587,2,0,P|292:312|324:209,1,155.999995239258,2|2,0:2|0:2,0:2:0:0:
241,153,26007,1,0,0:0:0:0:
175,196,26148,2,0,L|186:285,1,77.999997619629,10|0,0:2|0:2,0:2:0:0:
31,326,26428,2,0,L|40:248,1,77.999997619629,2|0,0:2|0:2,0:2:0:0:
0,150,26708,6,0,P|79:160|139:27,1,233.999992858887,8|0,3:0|0:2,0:0:0:0:
219,11,27269,1,10,0:2:0:0:
219,11,27409,1,2,0:2:0:0:
269,70,27550,2,0,L|259:156,1,77.999997619629,2|0,0:2|0:2,0:2:0:0:
368,171,27830,1,2,0:2:0:0:
368,171,27970,1,0,0:2:0:0:
408,106,28110,2,0,P|414:173|432:281,1,155.999995239258,4|8,3:0|0:2,0:0:0:0:
263,215,28531,2,0,P|269:282|287:390,1,155.999995239258,4|0,3:0|0:2,0:0:0:0:
165,172,28951,70,0,P|92:175|52:269,1,155.999995239258,8|0,3:0|0:0,0:0:0:0:
8,305,29372,1,2,0:2:0:0:
116,370,29512,2,0,L|100:277,1,77.999997619629,10|0,0:2|0:2,0:2:0:0:
223,288,29793,2,0,L|239:195,1,77.999997619629,2|0,0:2|0:0,0:2:0:0:
284,334,30073,1,2,0:2:0:0:
344,288,30213,1,0,0:2:0:0:
413,357,30353,2,0,P|475:363|503:367,1,77.999997619629,2|0,0:2|0:2,0:2:0:0:
504,196,30634,2,0,P|453:198|340:215,1,155.999995239258,10|2,0:2|0:2,0:2:0:0:
300,154,31054,1,0,0:0:0:0:
240,204,31194,6,0,P|222:154|290:78,1,155.999995239258,2|0,0:2|0:2,0:2:0:0:
412,140,31615,1,2,0:2:0:0:
435,65,31755,2,0,L|529:78,1,77.999997619629,10|2,0:2|0:2,0:0:0:0:
392,0,32036,2,0,L|298:13,1,77.999997619629,2|0,0:2|0:2,0:2:0:0:
194,25,32316,1,2,0:2:0:0:
230,94,32456,1,0,0:0:0:0:
166,136,32596,2,0,P|229:146|336:172,1,155.999995239258,4|8,3:0|0:2,0:0:0:0:
235,286,33017,2,0,P|298:296|405:322,1,155.999995239258,4|0,3:0|0:2,0:0:0:0:
157,373,33437,6,0,P|127:329|6:335,1,155.999995239258,8|0,3:0|0:2,0:0:0:0:
0,245,33858,1,0,0:2:0:0:
68,201,33998,2,0,P|56:136|50:102,2,77.999997619629,10|2|2,0:2|0:2|0:2,0:0:0:0:
377,108,34559,2,0,P|330:99|280:92,1,77.999997619629,2|0,0:2|0:0,0:2:0:0:
249,198,34839,2,0,P|296:189|346:182,1,77.999997619629,2|0,0:2|0:2,0:2:0:0:
383,250,35120,1,10,0:2:0:0:
383,250,35260,1,2,0:2:0:0:
454,206,35400,2,0,P|457:160|475:79,1,116.999996429443,2|0,0:2|0:0,0:0:0:0:
471,90,35680,6,0,P|427:28|279:64,1,233.999992858887,8|0,3:0|0:0,0:0:0:0:
203,23,36241,1,8,0:2:0:0:
203,23,36381,2,0,P|212:68|216:111,1,77.999997619629,0|0,0:2|0:2,0:2:0:0:
342,114,36662,1,0,0:2:0:0:
342,114,36802,2,0,P|333:159|329:202,1,77.999997619629,2|0,0:2|0:0,0:2:0:0:
270,236,37082,2,0,P|220:225|114:233,1,155.999995239258,2|2,3:2|0:2,0:2:0:0:
123,124,37503,2,0,P|64:132|54:236,1,155.999995239258,0|0,3:2|0:2,0:2:0:0:
0,307,37923,70,0,L|173:324,1,155.999995239258,0|8,3:2|0:2,0:2:0:0:
253,246,38764,1,0,0:2:0:0:
319,324,39045,2,0,P|318:291|316:273,2,38.9999988098145,2|2|2,0:2|0:2|3:2,0:0:0:0:
427,282,39606,2,0,P|423:246|425:197,1,77.999997619629,8|0,0:2|0:2,0:0:0:0:
508,313,40166,6,0,P|514:257|494:150,1,155.999995239258,0|10,3:2|0:2,0:2:0:0:
452,97,40867,1,2,0:2:0:0:
452,97,41007,2,0,L|396:107,1,38.9999988098145,2|10,0:2|0:1,0:0:0:0:
356,48,41288,2,0,L|306:42,1,38.9999988098145,2|8,0:2|0:1,0:2:0:0:
263,100,41568,2,0,L|269:146,2,38.9999988098145,2|0|10,3:2|0:2|0:2,0:2:0:0:
198,54,41989,2,0,L|204:8,2,38.9999988098145,2|0|0,3:2|0:0|0:2,0:2:0:0:
118,39,42409,6,0,P|125:85|120:209,1,155.999995239258,0|8,3:2|0:2,0:2:0:0:
0,111,43250,1,0,0:2:0:0:
28,253,43531,2,0,P|52:247|71:246,2,38.9999988098145,2|2|2,0:2|0:2|3:2,0:0:0:0:
13,375,44092,2,0,P|48:366|102:359,1,77.999997619629,8|0,0:2|0:2,0:0:0:0:
202,279,44652,6,0,P|263:274|305:365,1,155.999995239258,0|8,3:2|0:2,0:2:0:0:
372,271,45493,1,2,0:2:0:0:
442,365,45774,2,0,L|445:316,1,38.9999988098145,0|8,0:2|0:1,0:0:0:0:
508,285,46054,2,0,P|502:254|504:195,1,77.999997619629,0|8,3:2|0:2,0:2:0:0:
439,168,46475,2,0,P|445:137|443:78,1,77.999997619629,0|0,3:2|0:2,0:2:0:0:
498,23,46895,70,0,P|455:51|367:38,1,136.499995834351,0|0,3:2|0:2,0:2:0:0:
315,91,47456,2,0,P|282:70|225:67,1,90.9999972229005,8|0,0:2|0:2,0:2:0:0:
22,170,48017,1,2,0:2:0:0:
0,44,48297,1,2,3:2:0:0:
130,24,48578,1,10,0:2:0:0:
152,150,48858,1,2,0:2:0:0:
86,93,49138,6,0,P|77:127|64:187,1,90.9999972229005,2|2,3:2|0:2,0:2:0:0:
9,232,49559,1,0,0:2:0:0:
9,232,49699,2,0,P|17:266|34:377,1,136.499995834351,10|8,0:2|0:1,0:2:0:0:
152,350,50260,2,0,L|102:343,1,45.4999986114502,2|10,0:2|0:1,0:0:0:0:
184,279,50540,2,0,L|234:272,1,45.4999986114502,2|2,3:2|0:2,0:0:0:0:
289,328,50821,1,10,0:2:0:0:
289,328,50961,1,2,3:2:0:0:
370,253,51101,1,2,0:2:0:0:
370,253,51241,1,2,0:2:0:0:
437,355,51381,6,0,L|489:344,1,52,2|2,3:2|0:2,0:0:0:0:
462,257,51662,2,0,L|514:268,1,52,2|2,0:2|0:2,0:0:0:0:
490,158,51942,2,0,P|450:179|378:175,1,104,10|0,0:2|0:0,0:2:0:0:
270,69,52503,1,2,0:2:0:0:
270,69,52643,1,2,0:2:0:0:
241,141,52783,2,0,L|186:152,1,52,2|0,3:2|0:2,0:2:0:0:
141,213,53064,1,8,0:2:0:0:
80,167,53204,2,0,P|77:127|0:31,1,156,2|4,3:2|3:2,0:2:0:0:
156,268,55026,6,0,L|224:255,1,52,0|0,3:2|0:2,0:2:0:0:
256,202,55307,1,2,0:3:0:0:
332,211,55447,1,2,0:3:0:0:
398,172,55587,1,2,0:3:0:0:
427,101,55727,1,2,0:3:0:0:
407,27,55867,2,0,B|279:-18|313:118|162:77,1,260,0|0,3:2|0:0,0:0:0:0:
106,119,59092,70,0,P|113:157|119:192,1,65,8|0,0:2|0:2,0:2:0:0:
197,174,59372,1,8,0:2:0:0:
197,174,59512,2,0,P|194:221|195:256,1,65,0|0,3:2|0:0,0:2:0:0:
140,292,59793,1,8,0:2:0:0:
481,288,60353,54,0,P|490:226|456:117,1,155.999995239258,8|0,3:0|0:2,0:0:0:0:
387,171,60774,2,0,L|396:92,1,77.999997619629,0|8,0:0|0:2,0:0:0:0:
329,53,61054,1,2,0:2:0:0:
276,111,61194,1,2,0:2:0:0:
211,67,61335,1,10,0:1:0:0:
115,155,61475,2,0,L|201:167,1,77.999997619629,2|10,0:2|0:1,0:0:0:0:
65,248,61755,2,0,L|151:236,1,77.999997619629,2|2,0:2|0:2,0:0:0:0:
189,370,62036,2,0,P|194:303|288:264,1,155.999995239258,10|0,0:2|0:0,0:2:0:0:
329,306,62456,1,0,0:2:0:0:
406,183,62596,6,0,B|423:274|476:224|489:327,1,155.999995239258,8|0,3:0|0:0,0:0:0:0:
432,365,63017,1,2,0:2:0:0:
376,308,63157,2,0,P|328:323|287:341,1,77.999997619629,8|2,0:2|0:2,0:0:0:0:
246,280,63437,1,2,0:2:0:0:
166,369,63578,2,0,P|169:320|167:265,1,77.999997619629,10|2,0:1|0:2,0:0:0:0:
106,251,63858,1,10,0:1:0:0:
38,286,63998,2,0,P|24:217|40:114,1,155.999995239258,4|0,3:0|0:2,0:0:0:0:
226,197,64419,2,0,P|212:128|228:25,1,155.999995239258,4|0,3:0|0:2,0:0:0:0:
346,239,64839,6,0,B|442:261|413:178|507:203,1,155.999995239258,8|2,3:0|0:2,0:0:0:0:
512,122,65260,2,0,L|492:42,1,77.999997619629,2|8,0:2|0:2,0:0:0:0:
412,80,65540,1,2,0:2:0:0:
412,80,65680,2,0,L|419:-12,1,77.999997619629,2|8,0:2|0:1,0:0:0:0:
343,122,65961,1,2,0:2:0:0:
278,17,66101,2,0,P|272:76|262:176,1,155.999995239258,10|2,0:1|0:2,0:0:0:0:
177,51,66521,2,0,P|188:116|192:155,1,77.999997619629,10|0,0:2|0:0,0:0:0:0:
108,192,66802,2,0,P|108:147|113:103,1,77.999997619629,0|0,0:2|0:2,0:0:0:0:
55,60,67082,1,4,0:2:0:0:
9,257,67363,5,2,0:2:0:0:
9,257,67503,2,0,P|14:304|18:345,1,77.999997619629,2|8,0:2|0:2,0:0:0:0:
90,292,67783,1,2,0:2:0:0:
164,384,67923,2,0,P|165:330|167:291,1,77.999997619629,2|8,0:2|0:1,0:0:0:0:
231,269,68204,1,2,0:2:0:0:
231,269,68344,1,10,0:1:0:0:
335,358,68484,2,0,P|386:339|496:324,1,155.999995239258,4|0,3:0|0:2,0:0:0:0:
249,188,68905,2,0,P|300:169|410:154,1,155.999995239258,4|0,3:0|0:2,0:0:0:0:
498,12,69325,70,0,P|466:71|366:48,1,155.999995239258,8|0,3:0|0:2,0:0:0:0:
325,17,69746,1,0,0:2:0:0:
272,75,69886,1,8,0:2:0:0:
154,27,70026,2,0,L|150:119,1,77.999997619629,2|0,0:2|0:2,0:2:0:0:
90,150,70307,1,2,0:2:0:0:
224,193,70447,2,0,P|267:178|306:173,1,77.999997619629,2|0,0:2|0:2,0:2:0:0:
139,320,70727,2,0,L|151:190,1,116.999996429443,2|0,0:2|0:0,0:0:0:0:
149,203,71007,2,0,P|92:185|16:372,1,311.999990478516,10|4,0:2|0:2,0:2:0:0:
284,335,73811,6,0,L|361:312,1,65,8|0,3:0|0:0,0:0:0:0:
417,351,74092,1,2,0:2:0:0:
417,351,74232,1,2,0:2:0:0:
497,196,74512,1,0,0:2:0:0:
497,196,74652,2,0,P|490:155|491:140,1,38.9999988098145,2|2,0:2|0:2,0:0:0:0:
424,109,74933,2,0,P|414:152|413:197,1,77.999997619629,2|2,0:2|0:2,0:2:0:0:
293,245,75493,2,0,P|290:206|281:168,1,77.999997619629,2|2,0:2|0:2,0:2:0:0:
160,89,76054,37,2,0:2:0:0:
43,167,76335,2,0,L|51:219,1,38.9999988098145,2|2,0:2|0:2,0:0:0:0:
124,197,76615,2,0,L|116:249,1,38.9999988098145,2|2,0:2|0:2,0:0:0:0:
192,159,76895,1,2,0:2:0:0:
192,159,77036,1,2,0:2:0:0:
251,207,77176,2,0,L|260:271,1,52,2|0,0:2|0:2,0:2:0:0:
210,316,77456,2,0,P|270:298|365:284,1,130,4|0,3:0|0:2,0:0:0:0:
308,143,77877,2,0,P|368:125|463:111,1,130,4|0,3:0|0:0,0:0:0:0:
300,22,78297,2,0,P|256:31|239:98,1,97.5,8|0,3:0|0:0,0:0:0:0:
233,75,78578,5,2,0:2:0:0:
38,31,78858,1,10,0:2:0:0:
38,31,78998,1,2,0:2:0:0:
0,97,79138,2,0,P|13:158|16:177,1,65,2|0,0:2|0:0,0:2:0:0:
90,202,79419,2,0,P|74:237|80:345,1,130,2|2,3:2|3:2,3:2:0:0:
145,309,79839,1,0,0:2:0:0:
315,378,79979,1,8,0:3:0:0:
315,378,80120,1,0,3:2:0:0:
221,208,80260,1,8,0:3:0:0:
221,208,80400,1,0,3:2:0:0:
367,52,80540,2,0,B|402:194|274:132|311:302,1,260,8|0,3:0|0:2,0:0:0:0:
386,197,82783,6,0,L|403:265,1,65,8|0,3:0|0:0,0:0:0:0:
315,152,83064,2,0,L|330:88,1,65,2|0,0:2|0:2,0:2:0:0:
202,80,83344,2,0,P|230:125|235:208,1,130,10|2,0:2|0:2,0:2:0:0:
216,275,83764,1,8,0:1:0:0:
63,334,84045,1,8,0:1:0:0:
4,184,84325,1,0,0:2:0:0:
4,184,84465,2,0,L|7:107,1,65,10|0,0:2|0:0,0:2:0:0:
88,144,84746,2,0,P|81:98|85:11,1,130,2|2,0:2|0:2,0:2:0:0:
156,52,85166,5,0,0:2:0:0:
226,18,85307,2,0,L|238:83,1,65,2|0,0:2|0:0,0:2:0:0:
307,136,85587,2,0,P|312:88|378:25,1,130,10|2,0:2|0:2,0:0:0:0:
433,71,86007,1,8,0:1:0:0:
493,228,86288,1,8,0:1:0:0:
493,228,86428,2,0,L|402:214,1,65,2|0,3:2|0:0,0:2:0:0:
381,279,86708,1,2,0:3:0:0:
333,219,86848,1,2,0:3:0:0:
266,185,86988,1,2,0:3:0:0:
190,182,87128,1,2,0:3:0:0:
120,211,87269,70,0,P|39:212|19:154,1,130,8|2,3:0|0:2,0:0:0:0:
77,120,87690,2,0,P|72:80|66:47,1,65,0|10,0:2|0:2,0:0:0:0:
147,7,87970,2,0,P|145:47|147:75,1,65,0|2,0:0|0:2,0:0:0:0:
222,92,88250,1,8,0:1:0:0:
397,7,88531,1,8,0:1:0:0:
497,170,88811,1,0,0:2:0:0:
497,170,88951,2,0,L|439:204,1,65,10|0,0:2|0:0,0:2:0:0:
365,186,89232,2,0,P|360:151|369:111,1,65,2|0,0:2|0:2,0:2:0:0:
336,255,89512,6,0,P|290:269|210:152,1,195,8|0,3:0|0:2,0:0:0:0:
133,99,90073,2,0,P|130:153|131:237,1,130,10|2,0:2|0:2,0:2:0:0:
65,263,90493,1,8,0:1:0:0:
194,384,90774,1,8,0:1:0:0:
194,384,90914,2,0,P|267:368|346:354,1,130,4|0,3:0|0:2,0:0:0:0:
253,243,91335,2,0,P|326:227|405:213,1,130,4|0,3:0|0:2,0:0:0:0:
121,131,91755,6,0,P|116:88|109:48,1,65,8|0,3:0|0:0,0:0:0:0:
40,14,92036,2,0,L|36:96,1,65,2|0,0:2|0:2,0:2:0:0:
181,26,92316,2,0,P|206:77|285:88,1,130,10|2,0:2|0:2,0:2:0:0:
337,47,92736,1,8,0:1:0:0:
174,229,93017,1,8,0:1:0:0:
174,229,93157,2,0,P|234:237|306:257,1,130,2|10,3:2|0:2,0:2:0:0:
363,207,93578,2,0,P|387:243|368:336,1,130,0|0,3:2|0:2,0:2:0:0:
308,373,93998,6,0,P|264:363|233:362,1,65,2|0,0:2|0:2,0:2:0:0:
141,304,94278,2,0,P|185:294|216:293,1,65,2|0,0:2|0:2,0:0:0:0:
75,368,94559,2,0,P|66:314|41:226,1,130,10|2,0:2|0:2,0:2:0:0:
108,189,94979,1,8,0:1:0:0:
6,68,95260,1,8,0:1:0:0:
6,68,95400,2,0,P|38:68|89:48,1,65,2|0,3:2|0:0,0:2:0:0:
127,9,95680,1,2,0:3:0:0:
200,11,95820,1,2,0:3:0:0:
260,55,95960,1,2,0:3:0:0:
282,127,96100,1,2,0:3:0:0:
259,197,96241,70,0,P|332:183|418:178,1,130,8|0,3:0|0:2,0:0:0:0:
440,119,96662,1,0,0:2:0:0:
500,171,96802,2,0,P|496:247|432:251,1,130,10|2,0:2|0:2,0:2:0:0:
416,329,97222,1,8,0:1:0:0:
262,244,97503,1,8,0:1:0:0:
145,375,97783,1,0,0:2:0:0:
145,375,97923,2,0,P|137:333|132:308,1,65,10|0,0:2|0:2,0:2:0:0:
71,267,98204,2,0,L|-1:254,1,65,2|0,0:2|0:2,0:2:0:0:
173,244,98484,6,0,P|184:207|142:113,1,130,8|0,3:0|0:2,0:0:0:0:
202,63,98905,1,0,0:2:0:0:
202,63,99045,1,10,0:2:0:0:
331,189,99465,1,8,0:1:0:0:
437,111,99746,1,8,0:1:0:0:
437,111,99886,2,0,P|448:163|447:207,1,90.9999972229005,0|0,3:0|0:2,0:0:0:0:
304,202,100307,2,0,P|298:258|306:297,1,90.9999972229005,0|0,3:0|0:2,0:0:0:0:
205,137,100727,6,0,L|141:153,1,65,8|0,3:0|0:0,0:0:0:0:
82,102,101007,2,0,L|92:30,1,65,2|0,0:2|0:0,0:2:0:0:
10,135,101288,2,0,P|7:191|56:276,1,130,10|0,0:2|0:0,0:2:0:0:
112,230,101708,1,8,0:1:0:0:
222,357,101989,1,8,0:1:0:0:
222,357,102129,2,0,L|292:341,1,65,2|0,3:2|0:0,0:2:0:0:
320,271,102409,1,10,0:2:0:0:
392,308,102550,2,0,P|409:265|497:144,1,195,0|0,3:2|0:0,0:2:0:0:
217,164,103250,6,0,L|133:177,1,65,2|0,0:2|0:0,0:2:0:0:
98,226,103531,2,0,P|59:190|62:105,1,130,10|0,0:2|0:0,0:2:0:0:
15,53,103951,1,8,0:1:0:0:
201,9,104232,1,8,0:1:0:0:
201,9,104372,2,0,P|211:57|214:84,1,65,2|0,3:2|0:0,0:2:0:0:
281,107,104652,1,2,0:3:0:0:
247,171,104792,1,2,0:3:0:0:
244,243,104932,1,2,0:3:0:0:
272,310,105072,1,2,0:3:0:0:
325,360,105213,70,0,P|377:337|477:319,1,130,8|0,3:0|0:0,0:0:0:0:
492,256,105634,1,0,0:2:0:0:
400,159,105774,2,0,L|413:237,1,65,10|0,0:2|0:0,0:2:0:0:
451,101,106054,2,0,L|528:126,1,65,2|0,0:2|0:0,0:0:0:0:
416,32,106335,1,2,0:2:0:0:
416,32,106475,1,8,0:1:0:0:
297,65,106615,2,0,P|305:123|311:203,1,130,4|0,3:0|0:0,0:0:0:0:
164,20,107036,2,0,P|172:78|178:158,1,130,4|0,3:0|0:0,0:0:0:0:
1,111,107456,6,0,P|49:103|101:180,1,130,8|0,3:0|0:0,0:0:0:0:
42,206,107877,1,0,0:2:0:0:
127,236,108017,2,0,P|63:249|0:266,1,130,10|0,0:2|0:0,0:2:0:0:
186,292,108437,1,8,0:1:0:0:
365,175,108718,1,8,0:1:0:0:
365,175,108858,2,0,P|359:137|356:105,1,65,2|0,3:2|0:0,0:2:0:0:
295,67,109138,1,2,0:3:0:0:
234,106,109278,1,2,0:3:0:0:
162,114,109418,1,2,0:3:0:0:
93,90,109558,1,2,0:3:0:0:
43,38,109699,6,0,L|56:112,1,65,8|0,3:0|0:0,0:0:0:0:
6,221,109979,2,0,P|-2:186|2:146,1,65,2|0,0:2|0:0,0:2:0:0:
79,251,110260,2,0,P|114:229|217:215,1,130,10|0,0:2|0:0,0:2:0:0:
263,266,110680,1,8,0:1:0:0:
468,140,110961,1,8,0:1:0:0:
468,140,111101,2,0,L|485:209,1,65,2|0,3:2|0:0,0:2:0:0:
430,253,111381,1,10,0:2:0:0:
499,306,111521,2,0,P|450:304|359:320,1,130,0|0,3:2|0:0,0:2:0:0:
305,374,111942,6,0,L|291:295,1,65,2|0,0:2|0:0,0:2:0:0:
225,245,112222,2,0,L|211:324,1,65,2|0,0:2|0:0,0:2:0:0:
156,371,112503,2,0,P|136:325|139:227,1,130,10|0,0:2|0:0,0:2:0:0:
69,197,112923,1,8,0:1:0:0:
252,73,113204,1,8,0:1:0:0:
252,73,113344,2,0,L|243:1,1,65,2|0,3:2|0:0,0:2:0:0:
205,133,113624,1,2,0:3:0:0:
244,193,113764,1,2,0:3:0:0:
309,224,113904,1,2,0:3:0:0:
381,218,114044,1,2,0:3:0:0:
440,176,114185,70,0,P|440:132|452:53,2,116.999996429443,2|2|2,0:2|0:2|0:2,0:2:0:0:
256,192,116428,12,2,118671,0:2:0:0:
256,192,125400,12,2,127643,0:2:0:0:
191,108,127923,5,2,0:2:0:0:
191,108,128064,2,0,P|268:103|302:121,1,104,2|2,0:2|0:2,0:2:0:0:
367,65,128484,2,0,P|366:114|368:175,1,104,2|2,0:2|0:2,0:2:0:0:
450,202,128905,2,0,P|446:168|443:132,2,52,2|2|2,0:2|0:2|0:2,0:0:0:0:
509,258,129325,2,0,P|471:250|344:271,1,156,2|0,0:2|0:2,0:2:0:0:
274,225,129886,6,0,L|291:344,1,104,2|2,0:2|0:2,0:2:0:0:
195,378,130307,2,0,L|205:272,1,104,2|2,0:2|0:2,0:2:0:0:
121,309,130727,2,0,L|112:249,1,52,2|0,0:2|0:2,0:2:0:0:
48,212,131007,1,2,0:2:0:0:
105,162,131148,1,2,0:2:0:0:
181,180,131288,1,2,0:2:0:0:
209,253,131428,1,2,0:2:0:0:
278,224,131568,2,0,L|283:163,1,52,2|2,0:2|0:2,0:0:0:0:
373,321,131849,2,0,L|378:382,1,52,2|2,0:2|0:2,0:0:0:0:
454,373,132129,6,0,P|470:327|391:78,1,312,2|0,0:2|0:0,0:2:0:0:
58,11,134372,2,0,P|42:57|81:210,1,208,2|0,0:2|0:2,0:2:0:0:
29,360,135774,2,0,P|58:349|94:341,1,52,0|0,3:2|0:2,0:2:0:0:
125,285,136054,1,2,0:3:0:0:
183,337,136194,1,2,0:3:0:0:
258,356,136334,1,2,0:3:0:0:
335,338,136474,1,2,0:3:0:0:
394,287,136615,69,8,3:2:0:0:
481,51,137176,2,0,L|391:63,1,77.999997619629,8|2,0:2|0:2,0:2:0:0:
352,120,137456,1,0,0:2:0:0:
352,120,137596,1,8,0:1:0:0:
279,36,137736,2,0,P|270:76|273:128,1,77.999997619629,2|10,0:2|0:1,0:0:0:0:
170,96,138017,2,0,P|179:136|176:188,1,77.999997619629,2|2,0:2|0:2,0:0:0:0:
103,0,138297,2,0,L|91:164,1,155.999995239258,10|0,0:2|0:2,0:2:0:0:
14,145,138718,1,0,0:0:0:0:
31,287,138858,54,0,P|72:264|170:274,1,116.999996429443,2|0,0:2|0:2,0:2:0:0:
140,262,139138,2,0,L|158:344,1,77.999997619629,2|2,0:2|0:2,0:2:0:0:
298,384,139419,2,0,P|298:338|339:220,1,155.999995239258,8|2,0:2|0:2,0:0:0:0:
215,187,139839,2,0,L|136:176,1,77.999997619629,10|2,0:1|0:2,0:0:0:0:
236,259,140120,1,10,0:1:0:0:
348,149,140260,2,0,P|368:209|387:306,1,155.999995239258,4|0,3:0|0:2,0:0:0:0:
171,204,140680,2,0,P|191:264|210:361,1,155.999995239258,4|0,3:0|3:2,0:0:0:0:
8,249,141101,6,0,P|3:194|106:140,1,155.999995239258,8|0,3:0|0:2,0:0:0:0:
108,61,141521,2,0,P|64:59|18:60,1,77.999997619629,0|8,0:2|0:2,0:0:0:0:
180,21,141802,1,2,0:2:0:0:
215,118,141942,1,2,0:2:0:0:
309,82,142082,1,10,0:1:0:0:
362,174,142222,2,0,P|318:165|270:160,1,77.999997619629,2|10,0:2|0:1,0:0:0:0:
512,197,142503,2,0,P|502:125|495:33,1,155.999995239258,4|0,3:0|0:2,0:0:0:0:
389,299,142923,2,0,P|379:227|372:135,1,155.999995239258,4|0,3:0|0:2,0:0:0:0:
219,242,143344,6,0,B|137:230|153:306|60:283,1,155.999995239258,8|0,3:0|0:2,0:0:0:0:
70,130,143764,2,0,P|82:181|91:222,1,77.999997619629,2|8,0:2|0:2,0:2:0:0:
127,80,144045,1,2,0:2:0:0:
208,156,144185,1,2,0:2:0:0:
303,77,144325,1,10,0:1:0:0:
213,0,144465,2,0,L|229:80,1,77.999997619629,2|10,0:2|0:1,0:0:0:0:
365,125,144746,2,0,P|348:161|346:200,1,77.999997619629,2|0,3:2|0:0,0:2:0:0:
417,237,145026,1,2,0:3:0:0:
389,311,145166,1,2,0:3:0:0:
322,354,145306,1,2,0:3:0:0:
243,350,145446,1,2,0:3:0:0:
182,299,145586,5,8,3:0:0:0:
0,122,145867,1,2,0:2:0:0:
0,122,146007,2,0,L|20:42,1,77.999997619629,2|8,0:2|0:2,0:0:0:0:
100,80,146287,1,2,0:2:0:0:
100,80,146427,2,0,L|93:-12,1,77.999997619629,2|8,0:2|0:1,0:0:0:0:
169,122,146708,1,2,0:2:0:0:
234,17,146848,2,0,P|240:76|250:176,1,155.999995239258,10|2,0:1|0:2,0:0:0:0:
335,51,147268,2,0,P|324:116|320:155,1,77.999997619629,10|0,0:2|0:0,0:0:0:0:
404,192,147549,2,0,P|404:147|399:103,1,77.999997619629,0|0,0:2|0:2,0:0:0:0:
457,60,147829,1,8,3:0:0:0:
503,257,148110,69,2,0:2:0:0:
503,257,148250,2,0,P|498:304|494:345,1,77.999997619629,2|8,0:2|0:2,0:0:0:0:
422,292,148530,1,2,0:2:0:0:
348,384,148670,2,0,P|347:330|345:291,1,77.999997619629,2|8,0:2|0:1,0:0:0:0:
281,269,148951,1,0,0:2:0:0:
281,269,149091,1,8,0:1:0:0:
177,358,149231,2,0,P|126:339|16:324,1,155.999995239258,4|0,3:0|0:2,0:0:0:0:
263,188,149652,2,0,P|212:169|102:154,1,155.999995239258,4|0,3:0|0:2,0:0:0:0:
14,12,150072,6,0,P|46:71|146:48,1,155.999995239258,8|0,3:0|0:2,0:0:0:0:
187,17,150493,1,0,0:0:0:0:
240,75,150633,1,8,0:2:0:0:
358,27,150773,2,0,L|362:119,1,77.999997619629,2|0,0:2|0:2,0:0:0:0:
422,150,151054,1,2,0:2:0:0:
288,193,151194,2,0,P|245:178|206:173,1,77.999997619629,2|0,0:2|0:2,0:0:0:0:
373,320,151474,2,0,L|361:190,1,116.999996429443,4|0,3:0|0:0,0:0:0:0:
362,203,151755,1,0,0:2:0:0:
491,220,151895,2,0,P|515:169|480:-5,1,233.999992858887,4|2,3:0|0:2,0:0:0:0:
256,192,152386,12,0,154278,0:2:0:0:
147,145,154559,38,0,P|157:199|174:274,2,116.999996429443,2|2|2,0:2|0:2|0:2,0:2:0:0:
6,77,155961,2,0,L|11:24,2,38.9999988098145,2|2|2,0:2|0:2|0:2,0:0:0:0:
74,304,156802,6,0,P|124:275|186:270,1,104,2|0,0:2|0:2,0:2:0:0:
238,209,157222,2,0,L|252:312,1,104,2|0,0:2|0:2,0:2:0:0:
323,374,157643,2,0,P|331:318|364:212,1,156,2|0,0:2|0:0,0:2:0:0:
437,228,158204,2,0,L|421:144,1,65,0|0,3:2|0:2,0:2:0:0:
470,104,158484,1,2,0:3:0:0:
407,58,158624,1,2,0:3:0:0:
330,59,158764,1,2,0:3:0:0:
270,107,158904,1,2,0:3:0:0:
251,182,159045,38,0,B|148:156|180:266|49:234,1,195,8|0,3:0|0:2,0:0:0:0:
18,184,159606,1,10,0:2:0:0:
18,184,159746,2,0,P|20:142|21:109,1,65,2|0,0:2|0:2,0:2:0:0:
67,62,160026,1,10,0:1:0:0:
140,116,160166,1,2,0:2:0:0:
204,46,160307,1,10,0:1:0:0:
264,93,160447,2,0,P|314:98|408:112,1,130,4|0,3:0|0:2,0:0:0:0:
164,210,160867,2,0,P|214:215|308:229,1,130,4|0,3:0|0:2,0:0:0:0:
496,343,161288,6,0,L|480:281,1,65,8|0,3:0|0:0,0:0:0:0:
297,357,161568,2,0,P|336:307|399:298,1,130,2|10,0:2|0:2,0:2:0:0:
377,207,161989,1,2,0:2:0:0:
377,207,162129,2,0,L|385:130,1,65,2|8,0:2|0:1,0:2:0:0:
237,279,162409,1,2,0:2:0:0:
237,279,162550,1,10,0:1:0:0:
187,220,162690,2,0,L|114:214,1,65,2|0,3:2|0:0,0:2:0:0:
79,275,162970,1,2,0:3:0:0:
22,230,163110,1,2,0:3:0:0:
0,161,163250,1,2,0:3:0:0:
17,92,163390,1,2,0:3:0:0:
70,43,163531,6,0,L|156:22,1,65,8|0,3:0|0:0,0:0:0:0:
196,78,163811,1,2,0:2:0:0:
196,78,163951,2,0,P|195:116|196:148,1,65,2|8,0:2|0:2,0:2:0:0:
354,188,164232,1,2,0:2:0:0:
354,188,164372,2,0,P|355:150|354:118,1,65,2|8,0:2|0:1,0:2:0:0:
307,61,164652,1,2,0:2:0:0:
409,5,164793,2,0,P|460:21|512:103,1,130,10|2,0:1|0:2,0:2:0:0:
460,138,165213,1,10,0:2:0:0:
497,247,165353,1,2,0:2:0:0:
427,212,165493,1,2,0:2:0:0:
427,212,165634,1,2,0:2:0:0:
408,325,165774,6,0,P|341:313|264:311,1,130,8|0,3:0|0:2,0:0:0:0:
166,363,166194,2,0,L|242:373,1,65,2|8,0:2|0:2,0:2:0:0:
292,209,166475,1,2,0:2:0:0:
292,209,166615,2,0,L|220:226,1,65,2|8,0:2|0:1,0:0:0:0:
68,261,166895,1,2,0:2:0:0:
68,261,167036,1,10,0:1:0:0:
0,216,167176,2,0,L|9:141,1,65,8|0,3:0|0:2,0:0:0:0:
19,77,167456,1,2,0:2:0:0:
360,289,168017,70,0,P|381:245|344:98,1,195,8|0,3:0|0:0,0:0:0:0:
278,265,168578,1,8,0:2:0:0:
278,265,168718,2,0,L|287:344,1,65,2|0,0:2|0:2,0:2:0:0:
211,217,168998,1,2,0:2:0:0:
167,349,169138,2,0,P|170:304|178:265,1,65,2|0,0:2|0:2,0:2:0:0:
89,305,169419,2,0,P|78:251|50:170,1,130,4|0,3:0|0:2,0:0:0:0:
264,162,169839,2,0,P|253:108|225:27,1,130,4|0,3:0|0:2,0:0:0:0:
474,110,170260,5,8,3:0:0:0:
474,110,170400,2,0,P|468:152|462:182,1,65,0|2,0:0|0:2,0:0:0:0:
356,65,170680,2,0,L|441:44,1,65,2|8,0:2|0:2,0:2:0:0:
251,222,170961,2,0,L|166:201,1,65,2|0,0:2|0:0,0:2:0:0:
292,289,171241,1,10,0:1:0:0:
353,243,171381,2,0,P|345:204|342:164,1,65,2|8,0:2|0:1,0:2:0:0:
458,365,171662,2,0,P|392:359|308:365,1,130,4|0,3:0|0:2,0:0:0:0:
195,280,172082,2,0,P|129:286|45:280,1,130,4|0,3:0|0:2,0:0:0:0:
65,283,172503,1,2,0:2:0:0:
