osu file format v14

[General]
AudioFilename: audio.mp3
AudioLeadIn: 0
PreviewTime:55797
Countdown: 0
SampleSet: Soft
StackLeniency: 0.7
Mode: 0
LetterboxInBreaks: 0
WidescreenStoryboard: 1

[Editor]
Bookmarks: 2035,19979,37923,55867,73811,78297,82783,100727,114185,118671,136615,154559,159045,172503
DistanceSpacing: 1
BeatDivisor: 16
GridSize: 16
TimelineZoom: 2.599999

[Metadata]
Title:Dream Yoga
TitleUnicode:Dream Yoga
Artist:Elroy
ArtistUnicode:Elroy
Creator:hehe
Version:Extra
Source:
Tags:english rap hiphop hip-hop hip hop emo experimental pop electronic alternative hyper-pop hyperpop hyper
BeatmapID:4183030
BeatmapSetID:1999305

[Difficulty]
HPDrainRate:5
CircleSize:4
OverallDifficulty:8.5
ApproachRate:9
SliderMultiplier:2.8
SliderTickRate:1

[Events]
//Background and Video events
0,0,"dream__REAL.jpg",0,0
//Break Periods
//Storyboard Layer 0 (Background)
//Storyboard Layer 1 (Fail)
//Storyboard Layer 2 (Pass)
//Storyboard Layer 3 (Foreground)
//Storyboard Layer 4 (Overlay)
//Storyboard Sound Samples

[TimingPoints]
2036,560.747663551402,4,2,1,50,1,0
19979,-83.3333333333333,4,2,1,70,0,0
37923,-166.666666666667,4,2,1,40,0,0
46895,-142.857142857143,4,2,1,50,0,0
51381,-125,4,2,1,70,0,0
53063,-100,4,2,1,70,0,0
55306,-83.3333333333333,4,2,1,70,0,0
55867,-50,4,2,1,80,0,1
56428,-100,4,2,1,60,0,0
59091,-100,4,2,1,70,0,0
59512,-71.4285714285714,4,2,1,70,0,0
60353,-71.4285714285714,4,2,1,80,0,1
71007,-166.666666666667,4,2,1,80,0,1
73811,-100,4,2,1,80,0,1
74092,-166.666666666667,4,2,1,40,0,0
76335,-166.666666666667,4,2,1,50,0,0
77175,-125,4,2,1,60,0,0
77456,-100,4,2,1,60,0,0
78297,-83.3333333333333,4,2,1,70,0,0
114185,-333.333333333333,4,2,1,40,0,0
118671,-166.666666666667,4,2,1,50,0,0
125400,-125,4,2,1,50,0,0
127643,-125,4,2,1,60,0,0
132129,-250.000000000001,4,2,1,50,0,0
135774,-125,4,2,1,70,0,0
136054,-83.3333333333333,4,2,1,70,0,0
136615,-71.4285714285714,4,2,1,80,0,1
152316,-100,4,2,1,60,0,0
154559,-166.666666666667,4,2,1,60,0,0
156802,-125,4,2,1,60,0,0
158203,-100,4,2,1,70,0,0
158484,-71.4285714285714,4,2,1,70,0,0
159045,-71.4285714285714,4,2,1,80,0,0
167456,-250,4,2,1,80,0,0
168017,-71.4285714285714,4,2,1,80,0,0

[Colours]
Combo1 : 173,255,95
Combo2 : 255,88,100
Combo3 : 255,94,55
Combo4 : 17,254,176
Combo5 : 131,159,105
Combo6 : 164,89,91
Combo7 : 174,125,94
Combo8 : 84,163,137

[HitObjects]
129,278,2035,54,0,P|109:216|161:145,1,140,0|0,0:2|0:2,0:2:0:0:
258,232,2456,2,0,P|219:223|179:222,1,70,0|8,0:2|0:2,0:2:0:0:
311,176,2736,1,0,0:2:0:0:
414,273,2877,2,0,P|453:264|493:263,1,70,0|0,0:2|0:2,0:0:0:0:
340,250,3157,5,0,0:2:0:0:
340,250,3297,1,0,0:2:0:0:
469,164,3437,1,0,0:2:0:0:
469,164,3578,1,0,0:2:0:0:
393,117,3718,2,0,L|388:199,1,70,8|0,0:2|0:0,0:2:0:0:
223,120,3998,2,0,L|218:50,1,70,0|0,0:0|0:2,0:0:0:0:
292,18,4278,6,0,P|318:72|291:153,1,140,0|0,0:2|0:2,0:2:0:0:
161,171,4699,2,0,P|117:157|83:156,1,70,0|8,0:2|0:2,0:2:0:0:
223,120,4979,1,0,0:2:0:0:
102,49,5120,2,0,P|146:63|180:64,1,70,0|0,0:2|0:2,0:0:0:0:
273,184,5400,5,2,0:2:0:0:
161,296,5540,1,2,0:2:0:0:
196,161,5680,1,2,0:2:0:0:
196,161,5821,1,0,0:2:0:0:
239,321,5961,2,0,P|235:271|232:236,1,70,10|2,0:2|0:2,0:0:0:0:
354,194,6241,2,0,P|356:159|359:124,1,70,2|0,0:2|0:2,0:2:0:0:
506,304,6521,70,0,P|459:289|376:336,1,140,0|0,0:2|0:2,0:2:0:0:
300,254,6942,2,0,P|307:310|308:335,1,70,0|8,0:2|0:2,0:2:0:0:
224,227,7222,1,0,0:2:0:0:
89,270,7363,2,0,P|82:319|81:355,1,70,0|0,0:2|0:2,0:0:0:0:
153,375,7643,5,2,0:2:0:0:
153,375,7783,1,2,0:2:0:0:
243,309,7923,1,0,0:2:0:0:
243,309,8064,1,0,0:2:0:0:
183,252,8204,2,0,P|182:200|169:105,1,140,8|0,0:2|0:0,0:2:0:0:
170,112,8624,1,0,0:2:0:0:
101,83,8764,6,0,P|142:44|226:55,1,140,0|0,0:2|0:2,0:2:0:0:
20,61,9185,2,0,L|30:130,1,70,0|8,0:2|0:2,0:2:0:0:
174,169,9465,1,0,0:2:0:0:
97,181,9606,2,0,L|86:250,1,70,0|0,0:2|0:2,0:0:0:0:
21,298,9886,5,0,0:2:0:0:
21,298,10026,1,0,0:2:0:0:
145,376,10166,1,0,0:2:0:0:
145,376,10307,1,0,0:2:0:0:
200,319,10447,2,0,P|191:275|190:234,1,70,8|0,0:2|0:0,0:2:0:0:
70,303,10727,2,0,P|67:337|59:371,2,70,0|0|0,0:2|0:2|0:2,0:2:0:0:
405,291,11288,69,0,0:2:0:0:
351,234,11428,2,0,P|330:268|330:309,1,70,0|8,0:2|0:2,0:2:0:0:
465,343,11708,5,0,0:2:0:0:
465,343,11849,2,0,P|447:286|440:227,1,105,0|0,0:2|0:2,0:2:0:0:
440,241,12129,5,2,0:2:0:0:
500,188,12269,2,0,P|500:152|508:103,1,70,2|0,0:2|0:0,0:2:0:0:
394,179,12550,5,0,0:2:0:0:
441,67,12690,2,0,P|386:57|339:94,1,105,8|0,0:2|0:0,0:2:0:0:
347,83,12970,2,0,L|201:69,1,140,0|0,0:0|0:2,0:0:0:0:
136,239,13531,69,0,0:2:0:0:
198,197,13671,2,0,P|230:211|277:220,1,70,0|8,0:2|0:2,0:2:0:0:
81,173,13951,5,0,0:2:0:0:
81,173,14092,2,0,P|120:133|180:135,1,105,0|0,0:2|0:2,0:2:0:0:
166,130,14372,5,2,0:2:0:0:
316,53,14512,1,2,0:2:0:0:
314,197,14652,1,2,0:2:0:0:
314,197,14793,1,2,0:2:0:0:
241,78,14933,2,0,P|247:117|253:161,1,70,10|2,0:2|0:2,0:0:0:0:
440,187,15213,2,0,P|434:226|432:271,1,70,2|0,0:2|0:2,0:2:0:0:
304,351,15493,5,0,0:2:0:0:
463,323,15634,2,0,P|423:287|328:284,1,140,0|0,0:2|0:2,0:2:0:0:
224,371,16054,1,8,0:2:0:0:
166,314,16194,2,0,P|165:273|160:229,1,70,2|0,0:2|0:2,0:2:0:0:
273,241,16475,69,0,0:2:0:0:
222,122,16615,2,0,L|215:205,1,70,2|0,0:2|0:0,0:2:0:0:
352,261,16895,2,0,L|346:191,1,70,2|0,0:2|0:2,0:2:0:0:
494,192,17176,2,0,P|498:135|467:50,1,140,8|0,0:2|0:0,0:2:0:0:
471,57,17596,1,0,0:2:0:0:
401,24,17736,5,2,0:2:0:0:
342,85,17877,1,2,0:2:0:0:
258,53,18017,1,2,0:2:0:0:
342,85,18157,1,2,0:2:0:0:
126,164,18437,6,0,P|134:212|140:279,1,105,2|0,0:2|0:0,0:2:0:0:
139,268,18718,1,2,0:2:0:0:
71,315,18858,6,0,P|1:287|-3:223,1,140,2|2,0:2|0:2,0:2:0:0:
52,178,19278,1,0,0:2:0:0:
210,209,19419,70,0,P|283:206|325:225,1,105,2|0,0:2|0:2,0:2:0:0:
311,217,19699,1,0,0:2:0:0:
466,231,19839,1,0,0:2:0:0:
384,251,19979,6,0,B|386:273|386:273|396:244,1,41.9999987182618,8|0,3:0|0:0,0:0:0:0:
141,319,20260,5,0,0:2:0:0:
76,287,20400,2,0,P|71:242|56:190,1,83.9999974365235,0|8,0:2|0:2,0:2:0:0:
183,122,20680,1,0,0:2:0:0:
109,56,20821,1,0,0:2:0:0:
192,3,20961,1,0,0:2:0:0:
107,136,21101,6,0,P|158:138|197:243,1,167.999994873047,2|2,0:2|0:2,0:2:0:0:
268,147,21521,1,0,0:2:0:0:
343,268,21662,2,0,L|330:166,1,83.9999974365235,10|0,0:2|0:2,0:2:0:0:
493,152,21942,1,2,0:2:0:0:
427,189,22082,1,0,0:0:0:0:
383,129,22222,1,2,0:2:0:0:
44,326,22503,69,2,0:2:0:0:
44,326,22643,1,2,0:2:0:0:
101,275,22783,1,10,0:2:0:0:
133,378,22923,1,2,0:2:0:0:
236,342,23064,2,0,P|265:299|255:250,1,83.9999974365235,2|0,0:2|0:2,0:0:0:0:
192,117,23344,1,2,0:2:0:0:
332,223,23484,1,0,0:0:0:0:
403,50,23624,6,0,P|345:62|225:51,1,167.999994873047,4|8,3:0|0:2,0:0:0:0:
109,334,24045,2,0,P|167:322|287:333,1,167.999994873047,4|0,3:0|0:2,0:0:0:0:
76,117,24465,2,0,L|86:147,6,20.9999993591309,8|0|0|0|0|0|0,3:0|0:0|0:0|0:2|0:0|0:2|0:0,0:0:0:0:
133,68,24746,6,0,P|180:95|187:141,1,83.9999974365235,2|0,0:2|0:2,0:2:0:0:
11,77,25026,1,10,0:2:0:0:
67,20,25166,1,2,0:2:0:0:
188,120,25307,2,0,P|179:186|177:224,1,83.9999974365235,2|0,0:2|0:0,0:2:0:0:
50,297,25587,6,0,P|15:257|76:159,1,167.999994873047,2|2,0:2|0:2,0:2:0:0:
215,273,26007,1,0,0:0:0:0:
89,233,26148,2,0,P|150:217|193:214,1,83.9999974365235,10|0,0:2|0:2,0:2:0:0:
261,80,26428,2,0,P|302:86|342:98,1,83.9999974365235,2|0,0:2|0:2,0:2:0:0:
487,250,26708,70,0,L|492:221,14,20.9999993591309,8|0|0|0|0|0|0|0|0|0|0|0|0|0|0,3:0|0:0|0:2|0:0|0:2|0:0|0:2|0:0|0:2|0:0|0:2|0:0|0:2|0:0|0:0,0:0:0:0:
429,180,27269,5,10,0:2:0:0:
351,273,27409,1,2,0:2:0:0:
407,326,27550,2,0,P|456:333|503:342,1,83.9999974365235,2|0,0:2|0:2,0:2:0:0:
275,355,27830,1,2,0:2:0:0:
357,193,27970,1,0,0:2:0:0:
136,221,28110,6,0,P|122:277|157:387,1,167.999994873047,4|8,3:0|0:2,0:0:0:0:
376,163,28531,2,0,P|390:107|355:-3,1,167.999994873047,4|0,3:0|0:2,0:0:0:0:
59,182,28951,2,0,B|56:161|56:161|70:181,1,41.9999987182618,8|0,3:0|0:0,0:0:0:0:
424,283,29372,5,2,0:2:0:0:
363,231,29512,2,0,P|326:251|321:306,1,83.9999974365235,10|0,0:2|0:2,0:2:0:0:
243,368,29793,1,2,0:2:0:0:
253,227,29933,1,0,0:0:0:0:
174,321,30073,70,0,P|105:337|53:245,1,167.999994873047,2|2,0:2|0:2,0:2:0:0:
156,206,30493,1,0,0:2:0:0:
7,184,30634,2,0,P|52:176|88:206,1,83.9999974365235,10|0,0:2|0:2,0:2:0:0:
211,148,30914,1,2,0:2:0:0:
339,186,31054,1,0,0:0:0:0:
232,236,31194,6,0,P|228:190|192:18,1,209.999993591309,2|0,0:2|0:0,0:2:0:0:
195,29,31615,1,2,0:2:0:0:
313,44,31755,1,10,0:2:0:0:
253,95,31895,1,2,0:2:0:0:
447,117,32036,2,0,P|463:62|445:22,1,83.9999974365235,2|0,0:2|0:2,0:2:0:0:
232,177,32316,1,2,0:2:0:0:
371,276,32456,1,0,0:0:0:0:
230,361,32596,6,0,P|163:366|68:303,1,167.999994873047,4|8,3:0|0:2,0:0:0:0:
282,23,33017,2,0,P|349:18|444:81,1,167.999994873047,4|0,3:0|0:2,0:0:0:0:
475,344,33437,2,0,L|469:315,14,20.9999993591309,8|0|0|0|0|0|0|0|0|0|0|0|0|0|0,3:0|0:0|0:2|0:0|0:2|0:0|0:2|0:0|0:2|0:0|0:2|0:0|0:2|0:0|0:0,0:0:0:0:
405,379,33998,5,10,0:2:0:0:
286,282,34138,1,2,0:2:0:0:
226,335,34278,2,0,P|207:287|220:240,1,83.9999974365235,2|0,0:2|0:2,0:2:0:0:
363,311,34559,70,0,P|369:265|406:131,1,167.999994873047,2|2,0:2|0:2,0:2:0:0:
341,96,34979,1,0,0:2:0:0:
472,140,35120,1,10,0:2:0:0:
341,21,35260,1,2,0:2:0:0:
285,182,35400,1,2,0:2:0:0:
285,182,35540,1,0,0:2:0:0:
432,56,35680,6,0,L|395:65,14,20.9999993591309,8|0|0|0|0|0|0|0|0|0|0|0|0|0|0,3:0|0:0|0:2|0:0|0:2|0:0|0:2|0:0|0:2|0:0|0:2|0:0|0:0|0:0|0:0,0:0:0:0:
370,129,36241,5,8,0:2:0:0:
312,29,36381,2,0,P|262:60|207:58,1,83.9999974365235,0|0,0:2|0:2,0:2:0:0:
57,150,36662,1,0,0:2:0:0:
182,8,36802,2,0,P|122:20|105:98,1,125.999996154785,2|0,0:2|0:2,0:2:0:0:
98,75,37082,6,0,P|161:96|205:120,1,83.9999974365235,2|0,3:2|0:0,0:2:0:0:
252,84,37363,1,2,0:2:0:0:
303,174,37503,2,0,P|297:122|268:-9,1,167.999994873047,0|0,3:2|0:2,0:2:0:0:
371,221,37923,70,0,P|417:229|484:131,1,167.999994873047,0|8,3:2|0:2,0:2:0:0:
486,144,38764,1,0,0:2:0:0:
302,284,39045,2,0,P|300:256|295:229,2,41.9999987182618,2|2|2,0:2|0:2|3:2,0:0:0:0:
370,329,39606,1,8,0:2:0:0:
394,197,39886,1,0,0:2:0:0:
240,378,40166,6,0,P|206:364|64:343,1,167.999994873047,0|10,3:2|0:2,0:2:0:0:
14,303,40867,1,2,0:2:0:0:
106,236,41007,1,2,0:2:0:0:
47,188,41148,1,10,0:1:0:0:
111,105,41288,6,0,P|111:132|112:156,1,41.9999987182618,2|8,0:2|0:1,0:2:0:0:
37,111,41568,2,0,P|37:84|36:60,1,41.9999987182618,2|0,3:2|0:2,0:2:0:0:
168,47,41849,1,10,0:2:0:0:
168,47,41989,2,0,P|221:55|264:67,1,83.9999974365235,2|0,3:2|0:2,0:2:0:0:
308,9,42409,6,0,P|384:5|430:83,1,167.999994873047,0|8,3:2|0:2,0:2:0:0:
430,75,43250,1,0,0:2:0:0:
221,149,43531,2,0,P|249:142|278:137,2,41.9999987182618,2|2|2,0:2|0:2|3:2,0:0:0:0:
328,182,44092,1,8,0:2:0:0:
181,275,44372,1,0,0:2:0:0:
410,384,44652,70,0,P|402:340|401:208,1,167.999994873047,0|8,3:2|0:2,0:2:0:0:
461,169,45353,1,2,0:2:0:0:
336,86,45634,1,10,0:1:0:0:
271,202,45914,1,8,0:1:0:0:
271,202,46054,2,0,P|232:205|211:211,1,41.9999987182618,0|0,3:2|0:2,0:2:0:0:
184,143,46335,1,8,0:2:0:0:
184,143,46475,2,0,P|139:138|94:129,1,83.9999974365235,0|0,3:2|0:2,0:2:0:0:
77,58,46895,6,0,P|35:91|55:188,1,146.999995513916,0|0,3:2|0:2,0:2:0:0:
102,224,47456,2,0,P|122:259|107:329,1,97.9999970092774,8|0,0:2|0:2,0:2:0:0:
24,214,48017,5,2,0:2:0:0:
176,368,48297,1,2,3:2:0:0:
338,239,48578,1,10,0:2:0:0:
441,323,48858,1,2,0:2:0:0:
205,295,49138,6,0,P|242:297|312:308,1,97.9999970092774,2|2,3:2|0:2,0:2:0:0:
338,239,49559,1,0,0:2:0:0:
415,249,49699,2,0,P|441:215|416:109,1,146.999995513916,10|8,0:2|0:1,0:2:0:0:
354,134,50260,69,2,0:2:0:0:
254,70,50400,1,10,0:1:0:0:
358,16,50540,1,2,3:2:0:0:
274,147,50680,1,2,0:2:0:0:
155,27,50821,2,0,P|161:59|164:87,1,48.9999985046387,10|2,0:2|3:2,0:2:0:0:
27,216,51101,2,0,P|21:184|18:156,1,48.9999985046387,2|2,0:2|0:2,0:2:0:0:
81,126,51381,5,2,3:2:0:0:
161,197,51521,1,2,0:2:0:0:
81,273,51662,1,2,0:2:0:0:
81,273,51942,6,0,P|126:248|253:232,1,168,10|0,0:2|0:2,0:2:0:0:
465,266,52503,5,2,0:2:0:0:
382,324,52643,1,2,0:2:0:0:
311,253,52783,2,0,L|320:181,1,56,2|0,3:2|0:2,0:2:0:0:
465,266,53064,69,8,0:2:0:0:
401,141,53204,2,0,P|392:264|415:361,1,210,2|4,3:2|3:2,0:2:0:0:
204,208,55026,6,0,L|194:121,1,70,0|0,3:2|0:2,0:2:0:0:
276,98,55307,5,2,0:3:0:0:
248,267,55447,5,2,0:3:0:0:
79,239,55587,69,2,0:3:0:0:
107,70,55727,5,2,0:3:0:0:
160,127,55867,6,0,L|202:115,16,35,0|0|0|0|0|0|0|0|0|0|0|0|0|0|0|0|0,3:2|0:0|0:2|0:0|0:2|0:0|0:2|0:0|0:2|0:0|0:2|0:0|0:2|0:0|0:2|0:0|0:0,0:0:0:0:
359,128,59092,6,0,L|372:211,1,70,8|0,0:2|0:2,0:2:0:0:
445,210,59372,1,8,0:2:0:0:
280,250,59512,70,0,P|285:189|285:92,1,146.999995513916,0|0,3:2|0:2,0:2:0:0:
285,103,59793,1,8,0:2:0:0:
69,329,60353,6,0,L|32:340,14,24.4999992523194,8|0|0|0|0|0|0|0|0|0|0|0|0|0|0,3:0|0:0|0:2|0:0|0:2|0:0|0:2|0:0|0:2|0:0|0:2|0:0|0:0|0:0|0:0,0:0:0:0:
99,262,60914,37,8,0:2:0:0:
170,222,61054,1,2,0:2:0:0:
244,367,61194,2,0,P|288:362|320:320,1,97.9999970092774,2|10,0:2|0:1,0:2:0:0:
195,299,61475,5,2,0:2:0:0:
318,187,61615,1,10,0:1:0:0:
182,144,61755,1,2,0:2:0:0:
281,260,61895,1,2,0:2:0:0:
394,134,62036,6,0,L|97:194,1,293.999991027832,10|0,0:2|0:2,0:2:0:0:
2,65,62596,6,0,L|12:110,6,24.4999992523194,8|0|0|0|0|0|0,3:0|0:0|0:2|0:0|0:2|0:0|0:2,0:0:0:0:
52,9,62877,69,0,0:0:0:0:
109,116,63017,2,0,P|136:68|116:21,1,97.9999970092774,2|8,0:2|0:2,0:2:0:0:
44,154,63297,1,2,0:2:0:0:
189,185,63437,1,2,0:2:0:0:
228,43,63578,1,10,0:1:0:0:
280,108,63718,5,2,0:2:0:0:
280,108,63858,1,10,0:1:0:0:
433,199,63998,6,0,P|420:133|421:0,1,195.999994018555,4|0,3:0|0:2,0:0:0:0:
79,185,64419,2,0,P|92:251|91:384,1,195.999994018555,4|0,3:0|0:2,0:0:0:0:
464,281,64839,2,0,B|488:279|488:279|463:266,1,48.9999985046387,8|0,3:0|0:0,0:0:0:0:
244,249,65120,5,2,0:2:0:0:
244,249,65260,2,0,P|243:292|246:348,1,97.9999970092774,2|8,0:2|0:2,0:0:0:0:
308,202,65540,69,2,0:2:0:0:
171,297,65680,2,0,P|122:269|25:279,1,146.999995513916,2|0,0:2|0:0,0:0:0:0:
33,274,65961,5,2,0:2:0:0:
176,207,66101,2,0,L|183:102,1,97.9999970092774,10|0,0:1|0:0,0:0:0:0:
350,169,66381,5,2,0:2:0:0:
117,67,66521,2,0,P|141:31|249:30,1,146.999995513916,10|0,0:2|0:0,0:0:0:0:
237,21,66802,1,0,0:2:0:0:
275,99,66942,1,0,0:2:0:0:
341,58,67082,1,4,0:2:0:0:
493,281,67363,5,2,0:2:0:0:
493,281,67503,2,0,L|387:301,1,97.9999970092774,2|8,0:2|0:2,0:0:0:0:
191,337,67783,69,2,0:2:0:0:
291,263,67923,1,2,0:2:0:0:
364,369,68064,1,8,0:1:0:0:
215,262,68204,5,2,0:2:0:0:
215,262,68344,1,10,0:1:0:0:
436,164,68484,6,0,P|454:221|441:360,1,195.999994018555,4|0,3:0|0:2,0:0:0:0:
76,220,68905,2,0,P|58:163|71:24,1,195.999994018555,4|0,3:0|0:2,0:0:0:0:
381,108,69325,2,0,L|383:73,14,24.4999992523194,8|0|0|0|0|0|0|0|0|0|0|0|0|0|0,3:0|0:0|0:2|0:0|0:2|0:0|0:2|0:0|0:2|0:0|0:2|0:0|0:2|0:0|0:0,0:0:0:0:
327,33,69886,5,8,0:2:0:0:
266,169,70026,2,0,P|266:127|255:58,1,97.9999970092774,2|0,0:2|0:2,0:2:0:0:
333,208,70307,1,2,0:2:0:0:
197,125,70447,2,0,P|149:132|72:212,1,146.999995513916,2|0,0:2|0:0,0:2:0:0:
78,196,70727,70,0,P|87:249|91:302,1,97.9999970092774,2|0,0:2|0:2,0:0:0:0:
245,335,71007,2,0,P|248:286|267:162,1,167.999994873047,10|4,0:2|0:2,0:2:0:0:
449,91,73811,6,0,B|449:73|449:73|441:89,1,35,8|0,3:0|0:0,0:0:0:0:
309,23,74092,37,2,0:2:0:0:
309,23,74232,1,2,0:2:0:0:
145,180,74513,5,0,0:2:0:0:
145,180,74653,1,2,0:2:0:0:
145,180,74793,1,2,0:2:0:0:
200,127,74933,6,0,P|197:91|190:38,1,83.9999974365235,2|2,0:2|0:2,0:2:0:0:
417,204,75493,2,0,P|411:245|407:287,1,83.9999974365235,2|2,0:2|0:2,0:2:0:0:
337,319,76054,1,2,0:2:0:0:
337,319,76335,5,2,0:2:0:0:
266,277,76475,1,2,0:2:0:0:
158,362,76615,1,2,0:2:0:0:
87,241,76755,1,2,0:2:0:0:
189,284,76895,2,0,P|161:284|141:285,1,41.9999987182618,2|2,0:2|0:2,0:0:0:0:
228,215,77176,1,2,0:2:0:0:
129,125,77316,1,0,0:2:0:0:
348,49,77456,70,0,P|364:84|357:192,1,140,4|0,3:0|0:2,0:0:0:0:
164,335,77877,2,0,P|148:300|155:192,1,140,4|0,3:0|0:0,0:0:0:0:
101,62,78297,2,0,L|68:69,6,20.9999993591309,8|0|0|0|0|0|0,3:0|0:0|0:0|0:0|0:2|0:0|0:0,0:0:0:0:
155,15,78578,6,0,L|243:30,1,83.9999974365235,2|0,0:2|0:2,0:2:0:0:
314,179,78858,1,10,0:2:0:0:
314,179,78998,1,2,0:2:0:0:
338,60,79138,2,0,P|302:72|276:127,1,83.9999974365235,2|0,0:2|0:0,0:2:0:0:
247,219,79419,6,0,L|214:233,3,27.9999991455078,2|0|0|0,3:2|3:2|3:2|3:2,3:2:0:0:
87,171,79699,2,0,L|-2:161,1,83.9999974365235,2|0,3:2|0:2,0:2:0:0:
150,117,79979,5,8,0:3:0:0:
283,231,80120,1,0,3:2:0:0:
162,200,80260,69,8,0:3:0:0:
338,75,80400,1,0,3:2:0:0:
232,157,80540,6,0,L|237:125,16,20.9999993591309,8|0|0|0|0|0|0|0|0|0|0|0|0|0|0|0|0,3:0|0:0|0:2|0:0|0:2|0:0|0:2|0:0|0:2|0:0|0:2|0:0|0:2|0:0|0:2|0:0|0:2,0:0:0:0:
456,330,82783,6,0,B|463:349|463:349|464:328,1,41.9999987182618,8|0,3:0|0:0,0:0:0:0:
197,258,83064,6,0,L|206:149,1,83.9999974365235,2|0,0:2|0:2,0:2:0:0:
414,267,83344,2,0,P|337:257|248:319,1,167.999994873047,10|2,0:2|0:2,0:2:0:0:
146,320,83764,69,8,0:1:0:0:
146,320,83905,1,2,0:2:0:0:
87,263,84045,1,8,0:1:0:0:
87,263,84185,2,0,P|31:275|9:317,1,83.9999974365235,2|0,0:2|0:2,0:0:0:0:
220,289,84465,2,0,P|241:249|217:152,1,125.999996154785,10|0,0:2|0:2,0:2:0:0:
231,171,84746,6,0,L|135:182,1,83.9999974365235,2|0,0:2|0:2,0:2:0:0:
282,112,85026,2,0,L|378:123,1,83.9999974365235,2|0,0:2|0:2,0:2:0:0:
491,89,85307,1,2,0:2:0:0:
414,58,85447,1,0,0:0:0:0:
462,247,85587,2,0,P|411:263|332:182,1,167.999994873047,10|2,0:2|0:2,0:0:0:0:
218,240,86007,5,8,0:1:0:0:
218,240,86148,1,2,0:2:0:0:
238,163,86288,1,8,0:1:0:0:
71,228,86428,2,0,P|56:178|31:126,1,83.9999974365235,2|0,3:2|0:0,0:2:0:0:
136,275,86708,5,2,0:3:0:0:
164,106,86848,69,2,0:3:0:0:
333,134,86988,5,2,0:3:0:0:
305,303,87128,5,2,0:3:0:0:
366,253,87269,6,0,L|360:226,6,20.9999993591309,8|0|0|0|0|0|0,3:0|0:0|0:2|0:0|0:2|0:0|0:2,0:0:0:0:
433,291,87550,2,0,P|475:265|483:212,1,83.9999974365235,2|0,0:2|0:2,0:2:0:0:
295,203,87830,2,0,P|249:166|134:156,1,167.999994873047,10|2,0:2|0:2,0:2:0:0:
17,72,88250,69,8,0:1:0:0:
17,72,88391,1,2,0:2:0:0:
81,12,88531,1,8,0:1:0:0:
81,12,88671,2,0,L|99:101,1,83.9999974365235,2|0,0:2|0:2,0:0:0:0:
22,290,88951,2,0,P|26:224|42:153,1,125.999996154785,10|0,0:2|0:2,0:2:0:0:
38,165,89232,6,0,P|86:173|108:219,1,83.9999974365235,2|0,0:2|0:2,0:2:0:0:
275,301,89512,2,0,L|267:262,14,20.9999993591309,8|0|0|0|0|0|0|0|0|0|0|0|0|0|0,3:0|0:0|0:2|0:0|0:2|0:0|0:2|0:0|0:2|0:0|0:2|0:0|0:2|0:0|0:2,0:0:0:0:
352,321,90073,2,0,P|361:258|406:154,1,167.999994873047,10|2,0:2|0:2,0:2:0:0:
512,92,90493,5,8,0:1:0:0:
512,92,90634,1,2,0:2:0:0:
476,164,90774,1,8,0:1:0:0:
350,49,90914,2,0,P|282:62|174:65,1,167.999994873047,4|0,3:0|0:2,0:0:0:0:
162,335,91335,2,0,P|230:322|338:319,1,167.999994873047,4|0,3:0|0:2,0:0:0:0:
89,56,91755,2,0,B|89:35|89:35|101:55,1,41.9999987182618,8|0,3:0|0:0,0:0:0:0:
137,205,92036,6,0,P|182:190|234:182,1,83.9999974365235,2|0,0:2|0:2,0:2:0:0:
26,106,92316,2,0,P|7:151|77:238,1,167.999994873047,10|2,0:2|0:2,0:2:0:0:
222,310,92736,69,8,0:1:0:0:
222,310,92877,1,2,0:2:0:0:
149,361,93017,1,8,0:1:0:0:
149,361,93157,2,0,L|136:267,1,83.9999974365235,2|0,3:2|0:2,0:2:0:0:
279,238,93437,1,10,0:2:0:0:
396,345,93578,2,0,P|444:324|487:316,1,83.9999974365235,0|0,3:2|0:0,0:2:0:0:
316,384,93858,5,0,0:2:0:0:
316,384,93998,2,0,L|324:283,1,83.9999974365235,2|0,0:2|0:2,0:2:0:0:
401,210,94278,1,2,0:2:0:0:
376,135,94419,1,0,0:2:0:0:
198,202,94559,2,0,P|174:151|198:32,1,167.999994873047,10|2,0:2|0:2,0:2:0:0:
424,64,94979,5,8,0:1:0:0:
424,64,95120,1,2,0:2:0:0:
354,17,95260,1,8,0:1:0:0:
268,149,95400,2,0,P|279:203|257:257,1,83.9999974365235,2|0,3:2|0:0,0:2:0:0:
222,84,95680,5,2,0:3:0:0:
203,192,95820,69,2,0:3:0:0:
95,174,95960,5,2,0:3:0:0:
108,58,96100,5,2,0:3:0:0:
48,111,96241,6,0,L|13:117,6,20.9999993591309,8|0|0|0|0|0|0,3:0|0:0|0:2|0:0|0:2|0:0|0:2,0:0:0:0:
95,174,96521,2,0,P|130:180|186:199,1,83.9999974365235,0|0,0:2|0:2,0:0:0:0:
337,148,96802,2,0,P|351:99|254:16,1,167.999994873047,10|2,0:2|0:2,0:2:0:0:
248,160,97222,69,8,0:1:0:0:
248,160,97363,1,2,0:2:0:0:
277,234,97503,1,8,0:1:0:0:
277,234,97643,2,0,L|374:249,1,83.9999974365235,2|0,0:2|0:2,0:0:0:0:
181,348,97923,2,0,P|138:313|51:307,1,125.999996154785,10|0,0:2|0:0,0:2:0:0:
69,302,98204,6,0,L|53:389,1,83.9999974365235,2|0,0:2|0:2,0:2:0:0:
388,334,98484,2,0,L|381:307,14,20.9999993591309,8|0|0|0|0|0|0|0|0|0|0|0|0|0|0,3:0|0:0|0:2|0:0|0:2|0:0|0:2|0:0|0:2|0:0|0:2|0:0|0:2|0:0|0:2,0:0:0:0:
442,266,99045,5,10,0:2:0:0:
216,36,99465,5,8,0:1:0:0:
17,275,99746,69,8,0:1:0:0:
73,328,99886,6,0,P|135:307|248:300,1,167.999994873047,0|0,3:0|0:2,0:0:0:0:
439,56,100307,2,0,P|377:77|264:84,1,167.999994873047,0|0,3:0|0:2,0:0:0:0:
23,192,100727,2,0,B|8:209|8:209|12:184,1,41.9999987182618,8|0,3:0|0:0,0:0:0:0:
185,2,101007,6,0,L|202:100,1,83.9999974365235,2|0,0:2|0:2,0:2:0:0:
123,219,101288,2,0,P|100:170|125:50,1,167.999994873047,10|2,0:2|0:2,0:2:0:0:
341,102,101708,5,8,0:1:0:0:
341,102,101849,1,2,0:2:0:0:
266,129,101989,1,8,0:1:0:0:
266,129,102129,2,0,L|251:220,1,83.9999974365235,2|0,3:2|0:2,0:2:0:0:
321,257,102409,1,10,0:2:0:0:
450,175,102550,2,0,P|402:175|364:198,1,83.9999974365235,0|2,3:2|0:2,0:2:0:0:
192,308,102830,69,0,0:2:0:0:
192,308,102970,2,0,P|180:252|155:172,1,125.999996154785,2|0,0:2|0:2,0:2:0:0:
160,186,103250,2,0,L|95:202,1,41.9999987182618,2|0,0:2|0:0,0:2:0:0:
53,154,103391,1,0,0:2:0:0:
123,50,103531,2,0,P|170:49|240:141,1,167.999994873047,10|2,0:2|0:2,0:2:0:0:
446,221,103951,5,8,0:1:0:0:
446,221,104092,1,2,0:2:0:0:
376,258,104232,1,8,0:1:0:0:
294,125,104372,2,0,P|360:127|404:121,1,83.9999974365235,2|0,3:2|0:0,0:2:0:0:
486,145,104652,5,2,0:3:0:0:
512,31,104792,5,2,0:3:0:0:
396,18,104932,69,2,0:3:0:0:
378,126,105072,5,2,0:3:0:0:
236,69,105213,6,0,L|230:33,6,20.9999993591309,8|0|0|0|0|0|0,3:0|0:0|0:2|0:0|0:2|0:0|0:0,0:0:0:0:
172,112,105493,2,0,P|157:156|165:197,1,83.9999974365235,2|0,0:2|0:2,0:2:0:0:
116,54,105774,2,0,P|57:61|0:161,1,167.999994873047,10|2,0:2|0:2,0:2:0:0:
64,227,106194,5,8,0:1:0:0:
64,227,106335,1,2,0:2:0:0:
4,278,106475,1,8,0:1:0:0:
169,363,106615,2,0,P|174:318|155:186,1,167.999994873047,4|0,3:0|0:2,0:0:0:0:
343,21,107036,2,0,P|338:66|357:198,1,167.999994873047,4|0,3:0|0:2,0:0:0:0:
496,370,107456,2,0,L|468:364,6,20.9999993591309,8|0|0|0|0|0|0,3:0|0:0|0:2|0:0|0:2|0:0|0:2,0:0:0:0:
438,300,107736,70,0,L|326:320,1,83.9999974365235,0|0,0:2|0:2,0:0:0:0:
219,194,108017,2,0,P|300:183|373:239,1,167.999994873047,10|2,0:2|0:2,0:2:0:0:
174,264,108437,5,8,0:1:0:0:
174,264,108578,1,2,0:2:0:0:
202,341,108718,1,8,0:1:0:0:
202,341,108858,2,0,L|295:362,1,83.9999974365235,2|0,3:2|0:0,0:2:0:0:
447,269,109138,5,2,0:3:0:0:
333,295,109278,5,2,0:3:0:0:
320,179,109418,69,2,0:3:0:0:
428,161,109558,5,2,0:3:0:0:
410,339,109699,2,0,B|398:356|398:356|401:330,1,41.9999987182618,8|0,3:0|0:0,0:0:0:0:
275,109,109979,6,0,P|228:115|169:139,1,83.9999974365235,2|0,0:2|0:2,0:2:0:0:
19,20,110260,2,0,P|33:75|55:194,1,167.999994873047,10|2,0:2|0:2,0:2:0:0:
153,29,110680,5,8,0:1:0:0:
153,29,110821,1,2,0:2:0:0:
117,101,110961,1,8,0:1:0:0:
117,101,111101,2,0,L|206:118,1,83.9999974365235,2|0,3:2|0:2,0:2:0:0:
360,51,111381,1,10,0:2:0:0:
334,121,111521,2,0,P|354:157|342:256,1,125.999996154785,0|0,3:2|0:2,0:2:0:0:
350,239,111802,70,0,P|288:245|183:295,1,167.999994873047,0|0,0:2|0:0,0:0:0:0:
13,250,112222,2,0,L|27:150,1,83.9999974365235,2|0,0:2|0:2,0:2:0:0:
73,300,112503,2,0,L|87:400,1,83.9999974365235,10|0,0:2|0:0,0:2:0:0:
131,246,112783,5,2,0:2:0:0:
248,333,112923,2,0,P|261:285|243:245,1,83.9999974365235,8|2,0:1|0:2,0:2:0:0:
195,201,113204,1,8,0:1:0:0:
366,120,113344,2,0,P|356:177|384:241,1,125.999996154785,2|0,3:2|0:2,0:2:0:0:
381,238,113624,5,2,0:3:0:0:
355,42,113764,5,2,0:3:0:0:
162,63,113904,69,2,0:3:0:0:
174,271,114044,5,2,0:3:0:0:
107,221,114185,2,0,P|100:186|66:98,2,125.999996154785,2|2|2,0:2|0:2|0:2,0:2:0:0:
135,326,116428,6,0,L|178:319,1,41.9999987182618,2|0,0:2|0:2,0:2:0:0:
226,261,116989,2,0,P|302:310|443:295,1,230.99999295044,2|0,0:2|0:2,0:2:0:0:
480,229,118671,6,0,P|471:178|471:101,2,125.999996154785,2|2|2,0:2|0:2|0:2,0:2:0:0:
306,47,120073,1,2,0:2:0:0:
240,81,120213,1,2,0:2:0:0:
240,81,120353,2,0,P|196:73|149:72,1,83.9999974365235,2|0,0:2|0:2,0:2:0:0:
59,245,120914,70,0,P|28:198|61:122,2,125.999996154785,2|2|2,0:2|0:2|0:2,0:2:0:0:
323,266,122316,1,2,0:2:0:0:
230,384,122596,2,0,P|228:342|224:296,1,83.9999974365235,2|0,0:2|0:2,0:2:0:0:
396,178,123157,6,0,P|394:222|397:312,2,125.999996154785,2|2|2,0:2|0:2|0:2,0:2:0:0:
296,60,124559,2,0,P|292:89|287:148,1,83.9999974365235,2|2,0:2|0:2,0:2:0:0:
333,200,124979,2,0,P|299:217|240:198,1,83.9999974365235,2|0,0:2|0:2,0:2:0:0:
201,263,125400,6,0,P|153:233|41:252,1,168,2|0,0:2|0:2,0:2:0:0:
0,307,125961,2,0,L|15:365,1,56,2|0,0:2|0:2,0:2:0:0:
88,384,126241,2,0,L|102:329,1,56,2|0,0:2|0:2,0:2:0:0:
142,200,126521,5,2,0:2:0:0:
297,258,126662,1,2,0:2:0:0:
253,180,126802,1,2,0:2:0:0:
399,94,126942,1,2,0:2:0:0:
504,283,127082,70,0,P|457:251|279:269,1,224,2|2,0:2|0:2,0:2:0:0:
78,224,128063,6,0,P|78:179|75:103,1,112,2|2,0:2|0:2,0:2:0:0:
151,63,128484,2,0,P|151:108|154:184,1,112,2|2,0:2|0:2,0:2:0:0:
332,138,128905,1,2,0:2:0:0:
269,179,129045,1,2,0:2:0:0:
226,120,129185,1,2,0:2:0:0:
386,74,129325,2,0,P|440:70|502:172,1,168,2|0,0:2|0:2,0:2:0:0:
449,205,129886,6,0,P|386:209|316:219,1,112,2|2,0:2|0:2,0:2:0:0:
290,292,130307,2,0,P|353:288|423:278,1,112,2|2,0:2|0:2,0:2:0:0:
249,359,130727,1,2,0:2:0:0:
217,257,130867,1,0,0:2:0:0:
175,323,131007,5,2,0:2:0:0:
266,197,131148,1,2,0:2:0:0:
124,167,131288,1,2,0:2:0:0:
291,285,131428,1,2,0:2:0:0:
326,145,131568,2,0,L|386:131,1,56,2|2,0:2|0:2,0:0:0:0:
277,84,131849,2,0,L|217:70,1,56,2|2,0:2|0:2,0:0:0:0:
32,125,132129,70,0,P|43:164|55:244,1,112,2|0,0:2|0:2,0:2:0:0:
462,354,134372,6,0,P|478:241|507:132,1,224,2|0,0:2|0:2,0:2:0:0:
225,183,135774,6,0,L|158:194,1,56,0|0,3:2|0:2,0:2:0:0:
269,251,136054,5,2,0:3:0:0:
297,82,136194,69,2,0:3:0:0:
128,54,136334,5,2,0:3:0:0:
100,223,136474,5,2,0:3:0:0:
216,97,136615,2,0,B|202:76|202:76|202:102,1,48.9999985046387,8|0,3:2|0:0,0:0:0:0:
455,195,137176,22,0,P|378:184|260:283,1,195.999994018555,8|0,0:2|0:2,0:2:0:0:
212,212,137596,1,8,0:1:0:0:
71,174,137736,5,2,0:2:0:0:
19,303,137877,1,10,0:1:0:0:
0,221,138017,1,2,0:2:0:0:
121,327,138157,1,2,0:2:0:0:
269,156,138297,6,0,L|252:54,1,97.9999970092774,10|0,0:2|0:2,0:2:0:0:
151,251,138578,2,0,P|128:201|175:103,1,146.999995513916,0|0,0:2|0:2,0:2:0:0:
155,117,138858,6,0,L|34:106,1,97.9999970092774,2|0,0:2|0:0,0:2:0:0:
220,216,139138,2,0,L|215:166,1,48.9999985046387,2|0,0:2|0:2,0:2:0:0:
287,142,139278,2,0,P|310:192|285:267,1,97.9999970092774,2|8,0:2|0:2,0:2:0:0:
512,292,139559,1,2,0:2:0:0:
395,227,139699,1,2,0:2:0:0:
341,348,139839,1,10,0:1:0:0:
434,294,139979,69,2,0:2:0:0:
434,294,140120,1,10,0:1:0:0:
485,144,140260,6,0,P|408:136|286:68,1,195.999994018555,4|0,3:0|0:2,0:0:0:0:
27,240,140680,2,0,P|104:248|226:316,1,195.999994018555,4|0,3:0|3:2,0:0:0:0:
243,18,141101,2,0,L|239:53,14,24.4999992523194,8|0|0|0|0|0|0|0|0|0|0|0|0|0|0,3:0|0:0|0:2|0:0|0:2|0:0|0:2|0:0|0:2|0:0|0:2|0:0|0:2|0:0|0:0,0:0:0:0:
174,90,141662,5,8,0:2:0:0:
234,142,141802,1,2,0:2:0:0:
44,251,141942,1,2,0:2:0:0:
65,122,142082,1,10,0:1:0:0:
103,194,142222,5,2,0:2:0:0:
103,194,142363,1,10,0:1:0:0:
179,361,142503,70,0,P|245:345|381:326,1,195.999994018555,4|0,3:0|0:2,0:0:0:0:
333,23,142923,2,0,P|267:39|131:58,1,195.999994018555,4|0,3:0|0:2,0:0:0:0:
487,284,143344,2,0,L|493:255,6,24.4999992523194,8|0|0|0|0|0|0,3:0|0:0|0:2|0:0|0:2|0:0|0:0,0:0:0:0:
444,200,143624,6,0,L|343:229,1,97.9999970092774,0|2,0:2|0:2,0:2:0:0:
420,30,143905,1,8,0:2:0:0:
496,142,144045,2,0,P|508:103|487:43,1,97.9999970092774,2|2,0:2|0:2,0:0:0:0:
293,169,144325,1,10,0:1:0:0:
252,102,144465,1,2,0:2:0:0:
188,146,144606,1,10,0:1:0:0:
31,57,144746,6,0,P|41:114|50:173,1,97.9999970092774,2|0,3:2|0:0,0:2:0:0:
136,33,145026,5,2,0:3:0:0:
109,200,145166,69,2,0:3:0:0:
277,210,145306,5,2,0:3:0:0:
294,54,145446,5,2,0:3:0:0:
159,263,145587,2,0,B|173:283|173:283|170:256,1,48.9999985046387,8|0,3:0|0:0,0:0:0:0:
367,302,145866,5,2,0:2:0:0:
367,302,146007,2,0,P|409:288|473:275,1,97.9999970092774,2|8,0:2|0:2,0:0:0:0:
310,244,146288,69,2,0:2:0:0:
316,361,146428,2,0,P|259:363|210:284,1,146.999995513916,2|0,0:2|0:0,0:0:0:0:
209,295,146708,5,2,0:2:0:0:
65,349,146849,2,0,L|72:244,1,97.9999970092774,10|0,0:1|0:2,0:0:0:0:
101,68,147129,5,2,0:2:0:0:
47,120,147269,1,10,0:2:0:0:
253,192,147409,1,0,0:0:0:0:
228,88,147550,1,0,0:2:0:0:
183,153,147690,1,0,0:2:0:0:
438,112,147830,6,0,P|461:156|442:262,1,146.999995513916,8|0,3:0|0:2,0:0:0:0:
449,249,148110,69,2,0:2:0:0:
393,297,148250,2,0,P|348:286|281:281,1,97.9999970092774,2|8,0:2|0:2,0:0:0:0:
228,109,148531,5,2,0:2:0:0:
132,258,148671,1,2,0:2:0:0:
281,355,148811,1,8,0:1:0:0:
208,380,148951,5,0,0:2:0:0:
208,380,149092,1,8,0:1:0:0:
64,317,149232,6,0,P|39:249|69:111,1,195.999994018555,4|0,3:0|0:2,0:0:0:0:
448,67,149652,2,0,P|473:135|443:273,1,195.999994018555,4|0,3:0|0:2,0:0:0:0:
112,49,150073,2,0,L|74:41,14,24.4999992523194,8|0|0|0|0|0|0|0|0|0|0|0|0|0|0,3:0|0:0|0:2|0:0|0:2|0:0|0:2|0:0|0:2|0:0|0:0|0:0|0:0|0:0|0:0,0:0:0:0:
178,5,150634,69,8,0:2:0:0:
254,116,150774,2,0,P|292:99|361:94,1,97.9999970092774,2|0,0:2|0:2,0:0:0:0:
253,33,151054,1,2,0:2:0:0:
187,221,151194,2,0,P|168:167|193:67,1,146.999995513916,2|0,0:2|0:0,0:0:0:0:
184,80,151475,6,0,P|127:92|-7:46,1,195.999994018555,4|0,3:0|0:2,0:0:0:0:
328,304,151895,2,0,P|384:291|519:337,1,195.999994018555,4|0,3:0|0:2,0:0:0:0:
512,331,152316,1,2,0:2:0:0:
256,192,152351,12,0,154278,0:2:0:0:
130,192,154559,38,0,P|127:137|118:60,2,125.999996154785,2|2|2,0:2|0:2|0:2,0:2:0:0:
414,232,155961,1,2,0:2:0:0:
354,278,156101,1,2,0:2:0:0:
354,278,156241,2,0,P|325:275|293:220,1,83.9999974365235,2|0,0:2|0:2,0:2:0:0:
465,363,156802,6,0,P|470:315|491:247,1,112,2|0,0:2|0:2,0:2:0:0:
458,185,157222,2,0,P|433:152|347:142,1,112,2|0,0:2|0:2,0:2:0:0:
341,208,157643,2,0,P|321:246|201:246,1,168,2|0,0:2|0:0,0:2:0:0:
130,262,158204,6,0,L|124:232,6,17.5,0|0|0|0|0|0|0,3:2|0:2|0:2|0:2|0:2|0:2|0:2,0:2:0:0:
177,323,158484,5,2,0:3:0:0:
202,170,158624,69,2,0:3:0:0:
50,145,158764,5,2,0:3:0:0:
24,297,158904,5,2,0:3:0:0:
141,119,159045,6,0,L|135:92,14,24.4999992523194,8|0|0|0|0|0|0|0|0|0|0|0|0|0|0,3:0|0:0|0:2|0:0|0:2|0:0|0:2|0:0|0:2|0:0|0:2|0:0|0:2|0:0|0:0,0:0:0:0:
193,46,159606,5,10,0:2:0:0:
250,100,159746,2,0,P|289:100|334:53,1,97.9999970092774,2|0,0:2|0:2,0:2:0:0:
226,251,160026,1,10,0:1:0:0:
292,302,160166,1,2,0:2:0:0:
236,362,160307,1,10,0:1:0:0:
97,298,160447,6,0,P|87:249|115:107,1,195.999994018555,4|0,3:0|0:2,0:0:0:0:
415,86,160867,2,0,P|425:135|397:277,1,195.999994018555,4|0,3:0|0:2,0:0:0:0:
129,367,161288,2,0,L|99:379,6,24.4999992523194,8|0|0|0|0|0|0,3:0|0:0|0:2|0:0|0:0|0:0|0:0,0:0:0:0:
203,377,161568,6,0,P|209:327|221:260,1,97.9999970092774,2|0,0:2|0:2,0:2:0:0:
78,227,161849,1,10,0:2:0:0:
62,156,161989,1,2,0:2:0:0:
443,328,162269,1,8,0:1:0:0:
512,247,162409,1,2,0:2:0:0:
450,202,162550,1,10,0:1:0:0:
365,333,162690,6,0,L|371:364,6,24.4999992523194,2|0|0|0|0|0|0,3:2|0:0|0:0|0:0|0:0|0:0|0:2,0:2:0:0:
295,302,162970,69,2,0:3:0:0:
425,279,163110,5,2,0:3:0:0:
403,150,163250,5,2,0:3:0:0:
273,171,163390,5,2,0:3:0:0:
457,206,163531,2,0,B|481:212|481:212|465:186,1,48.9999985046387,8|0,3:0|0:0,0:0:0:0:
203,18,163811,69,2,0:2:0:0:
203,18,163951,2,0,P|218:65|218:120,1,97.9999970092774,2|8,0:2|0:2,0:2:0:0:
119,257,164232,5,2,0:2:0:0:
96,181,164372,2,0,L|-7:157,1,97.9999970092774,2|8,0:2|0:1,0:2:0:0:
313,271,164652,5,2,0:2:0:0:
351,338,164793,2,0,P|384:316|496:297,1,146.999995513916,10|0,0:1|0:0,0:2:0:0:
487,296,165073,5,2,0:2:0:0:
380,223,165213,1,10,0:2:0:0:
498,155,165353,1,2,0:2:0:0:
423,82,165493,1,2,0:2:0:0:
425,159,165634,1,2,0:2:0:0:
243,53,165774,70,0,L|251:22,6,24.4999992523194,8|0|0|0|0|0|0,3:0|0:0|0:2|0:0|0:2|0:0|0:2,0:0:0:0:
246,130,166054,5,0,0:2:0:0:
246,130,166194,2,0,P|287:144|336:118,1,97.9999970092774,2|8,0:2|0:2,0:2:0:0:
263,294,166475,5,2,0:2:0:0:
153,194,166615,1,2,0:2:0:0:
6,246,166755,1,8,0:1:0:0:
213,242,166895,5,2,0:2:0:0:
143,274,167036,1,10,0:1:0:0:
30,84,167176,70,0,P|105:96|189:76,1,146.999995513916,8|0,3:0|0:2,0:0:0:0:
178,85,167456,6,0,L|188:-2,1,84,2|0,0:2|0:2,0:2:0:0:
466,122,168017,5,8,3:0:0:0:
399,157,168157,2,0,P|388:112|417:61,1,97.9999970092774,0|0,0:2|0:0,0:0:0:0:
254,207,168437,1,0,0:0:0:0:
232,127,168578,1,8,0:2:0:0:
232,127,168718,2,0,L|131:102,1,97.9999970092774,2|0,0:2|0:2,0:2:0:0:
22,244,168998,1,2,0:2:0:0:
50,102,169138,2,0,P|70:141|81:197,1,97.9999970092774,2|0,0:2|0:2,0:2:0:0:
231,341,169419,6,0,P|175:325|16:322,1,195.999994018555,4|0,3:0|0:2,0:0:0:0:
281,43,169839,2,0,P|337:59|496:62,1,195.999994018555,4|0,3:0|0:2,0:0:0:0:
325,384,170260,70,0,P|312:336|320:231,1,146.999995513916,8|0,3:0|0:2,0:0:0:0:
317,239,170540,2,0,L|423:217,1,97.9999970092774,2|2,0:2|0:2,0:2:0:0:
261,192,170821,1,8,0:2:0:0:
353,92,170961,2,0,P|354:47|308:6,1,97.9999970092774,2|0,0:2|0:0,0:2:0:0:
182,167,171241,5,10,0:1:0:0:
202,88,171381,1,2,0:2:0:0:
279,112,171521,1,8,0:1:0:0:
110,211,171662,6,0,P|89:148|123:15,1,195.999994018555,4|0,3:0|0:2,0:0:0:0:
402,173,172082,2,0,P|423:236|389:369,1,195.999994018555,4|0,3:0|0:2,0:0:0:0:
395,359,172503,1,2,0:2:0:0:
