osu file format v14

[General]
AudioFilename: audio.mp3
AudioLeadIn: 0
PreviewTime: 43186
Countdown: 0
SampleSet: Drum
StackLeniency: 0.2
Mode: 0
LetterboxInBreaks: 0
WidescreenStoryboard: 0

[Editor]
Bookmarks: 4867,14467,24067,43267,57667,62467,72067,81667,91267,100867,110467,120067
DistanceSpacing: 0.8
BeatDivisor: 8
GridSize: 32
TimelineZoom: 1.6

[Metadata]
Title:ANGEL 9
TitleUnicode:ANGEL 9
Artist:Elroy
ArtistUnicode:Elroy
Creator:jamesjan3
Version:SCARED
Source:
Tags:hip hop emo rap experimental pop english electronic alternative demonslayer indie sylas thekoala
BeatmapID:2489207
BeatmapSetID:1194835

[Difficulty]
HPDrainRate:6
CircleSize:4
OverallDifficulty:8.4
ApproachRate:9.2
SliderMultiplier:2
SliderTickRate:1

[Events]
//Background and Video events
0,0,"greg-rosenke-BIWhN6wnt7M-unsplash.jpg",0,0
//Break Periods
2,100986,107716
//Storyboard Layer 0 (Background)
//Storyboard Layer 1 (Fail)
//Storyboard Layer 2 (Pass)
//Storyboard Layer 3 (Foreground)
//Storyboard Layer 4 (Overlay)
//Storyboard Sound Samples

[TimingPoints]
-14,600,4,3,0,60,1,0
5386,-76.9230769230769,4,3,0,60,0,0
5686,-55.5555555555556,4,3,0,60,0,0
5986,-76.9230769230769,4,3,0,60,0,0
6886,-55.5555555555556,4,3,0,60,0,0
7786,-76.9230769230769,4,3,0,60,0,0
8086,-55.5555555555556,4,3,0,60,0,0
8386,-50,4,3,0,60,0,0
9286,-66.6666666666667,4,3,0,60,0,0
9886,-76.9230769230769,4,3,0,60,0,0
10486,-55.5555555555556,4,3,0,60,0,0
11386,-76.9230769230769,4,3,0,60,0,0
11686,-55.5555555555556,4,3,0,60,0,0
12586,-76.9230769230769,4,3,0,60,0,0
14086,-50,4,3,0,60,0,0
14386,-40,4,3,0,80,0,0
14986,-55.5555555555556,4,3,0,80,0,0
16186,-45.4545454545455,4,3,0,80,0,0
16486,-40,4,3,0,80,0,0
16786,-55.5555555555556,4,3,0,80,0,0
17386,-45.4545454545455,4,3,0,80,0,0
17986,-40,4,3,0,80,0,0
18586,-55.5555555555556,4,3,0,80,0,0
18886,-66.6666666666667,4,3,0,80,0,0
19186,-45.4545454545455,4,3,0,80,0,0
19486,-55.5555555555556,4,3,0,80,0,0
20986,-45.4545454545455,4,3,0,80,0,0
21286,-40,4,3,0,80,0,0
21586,-55.5555555555556,4,3,0,80,0,0
22786,-40,4,3,0,80,0,0
23086,-55.5555555555556,4,3,0,80,0,0
23986,-100,4,3,0,60,0,0
29386,-76.9230769230769,4,3,0,60,0,0
30286,-55.5555555555556,4,3,0,60,0,0
30886,-100,4,3,0,60,0,0
31186,-76.9230769230769,4,3,0,60,0,0
32086,-100,4,3,0,60,0,0
33586,-100,4,3,0,70,0,0
35386,-133.333333333333,4,3,0,70,0,0
35986,-55.5555555555556,4,3,0,70,0,0
36286,-76.9230769230769,4,3,0,70,0,0
36886,-76.9230769230769,4,3,0,70,0,0
38986,-55.5555555555556,4,3,0,70,0,0
39286,-76.9230769230769,4,3,0,70,0,0
40186,-55.5555555555556,4,3,0,70,0,0
40486,-76.9230769230769,4,3,0,70,0,0
41086,-55.5555555555556,4,3,0,70,0,0
41986,-40,4,3,0,70,0,0
43186,-76.9230769230769,4,3,0,80,0,0
43486,-33.3333333333333,4,3,0,80,0,0
43936,-40,4,3,0,80,0,0
44386,-45.4545454545455,4,3,0,80,0,0
44686,-55.5555555555556,4,3,0,80,0,0
45586,-35.7142857142857,4,3,0,80,0,0
45886,-40,4,3,0,80,0,0
46336,-55.5555555555556,4,3,0,80,0,0
46486,-40,4,3,0,80,0,0
47086,-40,4,3,0,80,0,0
47536,-40,4,3,0,70,0,0
47836,-40,4,3,0,60,0,0
48136,-40,4,3,0,50,0,0
48436,-40,4,3,0,30,0,0
48586,-40,4,3,0,80,0,0
48886,-55.5555555555556,4,3,0,80,0,0
49486,-45.4545454545455,4,3,0,80,0,0
50386,-40,4,3,0,80,0,0
50686,-55.5555555555556,4,3,0,80,0,0
51586,-40,4,3,0,80,0,0
51811,-40,4,3,0,5,0,0
51886,-37.037037037037,4,3,0,80,0,0
52111,-37.037037037037,4,3,0,5,0,0
52186,-34.4827586206897,4,3,0,80,0,0
52411,-34.4827586206897,4,3,0,5,0,0
52486,-32.258064516129,4,3,0,80,0,0
52711,-32.258064516129,4,3,0,5,0,0
52786,-32.258064516129,4,3,0,80,0,0
53386,-40,4,3,0,80,0,0
53986,-55.5555555555556,4,3,0,80,0,0
55186,-40,4,3,0,80,0,0
55786,-66.6666666666667,4,3,0,80,0,0
55936,-66.6666666666667,4,3,0,70,0,0
56086,-100,4,3,0,60,0,0
56236,-100,4,3,0,50,0,0
56386,-100,4,2,0,80,0,0
56986,-100,4,2,0,50,0,0
57286,-100,4,2,0,30,0,0
57436,-100,4,2,0,20,0,0
57586,-100,4,2,0,60,0,0
62386,-100,4,3,0,60,0,0
63286,-76.9230769230769,4,3,0,60,0,0
65986,-50,4,3,0,60,0,0
66886,-66.6666666666667,4,3,0,60,0,0
67486,-76.9230769230769,4,3,0,60,0,0
71686,-50,4,3,0,60,0,0
71986,-40,4,3,0,80,0,0
72586,-55.5555555555556,4,3,0,80,0,0
73786,-45.4545454545455,4,3,0,80,0,0
74086,-40,4,3,0,80,0,0
74386,-55.5555555555556,4,3,0,80,0,0
74986,-45.4545454545455,4,3,0,80,0,0
75586,-40,4,3,0,80,0,0
76186,-55.5555555555556,4,3,0,80,0,0
76486,-66.6666666666667,4,3,0,80,0,0
76786,-45.4545454545455,4,3,0,80,0,0
77086,-55.5555555555556,4,3,0,80,0,0
78586,-45.4545454545455,4,3,0,80,0,0
78886,-40,4,3,0,80,0,0
79186,-55.5555555555556,4,3,0,80,0,0
80386,-45.4545454545455,4,3,0,80,0,0
80986,-55.5555555555556,4,3,0,80,0,0
81286,-66.6666666666667,4,3,0,80,0,0
81586,-66.6666666666667,4,3,0,60,0,0
82186,-100,4,3,0,60,0,0
83986,-55.5555555555556,4,3,0,60,0,0
84586,-100,4,3,0,60,0,0
86386,-100,4,3,0,60,0,0
88786,-100,4,3,0,70,0,0
89386,-66.6666666666667,4,3,0,70,0,0
89986,-50,4,3,0,70,0,0
90886,-33.3333333333333,4,3,0,70,0,0
91186,-40,4,3,0,80,0,0
91786,-66.6666666666667,4,3,0,80,0,0
92236,-40,4,3,0,80,0,0
92986,-55.5555555555556,4,3,0,80,0,0
93586,-40,4,3,0,80,0,0
95686,-100,4,3,0,80,0,0
95986,-33.3333333333333,4,3,0,80,0,0
96586,-40,4,3,0,80,0,0
96886,-50,4,3,0,80,0,0
97036,-25,4,3,0,80,0,0
97186,-33.3333333333333,4,3,0,80,0,0
97786,-55.5555555555556,4,3,0,80,0,0
98386,-45.4545454545455,4,3,0,80,0,0
98986,-55.5555555555556,4,3,0,80,0,0
99586,-100,4,2,0,60,0,0
100186,-100,4,2,0,50,0,0
100336,-100,4,2,0,40,0,0
100486,-133.333333333333,4,2,0,30,0,0
100636,-133.333333333333,4,2,0,20,0,0
107986,-133.333333333333,4,3,0,40,0,0
108586,-100,4,3,0,40,0,0
108886,-80,4,3,0,50,0,0
109186,-66.6666666666667,4,3,0,60,0,0
109486,-57.1428571428571,4,3,0,70,0,0
109786,-50,4,3,0,80,0,0
110086,-44.4444444444445,4,3,0,80,0,0
110386,-33.3333333333333,4,3,0,80,0,1
110986,-40,4,3,0,80,0,1
112186,-45.4545454545455,4,3,0,80,0,1
112486,-40,4,3,0,80,0,1
112786,-55.5555555555556,4,3,0,80,0,1
113386,-45.4545454545455,4,3,0,80,0,1
113986,-40,4,3,0,80,0,1
114586,-45.4545454545455,4,3,0,80,0,1
115486,-55.5555555555556,4,3,0,80,0,1
116386,-45.4545454545455,4,3,0,80,0,1
117286,-40,4,3,0,80,0,1
117586,-55.5555555555556,4,3,0,80,0,1
117886,-45.4545454545455,4,3,0,80,0,1
118186,-45.4545454545455,4,3,0,60,0,1
118786,-55.5555555555556,4,3,0,60,0,1
119086,-66.6666666666667,4,3,0,60,0,0
119386,-66.6666666666667,4,3,0,50,0,0
119536,-66.6666666666667,4,3,0,40,0,0
119686,-66.6666666666667,4,3,0,30,0,0
119836,-66.6666666666667,4,3,0,20,0,0

[Colours]
Combo1 : 255,55,61
Combo2 : 250,176,5
Combo3 : 101,252,252
Combo4 : 214,214,214

[HitObjects]
61,151,4786,5,0,0:0:0:0:
42,174,4936,1,0,0:0:0:0:
43,205,5086,1,2,0:3:0:0:
130,199,5236,1,0,0:0:0:0:
169,276,5386,2,0,P|120:299|97:295,1,64.9999970245363,8|0,0:1|0:0,0:0:0:0:
97,292,5686,2,0,P|153:282|221:329,1,134.999995880127
286,360,5986,2,0,L|280:384,3,21.6666656748454
362,301,6286,5,2,0:3:0:0:
438,342,6436,1,0,0:0:0:0:
362,301,6586,2,0,L|352:223,1,64.9999970245363,8|0,0:1|0:0,0:0:0:0:
352,222,6886,2,0,P|286:217|249:163,1,134.999995880127
283,93,7186,1,0,0:0:0:0:
18,7,7486,5,2,0:3:0:0:
12,95,7636,1,0,0:0:0:0:
3,181,7786,2,0,P|48:171|77:149,1,64.9999970245363,8|0,0:1|0:0,0:0:0:0:
127,17,8086,1,4,0:0:0:0:
3,181,8386,2,0,B|50:147|96:171|96:171|107:202|135:221,1,150
171,150,8686,1,6,0:3:0:0:
140,259,8836,2,0,P|129:236|124:211,1,50
239,113,8986,2,0,P|223:151|156:109,1,100,8|4,0:1|0:0,0:0:0:0:
239,113,9286,2,0,L|224:352,1,225.000008583069
328,371,9886,6,0,P|368:349|383:322,1,64.9999970245363,2|0,0:3|0:0,0:0:0:0:
507,178,10186,2,0,P|460:179|436:196,1,64.9999970245363,8|0,0:1|0:0,0:0:0:0:
440,204,10486,2,0,P|392:184|362:100,1,134.999995880127
402,43,10786,1,0,0:0:0:0:
135,0,11086,5,2,0:3:0:0:
212,19,11236,1,0,0:0:0:0:
135,0,11386,2,0,L|126:73,1,64.9999970245363,8|0,0:1|0:0,0:0:0:0:
126,81,11686,2,0,P|64:74|7:129,1,134.999995880127
36,194,11986,1,0,0:0:0:0:
0,384,12286,5,2,0:3:0:0:
80,356,12436,1,0,0:0:0:0:
160,327,12586,2,0,L|168:271,2,32.4999985122681,2|2|0,0:2|0:2|0:0,0:0:0:0:
238,357,12886,1,0,0:0:0:0:
238,357,13036,1,0,0:0:0:0:
422,246,13336,5,0,0:0:0:0:
336,242,13486,1,2,0:3:0:0:
374,168,13636,1,0,0:0:0:0:
456,173,13786,2,0,L|495:148,2,32.4999985122681,2|2|0,0:2|0:2|0:0,0:0:0:0:
248,217,14086,2,0,B|208:172|241:117|241:117|268:115|284:132,1,150
280,129,14386,6,0,L|77:160,1,187.5,4|0,0:1|0:0,0:0:0:0:
13,166,14686,1,2,0:3:0:0:
125,72,14836,1,0,0:0:0:0:
87,304,14986,2,0,P|54:302|3:268,1,89.9999972534181,8|0,0:1|0:0,0:0:0:0:
140,366,15286,1,2,0:0:0:0:
140,366,15436,2,0,P|164:366|196:351,1,44.999998626709
251,220,15586,2,0,L|248:254,4,29.9999990844727,2|0|0|0|0,0:0|0:0|0:0|0:0|0:0,0:0:0:0:
319,298,15886,5,6,0:3:0:0:
260,130,16036,1,0,0:0:0:0:
319,298,16186,2,0,P|348:256|355:197,1,110.000003356934,8|4,0:1|0:0,0:0:0:0:
223,6,16486,2,0,P|163:76|162:168,1,187.5,2|0,0:0|0:0,0:0:0:0:
251,220,16786,2,0,L|261:127,1,89.9999972534181,4|0,0:0|0:0,0:0:0:0:
5,39,17086,5,2,0:3:0:0:
23,153,17236,1,0,0:0:0:0:
45,270,17386,2,0,P|100:241|125:190,1,110.000003356934,8|0,0:1|0:0,0:0:0:0:
260,130,17686,2,0,P|257:192|289:239,1,110.000003356934,2|0,0:0|0:0,0:0:0:0:
486,293,17986,2,0,B|501:260|463:226|463:226|398:232|379:297,1,187.5,2|0,0:0|0:0,0:0:0:0:
434,352,18286,1,6,0:3:0:0:
494,154,18436,2,0,L|416:145,1,62.5
260,130,18586,2,0,P|291:94|351:87,1,89.9999972534181,8|4,0:1|0:0,0:0:0:0:
260,130,18886,2,0,L|133:113,1,112.500004291535,2|0,0:0|0:0,0:0:0:0:
74,21,19186,6,0,B|97:96|23:92|52:191,1,165.000005035401
31,251,19486,2,0,P|65:223|109:221,1,89.9999972534181,2|0,0:3|0:0,0:0:0:0:
211,384,19786,2,0,P|186:346|145:331,1,89.9999972534181,8|0,0:1|0:0,0:0:0:0:
21,384,20086,1,2,0:0:0:0:
21,384,20236,2,0,L|26:331,1,44.999998626709
57,89,20386,1,2,0:0:0:0:
375,10,20686,5,6,0:3:0:0:
225,30,20836,1,0,0:0:0:0:
375,10,20986,2,0,P|316:38|298:90,1,110.000003356934,8|4,0:1|0:0,0:0:0:0:
479,217,21286,2,0,P|476:150|357:95,1,187.5,2|0,0:0|0:0,0:0:0:0:
328,156,21586,2,0,L|314:275,1,89.9999972534181,4|0,0:0|0:0,0:0:0:0:
512,49,21886,5,2,0:3:0:0:
382,91,22036,1,0,0:0:0:0:
260,130,22186,2,0,L|266:179,2,44.999998626709,8|0|0,0:1|0:0|0:0,0:0:0:0:
123,26,22486,2,0,P|167:30|211:72,1,89.9999972534181,4|0,0:0|0:0,0:0:0:0:
95,181,22786,6,0,P|108:139|107:183,1,125
97,298,23086,2,0,P|53:294|9:252,1,89.9999972534181,6|0,0:3|0:0,0:0:0:0:
13,91,23386,1,8,0:1:0:0:
203,210,23536,1,4,0:0:0:0:
232,332,23686,1,2,0:0:0:0:
324,339,23836,1,2,0:0:0:0:
328,378,23986,6,0,P|352:310|439:206,1,200,4|8,0:1|0:1,0:0:0:0:
503,270,24886,1,0,0:0:0:0:
474,126,25186,2,0,L|477:142,3,16.6666666666667,2|0|0|0,0:0|0:0|0:0|0:0,0:0:0:0:
392,113,25486,2,0,L|301:105,1,75
317,106,25786,1,8,0:1:0:0:
41,339,26086,2,0,P|20:320|-8:315,1,50
129,367,26386,6,0,P|119:304|91:253,1,100,2|0,0:0|0:0,0:0:0:0:
33,206,26836,1,0,0:0:0:0:
188,238,26986,1,8,0:1:0:0:
188,238,27136,1,0,0:0:0:0:
122,13,27286,2,0,P|150:23|181:19,1,50,4|0,0:0|0:0,0:0:0:0:
122,13,27586,6,0,L|71:27,1,50,2|0,0:0|0:0,0:0:0:0:
213,111,27886,2,0,L|180:163,1,50,4|0,0:0|0:0,0:0:0:0:
26,156,28186,1,8,0:1:0:0:
109,101,28336,1,4,0:0:0:0:
213,111,28486,2,0,L|273:121,1,50
512,21,28786,6,0,P|497:49|505:83,1,50,2|0,0:0|0:0,0:0:0:0:
351,80,29086,2,0,P|337:59|315:47,1,50
429,114,29386,2,0,L|444:265,1,129.999994049073,8|0,0:1|0:0,0:0:0:0:
453,344,29836,1,0,0:0:0:0:
304,272,29986,2,0,L|293:246,3,21.6666656748454,2|0|0|0,0:0|0:0|0:0|0:0,0:0:0:0:
453,344,30286,2,0,P|367:348|325:381,1,134.999995880127
329,375,30586,1,8,0:1:0:0:
333,379,30886,2,0,P|304:356|292:332,1,50
119,375,31186,6,0,L|52:363,1,64.9999970245363,2|0,0:0|0:0,0:0:0:0:
151,297,31486,2,0,L|80:283,1,64.9999970245363
19,178,31786,2,0,P|17:212|27:178,1,97.4999955368044,8|0,0:1|0:0,0:0:0:0:
31,180,32086,2,0,P|28:128|38:69,1,100,4|2,0:0|0:0,0:0:0:0:
318,70,32686,6,0,L|268:77,1,50,4|0,0:0|0:0,0:0:0:0:
197,113,32986,1,8,0:1:0:0:
379,19,33136,1,4,0:0:0:0:
379,19,33286,2,0,P|400:51|401:77,1,50
493,267,33586,6,0,P|442:255|378:258,1,100,4|0,0:1|0:0,0:0:0:0:
284,355,34036,1,0,0:0:0:0:
400,363,34186,2,0,P|379:342|359:332,1,50,8|0,0:1|0:0,0:0:0:0:
136,214,34486,6,0,L|148:272,1,50
61,157,34786,2,0,P|78:138|101:129,1,50,2|0,0:0|0:0,0:0:0:0:
157,56,35086,2,0,P|133:40|100:37,1,50
4,323,35386,6,0,L|44:332,3,37.5000014305115,8|0|0|0,0:1|0:0|0:0|0:0,0:0:0:0:
103,379,35986,6,0,P|174:367|202:310,1,134.999995880127,2|0,0:0|0:0,0:0:0:0:
205,319,36286,2,0,L|192:265,1,32.4999985122681
459,253,36586,2,0,L|459:289,1,32.4999985122681,8|0,0:1|0:0,0:0:0:0:
307,210,36886,6,0,L|293:117,1,64.9999970245363,4|0,0:0|0:0,0:0:0:0:
369,96,37186,2,0,P|391:72|423:65,1,64.9999970245363,2|0,0:0|0:0,0:0:0:0:
209,113,37486,2,0,P|184:92|153:88,1,64.9999970245363,4|0,0:0|0:0,0:0:0:0:
307,210,37786,1,8,0:1:0:0:
284,67,37936,1,4,0:0:0:0:
284,67,38086,1,0,0:0:0:0:
16,22,38386,5,2,0:0:0:0:
98,3,38536,1,0,0:0:0:0:
16,22,38686,2,0,P|-1:62|0:89,1,64.9999970245363,2|0,0:0|0:0,0:0:0:0:
124,203,38986,2,0,P|93:188|19:244,1,134.999995880127,8|0,0:1|0:0,0:0:0:0:
19,240,39286,2,0,P|63:260|74:283,1,64.9999970245363
197,359,39586,5,2,0:0:0:0:
177,275,39736,1,0,0:0:0:0:
197,359,39886,2,0,P|239:358|268:347,1,64.9999970245363,2|0,0:0|0:0,0:0:0:0:
338,225,40186,2,0,P|401:212|442:262,1,134.999995880127,8|0,0:1|0:0,0:0:0:0:
442,262,40486,2,0,P|397:248|383:223,1,64.9999970245363
424,20,40786,5,2,0:0:0:0:
470,84,40936,1,0,0:0:0:0:
300,26,41086,2,0,B|240:16|247:80|173:67,1,134.999995880127,2|0,0:0|0:0,0:0:0:0:
98,104,41386,2,0,P|157:94|224:130,1,134.999995880127,8|0,0:1|0:0,0:0:0:0:
302,124,41686,2,0,P|291:162|270:189,1,44.999998626709,4|0,0:0|0:0,0:0:0:0:
190,208,41836,1,0,0:0:0:0:
412,262,41986,6,0,B|404:234|358:228|358:228|316:284|366:336,1,187.5,2|0,0:0|0:0,0:0:0:0:
412,262,42286,2,0,B|382:208|382:208|291:245|291:245|237:228,1,187.5,4|0,0:0|0:0,0:0:0:0:
190,208,42586,1,8,0:1:0:0:
135,25,43186,6,0,P|98:38|71:58,1,64.9999970245363,4|0,0:1|0:0,0:0:0:0:
6,18,43411,5,0,0:0:0:0:
6,18,43486,2,0,B|106:-11|126:75|239:32,1,225.000008583069,2|0,0:0|0:0,0:0:0:0:
309,21,43786,5,8,0:1:0:0:
231,122,43936,2,0,P|220:157|221:183,1,62.5,2|0,0:1|0:0,0:0:0:0:
280,317,44086,1,2,0:0:0:0:
280,317,44236,2,0,P|254:293|239:267,1,62.5,2|0,1:1|0:0,0:0:0:0:
6,290,44386,2,0,B|79:271|79:271|90:257|90:257|160:242,1,165.000005035401,2|0,0:0|0:0,0:0:0:0:
160,241,44686,2,0,P|128:280|115:327,1,89.9999972534181,0|0,0:0|1:0,0:0:0:0:
386,303,44986,5,8,0:1:0:0:
198,375,45136,1,2,0:2:0:0:
370,288,45286,5,2,0:2:0:0:
207,354,45436,1,2,0:2:0:0:
283,41,45586,6,0,P|386:56|432:148,1,209.999993591309,4|0,0:0|0:0,0:0:0:0:
508,195,45886,2,0,P|453:179|399:226,1,125,2|0,0:0|0:0,0:0:0:0:
280,317,46186,1,8,0:1:0:0:
178,144,46336,2,0,L|166:187,1,29.9999990844727
16,278,46486,5,2,0:0:0:0:
16,278,46636,2,0,P|5:248|9:204,1,62.5,2|0,1:1|0:0,0:0:0:0:
73,24,46786,1,2,0:0:0:0:
73,24,46936,2,0,P|48:44|33:72,1,62.5,2|0,1:1|0:0,0:0:0:0:
48,147,47086,2,0,B|191:178,1,125,4|0,0:0|0:0,0:0:0:0:
364,85,47386,5,8,0:1:0:0:
252,295,47536,5,8,0:1:0:0:
256,110,47686,5,8,0:1:0:0:
388,226,47836,5,8,0:1:0:0:
303,225,47986,5,8,0:1:0:0:
333,116,48136,5,8,0:1:0:0:
348,209,48286,5,8,0:1:0:0:
276,169,48436,5,8,0:1:0:0:
318,164,48586,5,8,0:1:0:0:
23,106,48886,5,2,0:0:0:0:
100,88,49036,1,2,1:1:0:0:
133,210,49186,5,2,0:0:0:0:
59,228,49336,1,0,1:0:0:0:
33,15,49486,6,0,L|14:123,1,110.000003356934,4|0,0:0|0:0,0:0:0:0:
126,299,49786,2,0,L|144:190,1,110.000003356934,8|0,0:1|0:0,0:0:0:0:
425,234,50086,5,2,0:0:0:0:
470,108,50236,2,0,L|463:168,1,55.0000016784668
445,354,50386,2,0,B|417:302|346:306|346:306|314:337|272:330,1,187.5,2|0,0:0|0:0,0:0:0:0:
212,301,50686,2,0,P|243:262|286:256,1,89.9999972534181,2|0,0:0|0:0,0:0:0:0:
334,176,50986,5,8,0:1:0:0:
334,176,51061,1,0,0:0:0:0:
97,50,51286,1,2,0:0:0:0:
106,216,51436,5,4,0:0:0:0:
181,60,51586,6,0,B|232:52|228:115|228:115|176:153|104:106,1,187.5,4|0,0:0|0:0,0:0:0:0:
221,46,51886,2,0,B|249:61|246:123|246:123|194:155|127:118,1,202.500000772476,4|0,0:0|0:0,0:0:0:0:
269,51,52186,2,0,B|277:88|264:131|264:131|225:161|132:121,1,217.500006637573,4|0,0:0|0:0,0:0:0:0:
311,71,52486,2,0,B|304:109|269:149|269:149|189:168|119:111,1,232.500001773834,4|0,0:0|0:0,0:0:0:0:
21,139,52786,6,0,B|1:94|83:32|134:88|161:171|91:285,1,310.000002365112,4|0,0:1|0:0,0:0:0:0:
1,380,53236,1,0,0:0:0:0:
148,352,53386,2,0,P|218:344|282:360,2,125,8|0|2,0:1|0:0|0:0,0:0:0:0:
99,270,53836,2,0,P|123:242|126:198,1,62.5,2|0,1:1|0:0,0:0:0:0:
53,29,53986,2,0,B|45:104|45:104|51:110|51:110|44:205,1,179.999994506836,2|0,0:0|0:0,0:0:0:0:
131,74,54436,1,0,1:0:0:0:
327,286,54586,5,8,0:1:0:0:
350,100,54736,1,2,0:2:0:0:
354,276,54886,5,2,0:2:0:0:
219,143,55036,1,2,0:2:0:0:
512,104,55186,6,0,P|454:109|411:162,1,125,4|0,0:0|0:0,0:0:0:0:
470,367,55486,2,0,P|494:284|492:175,1,187.5,4|0,0:0|0:0,0:0:0:0:
454,368,55786,2,0,P|471:315|474:259,1,112.500004291535,8|0,0:2|0:0,0:0:0:0:
438,374,56086,6,0,L|379:380,1,50,8|10,0:2|0:2,0:0:0:0:
265,384,56386,1,8,2:2:0:0:
146,357,56686,1,0,2:0:0:0:
51,326,56986,2,0,P|29:325|2:310,1,50,8|8,2:2|2:2,0:0:0:0:
146,357,57286,2,0,P|171:356|193:344,1,50,8|8,2:2|2:2,0:0:0:0:
111,95,57586,6,0,P|177:63|262:65,1,150,2|0,2:2|0:0,0:0:0:0:
282,71,58186,5,2,2:2:0:0:
317,157,58486,2,0,P|284:186|267:259,2,100,2|2|2,2:2|2:2|2:2,0:0:0:0:
375,229,59386,2,0,P|379:266|389:230,1,100,2|2,2:2|2:2,0:0:0:0:
292,74,59986,6,0,P|217:72|150:117,1,150,2|0,2:2|0:0,0:0:0:0:
158,122,60586,2,0,P|215:146|236:196,1,100,2|0,2:2|0:0,0:0:0:0:
0,366,61186,5,8,3:3:0:0:
256,192,61261,12,0,62236,0:0:0:0:
471,79,62386,5,0,0:0:0:0:
440,89,62536,1,0,0:0:0:0:
422,113,62686,1,2,0:3:0:0:
459,189,62836,1,0,0:0:0:0:
419,266,62986,1,8,0:1:0:0:
419,266,63286,2,0,P|385:266|354:282,1,64.9999970245363
188,363,63586,2,0,L|212:370,3,21.6666656748454
105,322,63886,5,2,0:3:0:0:
25,354,64036,1,0,0:0:0:0:
105,322,64186,1,8,0:1:0:0:
105,322,64486,2,0,L|112:257,1,64.9999970245363
134,68,64786,2,0,L|125:134,1,64.9999970245363
62,186,65086,5,2,0:3:0:0:
176,198,65236,1,0,0:0:0:0:
291,217,65386,2,0,P|321:201|340:163,1,64.9999970245363,8|0,0:1|0:0,0:0:0:0:
416,87,65686,1,4,0:0:0:0:
291,217,65986,2,0,B|305:189|337:175|337:175|375:217|420:210,1,150
473,150,66286,1,6,0:3:0:0:
434,272,66436,2,0,L|426:208,1,50
416,87,66586,2,0,P|459:102|472:156,1,100,8|4,0:1|0:0,0:0:0:0:
416,87,66886,2,0,L|188:104,1,225.000008583069
115,94,67486,6,0,P|114:123|131:156,1,64.9999970245363,2|0,0:3|0:0,0:0:0:0:
62,323,67786,2,0,P|44:305|27:265,1,64.9999970245363,8|0,0:1|0:0,0:0:0:0:
59,191,68086,1,0,0:0:0:0:
146,341,68386,2,0,L|142:365,3,21.6666656748454
225,297,68686,5,2,0:3:0:0:
277,370,68836,1,0,0:0:0:0:
225,297,68986,1,8,0:1:0:0:
225,297,69286,2,0,P|262:284|286:287,1,64.9999970245363
453,384,69586,1,0,0:0:0:0:
512,162,69886,5,2,0:3:0:0:
431,192,70036,1,0,0:0:0:0:
442,105,70186,1,2,0:2:0:0:
442,105,70261,1,2,0:2:0:0:
361,135,70486,1,0,0:0:0:0:
361,135,70636,1,0,0:0:0:0:
131,46,70936,5,0,0:0:0:0:
215,18,71086,1,2,0:3:0:0:
243,102,71236,1,0,0:0:0:0:
159,130,71386,1,2,0:2:0:0:
159,130,71461,1,2,0:2:0:0:
361,135,71686,2,0,B|404:165|423:229|357:271|348:211,1,150
352,225,71986,6,0,P|437:220|508:290,1,187.5,4|0,0:1|0:0,0:0:0:0:
479,362,72286,1,2,0:3:0:0:
506,161,72436,1,0,0:0:0:0:
395,356,72586,2,0,L|291:348,1,89.9999972534181,8|0,0:1|0:0,0:0:0:0:
249,280,72886,1,2,0:0:0:0:
249,280,73036,2,0,L|194:287,1,44.999998626709
32,359,73186,2,0,L|61:365,3,29.9999990844727,2|0|0|0,0:0|0:0|0:0|0:0,0:0:0:0:
12,279,73486,5,6,0:3:0:0:
174,364,73636,1,0,0:0:0:0:
12,279,73786,2,0,P|15:232|53:180,1,110.000003356934,8|4,0:1|0:0,0:0:0:0:
308,136,74086,2,0,P|221:168|129:154,1,187.5,2|0,0:0|0:0,0:0:0:0:
65,103,74386,2,0,L|78:-30,1,89.9999972534181,4|0,0:0|0:0,0:0:0:0:
283,0,74686,5,2,0:3:0:0:
308,136,74836,1,0,0:0:0:0:
330,261,74986,2,0,P|275:264|209:221,1,110.000003356934,8|0,0:1|0:0,0:0:0:0:
447,97,75286,2,0,P|416:143|421:221,1,110.000003356934,2|0,0:0|0:0,0:0:0:0:
489,384,75586,2,0,B|480:320|420:284|420:284|399:324|420:346,1,187.5,2|0,0:0|0:0,0:0:0:0:
416,342,75886,1,6,0:3:0:0:
337,199,76036,2,0,L|327:277,1,62.5
159,371,76186,2,0,P|199:332|255:331,1,89.9999972534181,8|4,0:1|0:0,0:0:0:0:
159,371,76486,2,0,L|34:360,1,112.500004291535,2|0,0:0|0:0,0:0:0:0:
0,292,76786,6,0,B|5:202|55:231|61:127,1,165.000005035401
31,69,77086,2,0,P|90:69|122:93,1,89.9999972534181,2|0,0:3|0:0,0:0:0:0:
263,242,77386,2,0,P|306:230|336:198,1,89.9999972534181,8|0,0:1|0:0,0:0:0:0:
383,118,77686,1,2,0:0:0:0:
383,118,77836,2,0,L|316:109,1,44.999998626709
114,85,77986,1,2,0:0:0:0:
163,371,78286,5,6,0:3:0:0:
47,240,78436,1,0,0:0:0:0:
163,371,78586,2,0,P|221:374|268:345,1,110.000003356934,8|4,0:1|0:0,0:0:0:0:
142,126,78886,2,0,P|132:201|205:286,1,187.5,2|0,0:0|0:0,0:0:0:0:
281,263,79186,2,0,L|290:149,1,89.9999972534181,4|0,0:0|0:0,0:0:0:0:
309,45,79486,5,2,0:3:0:0:
403,105,79636,1,0,0:0:0:0:
505,167,79786,1,8,0:1:0:0:
505,167,79861,1,0,0:0:0:0:
344,319,80086,2,0,P|294:290|278:250,1,89.9999972534181,4|0,0:0|0:0,0:0:0:0:
252,47,80386,2,0,B|294:70|320:124|320:124|317:159|279:177,1,165.000005035401,2|0,0:0|0:0,0:0:0:0:
209,211,80686,1,6,0:3:0:0:
120,34,80836,2,0,P|144:22|171:26,1,55.0000016784668
127,196,80986,2,0,P|83:203|47:178,1,89.9999972534181,8|4,0:1|0:0,0:0:0:0:
127,196,81286,2,0,L|112:345,1,150.000005722046,2|4,0:0|0:1,0:0:0:0:
423,49,82186,5,8,0:1:0:0:
423,49,82486,2,0,L|433:109,1,50
463,219,82786,1,2,0:0:0:0:
337,382,83086,1,0,0:0:0:0:
252,194,83386,2,0,L|364:209,1,100,8|2,0:1|0:0,0:0:0:0:
351,207,83986,6,0,B|261:207|280:296|191:296,1,179.999994506836,4|0,0:0|0:0,0:0:0:0:
92,214,84436,1,4,0:0:0:0:
21,354,84586,2,0,P|48:367|83:367,1,50,8|0,0:1|0:0,0:0:0:0:
70,290,84886,1,4,0:0:0:0:
31,53,85186,5,4,0:0:0:0:
31,53,85336,1,4,0:0:0:0:
243,109,85636,1,4,0:0:0:0:
116,135,85786,1,8,0:1:0:0:
294,0,86086,1,4,0:0:0:0:
461,142,86386,2,0,B|423:125|423:125|362:157|362:157|313:137,1,150,4|4,0:0|0:0,0:0:0:0:
243,109,86986,5,8,0:1:0:0:
259,99,87286,1,4,0:0:0:0:
17,368,87586,1,4,0:0:0:0:
17,368,87736,2,0,B|-5:324|-5:324|14:266,1,100,4|4,0:0|0:0,0:0:0:0:
84,321,88186,1,8,0:1:0:0:
96,330,88486,1,4,0:0:0:0:
211,40,88786,6,0,B|266:40|266:40|303:85,1,100,12|0,0:0|0:0,0:0:0:0:
90,122,89386,2,0,B|103:101|103:101|130:98|130:98|178:63|178:63|223:31,1,150.000005722046,8|4,0:1|0:0,0:0:0:0:
186,368,89986,2,2,B|131:194|131:194|230:120|230:120|213:216,1,400,0|0,0:0|0:0,0:1:0:0:
213,212,90886,6,0,B|286:186|286:186|367:219|367:219|427:197,1,225.000008583069,2|0,0:1|0:0,0:0:0:0:
508,167,91186,6,0,P|440:216|440:313,1,187.5,4|0,0:1|0:0,0:0:0:0:
512,360,91486,1,0,0:0:0:0:
389,384,91636,1,0,0:0:0:0:
334,118,91786,5,8,0:1:0:0:
334,118,92086,2,0,P|328:136|326:155,1,37.5000014305115,4|0,0:0|0:0,0:0:0:0:
361,43,92236,2,0,P|320:40|255:95,1,125,4|0,0:0|0:0,0:0:0:0:
76,2,92536,2,0,P|133:17|164:70,1,125,4|2,0:0|0:0,0:0:0:0:
87,78,92836,1,4,0:0:0:0:
202,278,92986,1,8,0:1:0:0:
35,304,93136,1,4,0:0:0:0:
125,333,93286,2,0,L|121:308,2,22.4999993133545,2|0|0,0:0|0:0|0:0,0:0:0:0:
105,230,93436,1,4,0:0:0:0:
105,230,93586,6,0,B|238:184|203:330|354:264,1,250,4|0,0:0|0:0,0:0:0:0:
388,197,94036,1,2,0:0:0:0:
114,33,94186,5,8,0:1:0:0:
114,33,94486,2,0,P|98:55|96:99,1,62.5,2|0,0:0|0:0,0:0:0:0:
66,168,94636,2,0,P|39:152|14:61,1,125,4|2,0:0|0:0,0:0:0:0:
212,178,94936,2,0,P|271:143|276:68,1,125,4|2,0:0|0:0,0:0:0:0:
200,97,95236,1,4,0:0:0:0:
349,176,95386,1,8,0:1:0:0:
337,24,95536,1,4,0:0:0:0:
445,231,95686,6,0,P|458:243|527:245,1,75,2|0,0:1|0:0,0:0:0:0:
498,175,95986,6,0,B|412:195|412:195|369:266|369:266|359:264|359:264|301:341|301:341|183:358,1,375.000014305115,6|0,0:1|0:0,0:0:0:0:
126,364,96436,1,0,0:0:0:0:
232,238,96586,2,0,P|286:274|324:344,1,125,8|0,0:1|0:0,0:0:0:0:
449,365,96886,6,0,P|470:367|452:356,1,50,2|0,0:0|0:0,0:0:0:0:
460,245,97036,2,0,P|496:245|465:233,1,100,4|0,0:0|0:0,0:0:0:0:
405,115,97186,2,0,P|456:130|414:104,1,150.000005722046,2|4,0:0|0:0,0:0:0:0:
320,324,97486,5,4,0:0:0:0:
107,348,97636,5,2,0:1:0:0:
149,332,97711,1,2,0:1:0:0:
191,314,97786,2,0,L|85:358,1,89.9999972534181,10|4,0:1|0:0,0:0:0:0:
5,204,98086,5,2,0:1:0:0:
45,214,98161,1,2,0:1:0:0:
88,226,98236,2,0,L|14:205,1,44.999998626709,4|0,0:3|0:0,0:0:0:0:
7,61,98386,6,0,B|128:34|74:162|206:132,1,220.000006713867,4|2,0:0|0:0,0:0:0:0:
439,26,98986,2,0,P|406:41|380:92,1,89.9999972534181,8|0,0:1|0:0,0:0:0:0:
200,48,99286,2,0,P|247:69|272:101,1,89.9999972534181,2|0,0:0|0:0,0:0:0:0:
336,358,99586,6,0,P|354:308|340:257,1,100,2|2,0:0|0:0,0:0:0:0:
338,258,100186,2,0,P|308:265|289:288,1,50,8|8,0:1|0:1,0:0:0:0:
208,278,100486,2,0,P|207:300|221:319,1,37.5000014305115,8|8,0:1|0:1,0:0:0:0:
256,384,100786,1,8,0:1:0:0:
216,347,108286,6,0,P|244:330|249:312,1,37.5000014305115,2|0,0:0|0:0,0:0:0:0:
103,333,108586,2,0,P|122:368|148:377,1,50,2|0,0:0|0:0,0:0:0:0:
47,232,108886,2,0,P|28:255|28:297,1,62.5,2|0,0:0|0:0,0:0:0:0:
169,73,109186,6,0,P|132:94|97:90,1,75.0000028610231,2|0,0:0|0:0,0:0:0:0:
291,49,109486,2,0,P|241:26|225:-33,1,87.500000834465,2|0,0:0|0:0,0:0:0:0:
377,106,109786,2,0,P|377:53|409:8,1,100,2|0,0:0|0:0,0:0:0:0:
410,198,110086,2,0,P|445:166|516:158,1,112.500004291535,2|0,0:0|0:0,0:0:0:0:
426,365,110386,6,0,B|409:318|362:280|362:280|360:286|360:286|312:249|248:264,1,225.000008583069,4|0,0:0|0:0,0:0:0:0:
185,312,110686,1,2,0:0:0:0:
334,175,110836,1,2,0:0:0:0:
108,160,110986,2,0,B|87:152|56:168|56:168|47:167|47:167|18:179|0:219,1,125,8|0,0:1|0:0,0:0:0:0:
107,286,111286,1,2,0:0:0:0:
23,38,111436,1,4,0:0:0:0:
198,136,111586,2,0,B|189:187,3,41.6666666666667,2|0|0|0,0:0|0:0|0:0|0:0,0:0:0:0:
262,8,111886,5,4,0:0:0:0:
488,81,112036,1,2,0:0:0:0:
262,8,112186,2,0,B|269:58|269:58|275:63|275:63|285:131,1,110.000003356934,8|4,0:1|0:0,0:0:0:0:
496,218,112486,2,0,B|486:191|469:171|469:171|446:164|446:164|405:130|327:177,1,187.5,2|0,0:0|0:0,0:0:0:0:
271,193,112786,2,0,B|248:225|248:225|248:239|248:239|224:280,1,89.9999972534181,4|0,0:0|0:0,0:0:0:0:
59,324,113086,5,2,0:0:0:0:
32,167,113236,1,2,0:0:0:0:
0,2,113386,2,0,B|13:8|13:8|36:1|36:1|63:1|102:41,1,110.000003356934,8|0,0:1|0:0,0:0:0:0:
271,193,113686,2,0,B|249:173|245:144|245:144|239:128|239:128|237:107|253:85,1,110.000003356934,2|4,0:0|0:0,0:0:0:0:
490,14,113986,2,0,B|501:22|501:22|509:57|502:74|502:74|503:81|503:81|493:103|470:120|470:120|429:108|418:60,1,187.5,2|0,0:0|0:0,0:0:0:0:
411,0,114286,1,4,0:0:0:0:
481,202,114436,2,0,B|410:206,1,62.5,2|0,0:0|0:0,0:0:0:0:
271,193,114586,2,0,B|312:197|327:214|327:214|325:224|325:224|335:239|342:269,1,110.000003356934,8|0,0:1|0:0,0:0:0:0:
271,193,114886,2,0,B|284:159|286:120|286:120|296:125|296:125|296:93|312:46,1,165.000005035401,2|0,0:0|0:0,0:0:0:0:
249,0,115186,6,0,B|208:-4|184:29|184:29|187:34|187:34|151:69|102:49,1,165.000005035401,2|0,0:0|0:0,0:0:0:0:
0,40,115486,2,0,B|29:52|38:99|38:99|16:117,1,89.9999972534181,2|0,0:0|0:0,0:0:0:0:
105,358,115786,2,0,B|119:342|119:342|114:297|69:270,1,89.9999972534181,8|0,0:1|0:0,0:0:0:0:
0,363,116086,1,2,0:0:0:0:
218,307,116236,2,0,B|223:247,1,44.999998626709,4|0,0:0|0:0,0:0:0:0:
245,68,116386,2,0,B|220:88|213:109|213:109|219:122|219:122|213:141|226:166,1,110.000003356934,2|0,0:0|0:0,0:0:0:0:
506,296,116686,5,4,0:0:0:0:
282,384,116836,1,2,0:0:0:0:
506,296,116986,2,0,B|504:272|484:253|484:253|478:257|478:257|453:239|400:249,1,110.000003356934,8|4,0:1|0:0,0:0:0:0:
225,164,117286,2,0,B|286:146|318:181|318:181|314:190|314:190|348:214|345:260,1,187.5,2|0,0:0|0:0,0:0:0:0:
392,318,117586,2,0,B|414:310|414:310|430:277|425:220,1,89.9999972534181,4|0,0:0|0:0,0:0:0:0:
271,31,117886,2,0,B|199:29|145:69|145:69|135:98|135:98|103:110|98:141,2,220.000006713867,2|8|2,0:0|0:1|0:0,0:0:0:0:
351,187,118636,1,4,0:0:0:0:
241,130,118786,2,0,B|272:123|300:134|300:134|302:144|302:144|328:158|354:189,1,134.999995880127,4|0,0:0|0:0,0:0:0:0:
283,233,119086,2,0,B|268:230|268:230|255:221|255:221|229:227|208:246,1,75.0000028610231,4|0,0:0|0:0,0:0:0:0:
110,306,119386,5,8,0:2:0:0:
188,319,119536,1,8,0:2:0:0:
227,343,119686,1,8,0:2:0:0:
254,369,119836,1,8,0:2:0:0:
258,384,119986,1,8,0:2:0:0:
