osu file format v14

[General]
AudioFilename: audio.mp3
AudioLeadIn: 0
PreviewTime: 43186
Countdown: 0
SampleSet: Drum
StackLeniency: 0.7
Mode: 0
LetterboxInBreaks: 0
WidescreenStoryboard: 1

[Editor]
Bookmarks: 4867,12367,14467,24067,43267,57667,62467,72067,81667,91267,100867,110467,120067
DistanceSpacing: 0.9
BeatDivisor: 8
GridSize: 32
TimelineZoom: 1

[Metadata]
Title:ANGEL 9
TitleUnicode:ANGEL 9
Artist:Elroy
ArtistUnicode:Elroy
Creator:jamesjan3
Version:NORMAL
Source:
Tags:hip hop emo rap experimental pop english electronic alternative demonslayer indie sylas thekoala
BeatmapID:2493913
BeatmapSetID:1194835

[Difficulty]
HPDrainRate:4
CircleSize:3.3
OverallDifficulty:4.5
ApproachRate:6
SliderMultiplier:2
SliderTickRate:1

[Events]
//Background and Video events
0,0,"greg-rosenke-BIWhN6wnt7M-unsplash.jpg",0,0
//Break Periods
2,100985,106936
//Storyboard Layer 0 (Background)
//Storyboard Layer 1 (Fail)
//Storyboard Layer 2 (Pass)
//Storyboard Layer 3 (Foreground)
//Storyboard Layer 4 (Overlay)
//Storyboard Sound Samples

[TimingPoints]
-14,600,4,3,0,60,1,0
14386,-100,4,3,0,80,0,0
23986,-100,4,3,0,60,0,0
33586,-100,4,3,0,70,0,0
43186,-83.3333333333333,4,3,0,80,0,0
47536,-83.3333333333333,4,3,0,70,0,0
47836,-83.3333333333333,4,3,0,60,0,0
48136,-83.3333333333333,4,3,0,50,0,0
48436,-83.3333333333333,4,3,0,30,0,0
48586,-83.3333333333333,4,3,0,80,0,0
55936,-83.3333333333333,4,3,0,70,0,0
56086,-83.3333333333333,4,3,0,60,0,0
56236,-83.3333333333333,4,3,0,50,0,0
56386,-100,4,2,0,80,0,0
56986,-100,4,2,0,50,0,0
57286,-100,4,2,0,30,0,0
57436,-100,4,2,0,20,0,0
57586,-100,4,2,0,60,0,0
62386,-100,4,3,0,60,0,0
71986,-100,4,3,0,80,0,0
81586,-100,4,3,0,60,0,0
88786,-100,4,3,0,70,0,0
91186,-83.3333333333333,4,3,0,80,0,0
99586,-100,4,2,0,60,0,0
100186,-100,4,2,0,50,0,0
100336,-100,4,2,0,40,0,0
100486,-100,4,2,0,30,0,0
100636,-100,4,2,0,20,0,0
107986,-100,4,3,0,40,0,0
108886,-100,4,3,0,50,0,0
109186,-100,4,3,0,60,0,0
109486,-100,4,3,0,70,0,0
109786,-100,4,3,0,80,0,0
110386,-83.3333333333333,4,3,0,80,0,0
118186,-83.3333333333333,4,3,0,60,0,0
119386,-83.3333333333333,4,3,0,50,0,0
119536,-83.3333333333333,4,3,0,40,0,0
119686,-83.3333333333333,4,3,0,30,0,0
119836,-83.3333333333333,4,3,0,20,0,0

[Colours]
Combo1 : 255,55,61
Combo2 : 250,176,5
Combo3 : 101,252,252
Combo4 : 214,214,214

[HitObjects]
334,346,5086,6,0,L|263:351,1,50,2|0,0:3|0:0,0:0:0:0:
234,355,5386,2,0,P|181:345|127:378,2,100,8|0|0,0:1|0:0|0:0,0:0:0:0:
289,271,6286,2,0,L|360:276,1,50,2|0,0:3|0:0,0:0:0:0:
389,278,6586,2,0,P|437:288|482:269,2,100,8|0|0,0:1|0:0|0:0,0:0:0:0:
346,187,7486,6,0,L|275:192,1,50,2|0,0:3|0:0,0:0:0:0:
245,193,7786,1,8,0:1:0:0:
154,150,8086,1,4,0:0:0:0:
164,50,8386,2,0,L|270:60,1,100,0|6,0:0|0:3,0:0:0:0:
313,66,8836,1,0,0:0:0:0:
313,66,8986,1,8,0:1:0:0:
402,20,9286,2,0,P|442:88|469:220,1,200,0|2,0:0|0:3,0:0:0:0:
435,299,10186,6,0,P|382:312|327:286,1,100,8|0,0:1|0:0,0:0:0:0:
281,215,10786,1,0,0:0:0:0:
199,274,11086,2,0,L|190:330,1,50,2|0,0:3|0:0,0:0:0:0:
183,372,11386,2,0,P|102:361|68:345,2,100,8|0|0,0:1|0:0|0:0,0:0:0:0:
283,344,12286,6,0,L|335:357,1,50,2|0,0:3|0:0,0:0:0:0:
377,368,12586,2,0,P|379:308|404:244,1,100,2|0,0:2|0:0,0:0:0:0:
351,177,13186,2,0,L|340:70,1,100,0|2,0:0|0:3,0:0:0:0:
335,32,13636,1,0,0:0:0:0:
335,32,13786,1,2,0:2:0:0:
235,11,14086,1,0,0:0:0:0:
155,53,14386,6,0,B|97:35|37:77|37:77|67:117|39:166,1,200,4|8,0:1|0:1,0:0:0:0:
2,237,15286,2,0,L|56:244,1,50,2|0,0:0|0:0,0:0:0:0:
101,249,15586,1,2,0:0:0:0:
143,338,15886,2,0,L|259:314,1,100,6|8,0:3|0:1,0:0:0:0:
268,278,16336,2,0,L|384:302,1,100,4|0,0:0|0:0,0:0:0:0:
400,334,16786,1,4,0:0:0:0:
480,275,17086,6,0,P|495:251|497:217,1,50,2|0,0:3|0:0,0:0:0:0:
474,185,17386,1,8,0:1:0:0:
507,90,17686,1,2,0:0:0:0:
443,12,17986,2,0,P|372:16|335:35,1,100,2|6,0:0|0:3,0:0:0:0:
325,65,18436,1,0,0:0:0:0:
325,65,18586,1,8,0:1:0:0:
233,24,18886,1,2,0:0:0:0:
163,95,19186,6,0,B|177:123|214:130|214:130|175:213|227:272,1,200,0|8,0:0|0:1,0:0:0:0:
296,319,20086,2,0,P|284:353|265:365,1,50,2|0,0:0|0:0,0:0:0:0:
223,367,20386,1,2,0:0:0:0:
124,352,20686,2,0,P|88:297|90:249,1,100,6|8,0:3|0:1,0:0:0:0:
123,230,21136,2,0,P|112:165|65:128,1,100,4|0,0:0|0:0,0:0:0:0:
44,120,21586,1,4,0:0:0:0:
86,29,21886,6,0,L|138:38,1,50,2|0,0:3|0:0,0:0:0:0:
184,46,22186,1,8,0:1:0:0:
280,21,22486,1,4,0:0:0:0:
367,70,22786,2,0,L|360:184,1,100,0|6,0:0|0:3,0:0:0:0:
285,235,23386,1,8,0:1:0:0:
285,235,23536,2,0,L|297:306,2,50,4|2|2,0:0|0:0|0:0,0:0:0:0:
277,185,23986,6,0,B|170:172|202:290|63:262,1,200,4|8,0:1|0:1,0:0:0:0:
30,198,24886,1,0,0:0:0:0:
101,128,25186,2,0,L|158:139,2,50,2|0|0,0:0|0:0|0:0,0:0:0:0:
97,28,25786,1,8,0:1:0:0:
296,12,26386,6,0,P|273:61|279:131,1,100,2|0,0:0|0:0,0:0:0:0:
304,144,26836,2,0,P|333:153|356:180,1,50,0|8,0:0|0:1,0:0:0:0:
432,217,27286,2,0,P|408:270|375:300,1,100,4|2,0:0|0:0,0:0:0:0:
280,274,27886,1,4,0:0:0:0:
215,350,28186,1,8,0:1:0:0:
215,350,28336,1,4,0:0:0:0:
72,301,28786,6,0,B|57:195|144:226|126:86,1,200,2|8,0:0|0:1,0:0:0:0:
74,31,29686,1,0,0:0:0:0:
170,5,29986,2,0,L|282:20,2,100,2|0|8,0:0|0:0|0:1,0:0:0:0:
74,31,30886,1,0,0:0:0:0:
26,118,31186,6,0,P|87:124|130:182,1,100,2|0,0:0|0:0,0:0:0:0:
129,196,31636,1,0,0:0:0:0:
129,196,31786,1,8,0:1:0:0:
223,229,32086,2,0,P|133:248|119:370,1,200,4|4,0:0|0:0,0:0:0:0:
201,384,32986,1,8,0:1:0:0:
201,384,33136,1,4,0:0:0:0:
350,374,33586,6,0,B|356:281|356:281|369:273|369:273|377:141,1,200,4|8,0:1|0:1,0:0:0:0:
380,81,34486,2,0,B|340:71|303:95|303:95|303:125,2,100,0|2|0,0:0|0:0|0:0,0:0:0:0:
462,24,35386,1,8,0:1:0:0:
263,4,35986,5,2,0:0:0:0:
186,67,36286,2,0,L|179:130,1,50
176,166,36586,1,8,0:1:0:0:
77,181,36886,2,0,L|58:77,2,100,4|2|4,0:0|0:0|0:0,0:0:0:0:
25,266,37786,1,8,0:1:0:0:
25,266,37936,1,4,0:0:0:0:
131,371,38386,6,0,L|189:360,2,50,2|0|2,0:0|0:0|0:0,0:0:0:0:
166,277,38986,2,0,P|223:248|286:268,1,100,8|0,0:1|0:0,0:0:0:0:
330,319,39586,2,0,L|379:328,2,50,2|0|2,0:0|0:0|0:0,0:0:0:0:
388,237,40186,2,0,P|437:238|479:211,1,100,8|0,0:1|0:0,0:0:0:0:
474,111,40786,6,0,L|412:102,1,50,2|0,0:0|0:0,0:0:0:0:
375,92,41086,1,2,0:0:0:0:
283,133,41386,1,8,0:1:0:0:
211,66,41686,2,0,L|149:75,1,50,4|0,0:0|0:0,0:0:0:0:
111,81,41986,1,2,0:0:0:0:
36,148,42286,2,0,P|80:196|80:244,1,100,4|8,0:0|0:1,0:0:0:0:
237,356,43186,6,0,B|227:285|362:239|340:377|436:319,1,239.999992675781,4|8,0:1|0:1,0:0:0:0:
477,299,43936,1,2,0:1:0:0:
496,248,44086,1,2,0:0:0:0:
449,151,44386,2,0,B|421:178|421:178|324:166,1,119.999996337891,2|0,0:0|0:0,0:0:0:0:
233,149,44986,2,0,P|222:124|228:89,1,59.9999981689454,8|2,0:1|0:2,0:0:0:0:
179,66,45286,2,0,P|156:82|120:81,1,59.9999981689454,2|2,0:2|0:2,0:0:0:0:
78,56,45586,6,0,L|68:183,1,119.999996337891,4|2,0:0|0:0,0:0:0:0:
7,264,46186,2,0,L|18:330,1,59.9999981689454,8|0,0:1|0:0,0:0:0:0:
27,376,46486,1,2,0:0:0:0:
118,318,46786,1,2,0:0:0:0:
219,355,47086,2,0,B|276:315|282:365|376:329,1,119.999996337891,4|8,0:0|0:1,0:0:0:0:
384,319,47536,1,8,0:1:0:0:
384,319,47686,2,0,L|386:250,1,59.9999981689454,8|8,0:1|0:1,0:0:0:0:
386,204,47986,6,0,B|341:210|316:183|316:183|221:227|173:129,1,239.999992675781,8|8,0:1|0:1,0:0:0:0:
216,37,48886,2,0,L|346:56,1,119.999996337891,2|2,0:0|0:0,0:0:0:0:
433,9,49486,1,4,0:0:0:0:
511,83,49786,1,8,0:1:0:0:
486,188,50086,2,0,P|455:193|426:184,1,59.9999981689454,2|0,0:0|0:0,0:0:0:0:
387,148,50386,2,0,P|404:228|404:283,1,119.999996337891,2|2,0:0|0:0,0:0:0:0:
345,356,50986,2,0,L|253:346,2,59.9999981689454,8|0|2,0:1|0:0|0:0,0:0:0:0:
452,364,51586,5,4,0:0:0:0:
405,266,51886,1,4,0:0:0:0:
312,207,52186,1,4,0:0:0:0:
204,208,52486,1,4,0:0:0:0:
112,265,52786,2,0,B|89:284|55:269|55:269|20:164|137:92,1,239.999992675781,4|8,0:1|0:1,0:0:0:0:
181,31,53686,6,0,P|215:26|240:38,1,59.9999981689454,2|2,0:0|1:1,0:0:0:0:
275,75,53986,2,0,P|335:95|417:76,1,119.999996337891,2|0,0:0|0:0,0:0:0:0:
474,20,54586,2,0,L|486:91,1,59.9999981689454,8|2,0:1|0:2,0:0:0:0:
492,132,54886,2,0,L|480:203,1,59.9999981689454,2|2,0:2|0:2,0:0:0:0:
469,243,55186,1,4,0:0:0:0:
361,233,55486,1,4,0:0:0:0:
302,323,55786,2,0,L|169:341,1,119.999996337891,8|8,0:2|0:2,0:0:0:0:
93,349,56386,6,0,P|53:300|44:260,2,100,8|0|8,2:2|2:0|2:2,0:0:0:0:
183,339,57286,1,8,2:2:0:0:
246,275,57586,1,2,2:2:0:0:
256,192,57736,12,8,61186,3:3:0:0:
172,207,62686,6,0,L|101:212,1,50,2|0,0:3|0:0,0:0:0:0:
72,216,62986,2,0,P|62:267|68:322,2,100,8|0|0,0:1|0:0|0:0,0:0:0:0:
89,117,63886,2,0,L|160:122,1,50,2|0,0:3|0:0,0:0:0:0:
189,121,64186,2,0,P|198:69|193:15,2,100,8|0|0,0:1|0:0|0:0,0:0:0:0:
229,212,65086,6,0,L|300:207,1,50,2|0,0:3|0:0,0:0:0:0:
330,206,65386,1,8,0:1:0:0:
380,292,65686,1,4,0:0:0:0:
479,287,65986,2,0,P|492:243|488:187,1,100,0|6,0:0|0:3,0:0:0:0:
464,145,66436,1,0,0:0:0:0:
464,145,66586,1,8,0:1:0:0:
476,45,66886,2,0,B|389:10|383:106|267:49,1,200,0|2,0:0|0:3,0:0:0:0:
188,28,67786,6,0,P|135:15|80:41,2,100,8|0|0,0:1|0:0|0:0,0:0:0:0:
215,124,68686,2,0,L|206:180,1,50,2|0,0:3|0:0,0:0:0:0:
204,223,68986,2,0,P|257:210|312:236,2,100,8|0|0,0:1|0:0|0:0,0:0:0:0:
107,250,69886,6,0,L|98:303,1,50,2|0,0:3|0:0,0:0:0:0:
90,349,70186,2,0,L|196:367,1,100,2|0,0:2|0:0,0:0:0:0:
275,314,70786,2,0,P|336:296|399:320,1,100,0|2,0:0|0:3,0:0:0:0:
406,337,71236,1,0,0:0:0:0:
406,337,71386,1,2,0:2:0:0:
481,271,71686,1,0,0:0:0:0:
482,171,71986,6,0,B|451:204|407:190|407:190|365:130|383:72,1,200,4|8,0:1|0:1,0:0:0:0:
307,12,72886,2,0,L|253:19,1,50,2|0,0:0|0:0,0:0:0:0:
207,27,73186,1,2,0:0:0:0:
112,59,73486,2,0,P|77:104|74:159,1,100,6|8,0:3|0:1,0:0:0:0:
119,163,73936,2,0,P|125:219|100:268,1,100,4|0,0:0|0:0,0:0:0:0:
59,267,74386,1,4,0:0:0:0:
92,361,74686,6,0,P|116:376|150:378,1,50,2|0,0:3|0:0,0:0:0:0:
187,378,74986,1,8,0:1:0:0:
257,306,75286,1,2,0:0:0:0:
345,359,75586,2,0,L|357:236,1,100,2|6,0:0|0:3,0:0:0:0:
363,213,76036,1,0,0:0:0:0:
363,213,76186,1,8,0:1:0:0:
454,172,76486,1,2,0:0:0:0:
488,78,76786,6,0,B|456:79|432:51|432:51|379:126|302:111,1,200,0|8,0:0|0:1,0:0:0:0:
273,23,77686,2,0,P|237:16|217:26,1,50,2|0,0:0|0:0,0:0:0:0:
195,62,77986,1,2,0:0:0:0:
103,21,78286,2,0,L|90:120,1,100,6|8,0:3|0:1,0:0:0:0:
49,149,78736,2,0,L|62:248,1,100,4|0,0:0|0:0,0:0:0:0:
95,285,79186,1,4,0:0:0:0:
166,354,79486,6,0,P|187:358|218:345,1,50,2|0,0:3|0:0,0:0:0:0:
239,305,79786,1,8,0:1:0:0:
323,251,80086,2,0,P|368:266|412:313,1,100,4|2,0:0|0:0,0:0:0:0:
487,358,80686,1,6,0:3:0:0:
495,258,80986,2,0,L|485:198,1,50,8|4,0:1|0:0,0:0:0:0:
477,159,81286,2,0,B|400:138|375:191|259:163,1,200,2|0,0:0|0:0,0:0:0:0:
203,101,82186,5,8,0:1:0:0:
113,56,82486,1,0,0:0:0:0:
39,124,82786,1,2,0:0:0:0:
80,214,83086,1,0,0:0:0:0:
179,202,83386,1,8,0:1:0:0:
295,364,83986,6,0,L|454:342,1,150,4|4,0:0|0:0,0:0:0:0:
493,338,84586,1,8,0:1:0:0:
506,239,84886,1,4,0:0:0:0:
411,200,85186,2,0,L|404:147,1,50,4|4,0:0|0:0,0:0:0:0:
358,67,85636,1,4,0:0:0:0:
358,67,85786,1,8,0:1:0:0:
258,59,86086,1,4,0:0:0:0:
157,57,86386,6,0,B|178:104|178:104|20:127,1,200,4|8,0:0|0:1,0:0:0:0:
9,223,87286,1,4,0:0:0:0:
94,274,87586,1,4,0:0:0:0:
94,274,87736,2,0,B|106:309|106:309|190:308|190:308|207:344,1,150,4|8,0:0|0:1,0:0:0:0:
294,372,88486,1,4,0:0:0:0:
384,328,88786,6,2,B|366:277|366:277|444:286|444:286|463:209|463:209|341:195|341:195|312:113|312:113|483:131|483:131|416:48|416:48,1,700,12|2,0:0|0:1,0:2:0:0:
322,13,91186,6,0,B|220:-31|187:86|92:26,1,239.999992675781,4|8,0:1|0:1,0:0:0:0:
78,137,92086,1,4,0:0:0:0:
78,137,92236,2,0,L|62:280,2,119.999996337891,4|4|4,0:0|0:0|0:0,0:0:0:0:
85,83,92986,1,8,0:1:0:0:
190,100,93286,1,2,0:0:0:0:
212,149,93436,1,4,0:0:0:0:
196,200,93586,6,0,P|177:252|222:382,1,179.999994506836,4|2,0:0|0:0,0:0:0:0:
262,373,94186,1,8,0:1:0:0:
338,296,94486,1,2,0:0:0:0:
338,296,94636,2,0,P|390:329|466:327,2,119.999996337891,4|4|4,0:0|0:0|0:0,0:0:0:0:
321,244,95386,1,8,0:1:0:0:
315,139,95686,2,0,L|382:131,1,59.9999981689454,2|4,0:1|0:0,0:0:0:0:
428,126,95986,6,0,B|399:46|399:46|296:58,1,179.999994506836,6|0,0:1|0:0,0:0:0:0:
250,62,96586,1,8,0:1:0:0:
144,40,96886,2,0,P|132:112|84:108,1,119.999996337891,2|2,0:0|0:0,0:0:0:0:
10,141,97486,1,4,0:0:0:0:
10,141,97636,2,0,L|10:200,1,59.9999981689454,2|10,0:1|0:1,0:0:0:0:
18,258,97936,1,4,0:0:0:0:
18,258,98086,2,0,L|77:258,1,59.9999981689454,2|4,0:1|0:3,0:0:0:0:
131,259,98386,6,0,B|205:233|280:295|280:295|269:347|314:382,1,239.999992675781,4|8,0:0|0:1,0:0:0:0:
380,313,99286,1,2,0:0:0:0:
459,253,99586,2,0,B|453:195|387:183|384:188|379:193|318:184|303:102,2,200,2|8|8,0:0|0:1|0:1,0:0:0:0:
326,0,107986,6,0,P|276:5|230:24,1,100,2|2,0:0|0:0,0:0:0:0:
169,104,108586,2,0,P|218:109|264:128,1,100,2|2,0:0|0:0,0:0:0:0:
326,207,109186,2,0,P|276:212|230:231,1,100,2|2,0:0|0:0,0:0:0:0:
171,313,109786,2,0,P|220:318|266:337,1,100,2|2,0:0|0:0,0:0:0:0:
368,375,110386,5,4,0:0:0:0:
469,337,110686,2,0,L|471:268,1,59.9999981689454,2|2,0:0|0:0,0:0:0:0:
473,223,110986,2,0,B|450:209|444:170|444:170|435:162|435:162|446:105,2,119.999996337891,8|2|2,0:1|0:0|0:0,0:0:0:0:
379,278,111886,1,4,0:0:0:0:
338,242,112036,1,2,0:0:0:0:
286,225,112186,2,0,B|234:232|234:232|228:228|228:228|159:236,2,119.999996337891,8|2|4,0:1|0:0|0:0,0:0:0:0:
348,136,113086,6,0,L|336:66,1,59.9999981689454,2|2,0:0|0:0,0:0:0:0:
327,23,113386,1,8,0:1:0:0:
239,86,113686,1,2,0:0:0:0:
155,16,113986,2,0,B|124:24|109:46|109:46|106:56|106:56|82:77|68:117,1,119.999996337891,2|4,0:0|0:0,0:0:0:0:
72,154,114436,1,2,0:0:0:0:
103,197,114586,1,8,0:1:0:0:
28,275,114886,2,0,B|38:302|38:302|148:297,1,119.999996337891,2|2,0:0|0:0,0:0:0:0:
236,283,115486,6,0,B|269:288|269:288|290:326|343:332,2,119.999996337891,2|8|2,0:0|0:1|0:0,0:0:0:0:
194,248,116236,1,4,0:0:0:0:
173,197,116386,1,2,0:0:0:0:
277,165,116686,2,0,L|343:172,1,59.9999981689454,4|2,0:0|0:0,0:0:0:0:
381,140,116986,2,0,L|447:133,1,59.9999981689454,8|4,0:1|0:0,0:0:0:0:
483,102,117286,1,2,0:0:0:0:
418,15,117586,1,4,0:0:0:0:
310,7,117886,6,0,B|282:12|259:29|259:29|251:24|251:24|226:35|203:60,2,119.999996337891,2|8|2,0:0|0:1|0:0,0:0:0:0:
418,15,118786,2,0,B|432:51|428:73|428:73|420:73|420:73|408:91|414:132,1,119.999996337891,4|4,0:0|0:0,0:0:0:0:
463,219,119386,1,8,0:2:0:0:
416,316,119686,1,8,0:2:0:0:
