osu file format v14

[General]
AudioFilename: audio.mp3
AudioLeadIn: 0
PreviewTime: 43186
Countdown: 0
SampleSet: Drum
StackLeniency: 0.3
Mode: 0
LetterboxInBreaks: 0
WidescreenStoryboard: 0

[Editor]
Bookmarks: 4867,12367,14467,24067,43267,57667,62467,72067,81667,91267,100867,110467,120067
DistanceSpacing: 1
BeatDivisor: 4
GridSize: 32
TimelineZoom: 1

[Metadata]
Title:ANGEL 9
TitleUnicode:ANGEL 9
Artist:Elroy
ArtistUnicode:Elroy
Creator:jamesjan3
Version:HARD
Source:
Tags:hip hop emo rap experimental pop english electronic alternative demonslayer indie sylas thekoala
BeatmapID:2494049
BeatmapSetID:1194835

[Difficulty]
HPDrainRate:5
CircleSize:3.5
OverallDifficulty:7
ApproachRate:8
SliderMultiplier:2.4
SliderTickRate:1

[Events]
//Background and Video events
0,0,"greg-rosenke-BIWhN6wnt7M-unsplash.jpg",0,0
//Break Periods
2,100986,107236
//Storyboard Layer 0 (Background)
//Storyboard Layer 1 (Fail)
//Storyboard Layer 2 (Pass)
//Storyboard Layer 3 (Foreground)
//Storyboard Layer 4 (Overlay)
//Storyboard Sound Samples

[TimingPoints]
-14,600,4,3,0,60,1,0
4786,-111.111111111111,4,3,0,60,0,0
14386,-76.9230769230769,4,3,0,80,0,0
23536,-111.111111111111,4,3,0,80,0,0
23986,-111.111111111111,4,3,0,60,0,0
33586,-111.111111111111,4,3,0,70,0,0
43186,-76.9230769230769,4,3,0,80,0,0
47536,-76.9230769230769,4,3,0,70,0,0
47836,-76.9230769230769,4,3,0,60,0,0
48136,-76.9230769230769,4,3,0,50,0,0
48436,-76.9230769230769,4,3,0,30,0,0
48586,-76.9230769230769,4,3,0,80,0,0
55936,-76.9230769230769,4,3,0,70,0,0
56086,-76.9230769230769,4,3,0,60,0,0
56236,-76.9230769230769,4,3,0,50,0,0
56386,-111.111111111111,4,2,0,80,0,0
56986,-111.111111111111,4,2,0,50,0,0
57286,-111.111111111111,4,2,0,30,0,0
57436,-111.111111111111,4,2,0,20,0,0
57586,-111.111111111111,4,2,0,60,0,0
62386,-111.111111111111,4,3,0,60,0,0
71986,-76.9230769230769,4,3,0,80,0,0
81586,-111.111111111111,4,3,0,60,0,0
88786,-111.111111111111,4,3,0,70,0,0
91186,-76.9230769230769,4,3,0,80,0,0
99586,-111.111111111111,4,2,0,60,0,0
100186,-111.111111111111,4,2,0,50,0,0
100336,-111.111111111111,4,2,0,40,0,0
100486,-111.111111111111,4,2,0,30,0,0
100636,-111.111111111111,4,2,0,20,0,0
107986,-111.111111111111,4,3,0,40,0,0
108886,-111.111111111111,4,3,0,50,0,0
109186,-111.111111111111,4,3,0,60,0,0
109486,-111.111111111111,4,3,0,70,0,0
109786,-111.111111111111,4,3,0,80,0,0
110386,-76.9230769230769,4,3,0,80,0,0
118186,-76.9230769230769,4,3,0,60,0,0
119386,-76.9230769230769,4,3,0,50,0,0
119536,-76.9230769230769,4,3,0,40,0,0
119686,-76.9230769230769,4,3,0,30,0,0
119836,-76.9230769230769,4,3,0,20,0,0

[Colours]
Combo1 : 255,55,61
Combo2 : 250,176,5
Combo3 : 101,252,252
Combo4 : 214,214,214

[HitObjects]
127,31,5086,6,0,L|115:110,1,53.9999983520508,2|0,0:3|0:0,0:0:0:0:
103,163,5386,1,8,0:1:0:0:
246,114,5686,1,0,0:0:0:0:
226,263,5986,1,0,0:0:0:0:
372,329,6286,1,2,0:3:0:0:
372,329,6436,1,0,0:0:0:0:
372,329,6586,2,0,P|319:348|248:331,2,107.999996704102,8|0|0,0:1|0:0|0:0,0:0:0:0:
493,213,7486,6,0,L|485:150,1,53.9999983520508,2|0,0:3|0:0,0:0:0:0:
474,79,7786,1,8,0:1:0:0:
331,29,8086,1,4,0:0:0:0:
474,79,8386,2,0,B|428:89|428:89|417:99|417:99|350:112,1,107.999996704102,0|6,0:0|0:3,0:0:0:0:
293,127,8836,1,0,0:0:0:0:
293,127,8986,2,0,L|221:112,1,53.9999983520508,8|4,0:1|0:0,0:0:0:0:
207,14,9286,2,0,L|181:244,1,215.999993408203,0|2,0:0|0:3,0:0:0:0:
53,352,10186,5,8,0:1:0:0:
180,328,10486,1,0,0:0:0:0:
307,304,10786,1,0,0:0:0:0:
426,365,11086,2,0,P|447:329|449:307,1,53.9999983520508,2|0,0:3|0:0,0:0:0:0:
437,238,11386,2,0,L|316:221,2,107.999996704102,8|0|0,0:1|0:0|0:0,0:0:0:0:
493,123,12286,6,0,L|486:66,1,53.9999983520508,2|0,0:3|0:0,0:0:0:0:
442,0,12586,1,2,0:2:0:0:
293,70,12886,1,0,0:0:0:0:
297,74,13186,2,0,P|353:79|396:137,1,107.999996704102,0|2,0:0|0:3,0:0:0:0:
377,200,13636,1,0,0:0:0:0:
377,200,13786,2,0,P|365:242|344:258,1,53.9999983520508,2|0,0:2|0:0,0:0:0:0:
267,260,14086,1,0,0:0:0:0:
163,124,14386,6,0,B|203:128|234:96|234:96|266:193|155:243|93:166,1,311.999985717774,4|8,0:1|0:1,0:0:0:0:
29,23,15286,1,2,0:0:0:0:
109,0,15436,2,0,P|144:13|168:44,1,77.9999964294435,0|2,0:0|0:0,0:0:0:0:
208,221,15886,6,0,P|181:252|61:251,1,155.999992858887,6|8,0:3|0:1,0:0:0:0:
19,202,16336,2,0,P|59:209|118:313,1,155.999992858887,4|0,0:0|0:0,0:0:0:0:
97,375,16786,2,0,P|83:336|143:233,1,155.999992858887,4|2,0:0|0:3,0:0:0:0:
328,290,17386,6,0,L|248:328,1,77.9999964294435,8|0,0:1|0:0,0:0:0:0:
176,321,17686,1,2,0:0:0:0:
328,290,17986,2,0,B|255:262|255:262|238:178,1,155.999992858887,2|6,0:0|0:3,0:0:0:0:
186,119,18436,1,0,0:0:0:0:
265,108,18586,1,8,0:1:0:0:
397,35,18886,1,2,0:0:0:0:
401,39,19186,6,0,B|351:120|423:226|423:226|421:155|479:123,1,311.999985717774,0|8,0:0|0:1,0:0:0:0:
430,306,20086,1,2,0:0:0:0:
508,282,20236,2,0,P|517:236|488:181,1,77.9999964294435,0|2,0:0|0:0,0:0:0:0:
300,323,20686,6,0,P|260:259|298:161,1,155.999992858887,6|8,0:3|0:1,0:0:0:0:
199,143,21136,2,0,P|163:209|60:224,1,155.999992858887,4|0,0:0|0:0,0:0:0:0:
94,321,21586,2,0,P|168:318|234:400,1,155.999992858887,4|2,0:0|0:3,0:0:0:0:
300,323,22036,1,0,0:0:0:0:
331,348,22186,2,0,P|380:349|410:335,1,77.9999964294435,8|0,0:1|0:0,0:0:0:0:
430,256,22486,2,0,L|417:173,1,77.9999964294435,4|0,0:0|0:0,0:0:0:0:
388,101,22786,6,0,P|390:43|416:94,1,155.999992858887,0|6,0:0|0:3,0:0:0:0:
268,165,23386,1,8,0:1:0:0:
268,165,23536,2,0,L|194:155,2,53.9999983520508,4|2|2,0:0|0:0|0:0,0:0:0:0:
231,78,23986,6,0,B|184:57|83:93|165:260|35:306|-5:241,1,323.999990112305,4|0,0:1|0:0,0:0:0:0:
21,141,25186,6,0,L|24:106,3,17.9999994506836,2|0|0|0,0:0|0:0|0:0|0:0,0:0:0:0:
10,257,25786,1,8,0:1:0:0:
298,366,26386,6,0,P|337:341|353:228,1,161.999995056153,2|0,0:0|0:0,0:0:0:0:
289,184,26986,1,8,0:1:0:0:
174,214,27286,2,0,L|167:268,1,53.9999983520508,4|0,0:0|0:0,0:0:0:0:
156,348,27586,1,2,0:0:0:0:
45,291,27886,1,4,0:0:0:0:
67,181,28186,1,8,0:1:0:0:
78,166,28336,1,4,0:0:0:0:
92,147,28486,2,0,P|137:142|161:125,1,53.9999983520508
182,59,28786,6,0,P|227:95|291:97,1,107.999996704102,2|0,0:0|0:0,0:0:0:0:
381,12,29386,1,8,0:1:0:0:
396,130,29686,2,0,L|403:190,1,53.9999983520508
412,266,29986,1,2,0:0:0:0:
508,190,30286,1,0,0:0:0:0:
490,77,30586,1,8,0:1:0:0:
396,130,30886,2,0,P|349:114|335:96,1,53.9999983520508
308,35,31186,6,0,L|254:42,1,53.9999983520508,2|0,0:0|0:0,0:0:0:0:
196,105,31486,2,0,L|132:91,2,53.9999983520508,0|0|8,0:0|0:0|0:1,0:0:0:0:
341,199,32086,1,4,0:0:0:0:
173,347,32686,1,4,0:0:0:0:
246,294,32986,1,8,0:1:0:0:
246,294,33136,2,0,P|256:255|271:239,2,53.9999983520508,4|0|0,0:0|0:0|0:0,0:0:0:0:
173,347,33586,6,0,B|116:333|116:333|73:270|128:184,1,215.999993408203,4|8,0:1|0:1,0:0:0:0:
133,74,34486,2,0,P|80:79|40:114,2,107.999996704102,0|2|0,0:0|0:0|0:0,0:0:0:0:
253,48,35386,2,0,L|247:102,3,53.9999983520508,8|0|0|0,0:1|0:0|0:0|0:0,0:0:0:0:
188,163,35986,6,0,P|244:159|299:181,1,107.999996704102,2|0,0:0|0:0,0:0:0:0:
329,305,36586,1,8,0:1:0:0:
384,190,36886,2,0,L|374:72,2,107.999996704102,4|2|4,0:0|0:0|0:0,0:0:0:0:
446,300,37786,1,8,0:1:0:0:
434,316,37936,1,4,0:0:0:0:
423,333,38086,1,0,0:0:0:0:
229,378,38386,6,0,L|220:310,1,53.9999983520508,2|0,0:0|0:0,0:0:0:0:
208,243,38686,1,2,0:0:0:0:
111,316,38986,2,0,L|133:204,1,107.999996704102,8|0,0:1|0:0,0:0:0:0:
3,189,39586,6,0,P|31:186|51:162,1,53.9999983520508,2|0,0:0|0:0,0:0:0:0:
75,89,39886,1,2,0:0:0:0:
202,90,40186,2,0,P|155:59|140:-7,1,107.999996704102,8|0,0:1|0:0,0:0:0:0:
285,0,40786,5,2,0:0:0:0:
315,38,40936,1,0,0:0:0:0:
343,77,41086,2,0,L|358:210,1,107.999996704102,2|8,0:0|0:1,0:0:0:0:
509,193,41686,5,4,0:0:0:0:
477,233,41836,1,0,0:0:0:0:
443,272,41986,1,2,0:0:0:0:
311,290,42286,1,4,0:0:0:0:
393,384,42586,1,8,0:1:0:0:
292,83,43186,5,4,0:1:0:0:
296,87,43486,2,0,L|307:257,1,155.999992858887,2|8,0:0|0:1,0:0:0:0:
386,277,43936,1,2,0:1:0:0:
339,348,44086,2,0,P|294:347|253:315,1,77.9999964294435,2|2,0:0|1:1,0:0:0:0:
218,261,44386,2,0,B|157:271|157:271|130:309|130:309|60:318,1,155.999992858887,2|0,0:0|0:0,0:0:0:0:
30,255,44836,1,0,1:0:0:0:
30,255,44986,2,0,P|5:295|2:335,2,77.9999964294435,8|2|2,0:1|0:2|0:2,0:0:0:0:
92,193,45436,1,2,0:2:0:0:
9,168,45586,6,0,P|2:109|109:8,1,155.999992858887,4|2,0:0|0:0,0:0:0:0:
135,30,46036,1,0,0:0:0:0:
173,51,46186,2,0,P|167:89|189:145,2,77.9999964294435,8|0|2,0:1|0:0|0:0,0:0:0:0:
248,14,46636,1,2,1:1:0:0:
248,14,46786,2,0,P|271:47|315:62,1,77.9999964294435,2|2,0:0|1:1,0:0:0:0:
377,15,47086,2,0,P|333:75|330:186,1,155.999992858887,4|8,0:0|0:1,0:0:0:0:
366,228,47536,1,8,0:1:0:0:
388,249,47686,2,0,L|475:240,1,77.9999964294435,8|8,0:1|0:1,0:0:0:0:
486,156,47986,5,8,0:1:0:0:
456,146,48136,1,8,0:1:0:0:
456,115,48286,1,8,0:1:0:0:
486,105,48436,1,8,0:1:0:0:
504,130,48586,1,8,0:1:0:0:
367,155,48886,5,2,0:0:0:0:
223,111,49186,1,2,0:0:0:0:
367,155,49486,2,0,P|305:172|256:158,1,77.9999964294435,4|0,0:0|0:0,0:0:0:0:
223,111,49786,2,0,P|161:128|130:151,1,77.9999964294435,8|0,0:1|0:0,0:0:0:0:
91,210,50086,1,2,0:0:0:0:
91,210,50236,1,0,0:0:0:0:
91,210,50386,2,0,B|93:248|63:275|63:275|13:276|-4:214,1,155.999992858887,2|2,0:0|0:0,0:0:0:0:
20,56,50986,6,0,L|14:141,2,77.9999964294435,8|0|2,0:1|0:0|0:0,0:0:0:0:
96,17,51436,1,4,0:0:0:0:
127,95,51586,6,0,P|172:115|225:105,1,77.9999964294435,4|0,0:0|0:0,0:0:0:0:
303,16,51886,2,0,P|254:24|216:64,1,77.9999964294435,4|0,0:0|0:0,0:0:0:0:
127,95,52186,2,0,P|150:124|187:142,1,77.9999964294435,4|0,0:0|0:0,0:0:0:0:
303,16,52486,2,0,P|262:44|245:96,1,77.9999964294435,4|0,0:0|0:0,0:0:0:0:
283,162,52786,6,0,B|295:197|328:206|328:206|421:187|443:43,1,233.999989288331,4|0,0:1|0:0,0:0:0:0:
433,87,53386,1,8,0:1:0:0:
460,114,53536,1,0,0:0:0:0:
479,143,53686,2,0,P|493:187|488:236,1,77.9999964294435,2|2,0:0|1:1,0:0:0:0:
419,270,53986,2,0,P|393:317|272:342,1,155.999992858887,2|0,0:0|0:0,0:0:0:0:
238,296,54436,1,0,1:0:0:0:
238,296,54586,2,0,L|242:211,2,77.9999964294435,8|2|2,0:1|0:2|0:2,0:0:0:0:
156,338,55036,1,2,0:2:0:0:
76,301,55186,5,4,0:0:0:0:
119,152,55486,1,4,0:0:0:0:
162,3,55786,1,8,0:2:0:0:
142,16,55936,1,8,0:2:0:0:
144,40,56086,1,8,0:2:0:0:
160,51,56236,1,10,0:2:0:0:
181,48,56386,2,0,L|314:14,1,107.999996704102,8|0,2:2|2:0,0:0:0:0:
364,56,56836,1,0,0:0:0:0:
364,56,56986,2,0,L|350:134,3,53.9999983520508,8|8|8|8,2:2|2:2|2:2|2:2,0:0:0:0:
401,178,57586,6,0,B|318:223|295:136|187:178,1,215.999993408203,2|2,2:2|2:2,0:0:0:0:
110,253,58486,1,2,2:2:0:0:
114,257,58786,2,0,P|154:257|218:291,1,107.999996704102,2|2,2:2|2:2,0:0:0:0:
275,365,59386,2,0,P|315:365|379:331,1,107.999996704102,2|2,2:2|2:2,0:0:0:0:
441,254,59986,5,2,2:2:0:0:
441,254,60586,1,2,2:2:0:0:
441,254,61186,2,2,P|358:216|505:192,1,377.999988464356,8|0,3:3|0:0,0:0:0:0:
426,174,62386,6,0,L|325:166,1,53.9999983520508
300,124,62686,1,2,0:3:0:0:
300,124,62836,1,0,0:0:0:0:
300,124,62986,2,0,P|277:53|282:6,2,107.999996704102,8|0|0,0:1|0:0|0:0,0:0:0:0:
236,246,63886,1,2,0:3:0:0:
254,261,64036,1,0,0:0:0:0:
272,277,64186,2,0,L|288:395,2,107.999996704102,8|0|0,0:1|0:0|0:0,0:0:0:0:
139,173,65086,5,2,0:3:0:0:
180,163,65236,1,0,0:0:0:0:
227,153,65386,2,0,P|270:99|287:49,1,107.999996704102,8|4,0:1|0:0,0:0:0:0:
165,0,65986,2,0,L|15:21,1,107.999996704102,0|6,0:0|0:3,0:0:0:0:
0,76,66436,1,0,0:0:0:0:
61,133,66586,2,0,P|70:169|63:207,1,53.9999983520508,8|4,0:1|0:0,0:0:0:0:
15,250,66886,2,0,P|123:224|221:289,1,215.999993408203,0|2,0:0|0:3,0:0:0:0:
309,383,67786,6,0,L|295:262,2,107.999996704102,8|0|0,0:1|0:0|0:0,0:0:0:0:
423,322,68686,1,2,0:3:0:0:
442,299,68836,1,0,0:0:0:0:
464,264,68986,2,0,P|471:218|444:157,2,107.999996704102,8|0|0,0:1|0:0|0:0,0:0:0:0:
317,183,69886,5,2,0:3:0:0:
317,183,70036,1,0,0:0:0:0:
317,183,70186,2,0,P|332:117|365:82,1,107.999996704102,2|0,0:2|0:0,0:0:0:0:
361,91,70786,2,0,P|268:104|209:82,1,107.999996704102,0|2,0:0|0:3,0:0:0:0:
194,44,71236,1,0,0:0:0:0:
121,85,71386,2,0,L|116:155,1,53.9999983520508,2|0,0:2|0:0,0:0:0:0:
109,222,71686,1,0,0:0:0:0:
257,358,71986,6,0,B|202:322|208:237|254:210|254:210|234:240|244:277,1,233.999989288331,4|0,0:1|0:0,0:0:0:0:
241,267,72586,1,8,0:1:0:0:
397,239,72886,1,2,0:0:0:0:
397,239,73036,2,0,P|356:241|320:260,2,77.9999964294435,0|2|0,0:0|0:0|0:0,0:0:0:0:
474,201,73486,6,0,P|484:136|453:63,1,77.9999964294435,6|0,0:3|0:0,0:0:0:0:
451,50,73786,1,8,0:1:0:0:
375,78,73936,2,0,P|321:116|292:190,1,77.9999964294435,4|2,0:0|0:0,0:0:0:0:
401,163,74236,1,0,0:0:0:0:
401,163,74386,6,0,L|224:181,1,155.999992858887,4|2,0:0|0:3,0:0:0:0:
176,129,74836,1,0,0:0:0:0:
97,159,74986,2,0,P|79:208|81:248,1,77.9999964294435,8|0,0:1|0:0,0:0:0:0:
126,300,75286,1,2,0:0:0:0:
97,159,75586,2,0,P|36:215|11:294,1,155.999992858887,2|6,0:0|0:3,0:0:0:0:
56,354,76036,1,0,0:0:0:0:
126,300,76186,2,0,L|213:312,1,77.9999964294435,8|4,0:1|0:0,0:0:0:0:
288,323,76486,1,2,0:0:0:0:
446,356,76786,6,0,B|377:324|388:235|388:235|444:217|449:154,1,233.999989288331
446,174,77386,1,8,0:1:0:0:
312,110,77686,1,2,0:0:0:0:
312,110,77836,2,0,P|347:127|370:162,2,77.9999964294435,0|2|0,0:0|0:0|0:0,0:0:0:0:
242,53,78286,6,0,P|223:93|227:151,1,77.9999964294435,6|0,0:3|0:0,0:0:0:0:
172,190,78586,1,8,0:1:0:0:
100,154,78736,2,0,P|70:129|33:117,1,77.9999964294435,4|2,0:0|0:0,0:0:0:0:
0,205,79036,1,0,0:0:0:0:
0,205,79186,2,0,L|12:367,1,155.999992858887,4|2,0:0|0:3,0:0:0:0:
95,383,79636,1,0,0:0:0:0:
144,311,79786,2,0,P|203:313|235:328,1,77.9999964294435,8|0,0:1|0:0,0:0:0:0:
290,368,80086,2,0,P|330:324|342:291,1,77.9999964294435,4|0,0:0|0:0,0:0:0:0:
415,264,80386,6,0,L|392:98,1,155.999992858887,2|6,0:0|0:3,0:0:0:0:
323,57,80836,1,0,0:0:0:0:
259,116,80986,2,0,L|249:194,1,77.9999964294435,8|4,0:1|0:0,0:0:0:0:
194,255,81286,1,2,0:0:0:0:
198,259,81586,6,0,P|138:266|70:142,1,215.999993408203,4|8,0:1|0:1,0:0:0:0:
145,92,82486,1,0,0:0:0:0:
149,96,82786,2,0,P|193:120|258:106,1,107.999996704102,2|0,0:0|0:0,0:0:0:0:
343,22,83386,1,8,0:1:0:0:
343,22,83986,6,0,P|347:83|437:65,1,161.999995056153,4|4,0:0|0:0,0:0:0:0:
430,78,84586,1,8,0:1:0:0:
490,196,84886,1,4,0:0:0:0:
391,270,85186,1,4,0:0:0:0:
391,270,85336,2,0,L|379:384,1,107.999996704102,4|4,0:0|0:0,0:0:0:0:
379,377,85786,1,8,0:1:0:0:
285,297,86086,2,0,L|293:379,1,53.9999983520508,4|0,0:0|0:0,0:0:0:0:
181,281,86386,6,0,B|225:267|225:267|351:285|351:285|400:266,1,215.999993408203,4|8,0:0|0:1,0:0:0:0:
419,119,87286,1,4,0:0:0:0:
287,139,87586,1,4,0:0:0:0:
287,139,87736,2,0,B|252:181|252:181|244:126,1,107.999996704102,4|4,0:0|0:0,0:0:0:0:
284,53,88186,1,8,0:1:0:0:
148,131,88486,1,4,0:0:0:0:
33,211,88786,6,2,B|85:211|85:211|91:198|91:198|99:211|99:211|155:211|155:211|188:68|188:68|236:260|236:260|280:171|280:171|304:213|304:213|445:213,1,755.999976928712,12|2,0:0|0:1,0:2:0:0:
512,0,91186,6,0,B|472:1|472:1|433:41|456:126,1,155.999992858887,4|0,0:1|0:0,0:0:0:0:
508,173,91636,1,0,0:0:0:0:
462,243,91786,1,8,0:1:0:0:
329,362,92086,5,4,0:0:0:0:
267,305,92236,2,0,P|256:258|273:222,1,77.9999964294435,4|0,0:0|0:0,0:0:0:0:
194,192,92536,2,0,P|169:221|132:232,1,77.9999964294435,4|2,0:0|0:0,0:0:0:0:
54,195,92836,1,4,0:0:0:0:
38,104,92986,6,0,L|130:116,1,77.9999964294435,8|4,0:1|0:0,0:0:0:0:
220,35,93286,2,0,L|142:26,1,77.9999964294435,2|4,0:0|0:0,0:0:0:0:
210,123,93586,2,0,L|376:141,1,155.999992858887,4|0,0:0|0:0,0:0:0:0:
436,96,94036,1,2,0:0:0:0:
436,96,94186,1,8,0:1:0:0:
503,274,94486,5,2,0:0:0:0:
430,233,94636,2,0,P|419:280|436:316,1,77.9999964294435,4|2,0:0|0:0,0:0:0:0:
357,346,94936,2,0,P|332:316|295:305,1,77.9999964294435,4|2,0:0|0:0,0:0:0:0:
229,361,95236,1,4,0:0:0:0:
152,317,95386,6,0,L|160:236,1,77.9999964294435,8|4,0:1|0:0,0:0:0:0:
65,157,95686,2,0,B|81:178|81:178|77:245,1,77.9999964294435,2|4,0:1|0:0,0:0:0:0:
167,157,95986,2,0,B|171:88|171:88|159:78|159:78|171:72|171:72|176:3,1,155.999992858887,6|0,0:1|0:0,0:0:0:0:
96,0,96436,1,0,0:0:0:0:
96,0,96586,1,8,0:1:0:0:
258,55,96886,6,0,P|316:20|335:85,1,155.999992858887,2|2,0:0|0:0,0:0:0:0:
269,140,97336,1,4,0:0:0:0:
350,171,97486,1,4,0:0:0:0:
350,171,97636,2,0,L|355:212,2,38.9999982147218,2|2|10,0:1|0:1|0:1,0:0:0:0:
469,50,98086,2,0,L|473:12,2,38.9999982147218,2|2|4,0:1|0:1|0:3,0:0:0:0:
427,121,98386,6,0,B|426:162|450:183|450:183|506:197|518:264,1,155.999992858887,4|2,0:0|0:0,0:0:0:0:
373,379,98986,1,8,0:1:0:0:
430,268,99286,1,2,0:0:0:0:
434,272,99586,2,0,P|368:282|321:308,1,107.999996704102,2|2,0:0|0:0,0:0:0:0:
151,337,100186,2,0,L|207:349,3,53.9999983520508,8|8|8|8,0:1|0:1|0:1|0:1,0:0:0:0:
284,366,100786,5,8,0:1:0:0:
256,192,107986,12,2,109786,0:0:0:0:
96,99,110386,6,0,B|112:70|112:70|116:128|130:161|130:161|123:188|123:188|138:222|135:279,1,233.999989288331,4|2,0:0|0:0,0:0:0:0:
92,353,110986,2,0,B|126:374|126:374|186:355,1,77.9999964294435,8|0,0:1|0:0,0:0:0:0:
236,299,111286,1,2,0:0:0:0:
236,299,111436,1,4,0:0:0:0:
337,329,111586,2,0,B|324:294|329:255|329:255|338:246|338:246|326:207|330:162,1,155.999992858887,2|4,0:0|0:0,0:0:0:0:
356,90,112036,1,2,0:0:0:0:
421,162,112186,2,0,P|465:159|505:132,1,77.9999964294435,8|4,0:1|0:0,0:0:0:0:
500,36,112486,2,0,P|461:40|424:29,1,77.9999964294435,2|0,0:0|0:0,0:0:0:0:
276,20,112786,6,0,B|296:19|316:45|316:45|333:48|333:48|283:90|292:136,1,155.999992858887,4|2,0:0|0:0,0:0:0:0:
210,175,113236,1,2,0:0:0:0:
210,175,113386,1,8,0:1:0:0:
191,330,113686,2,0,P|231:290|235:236,1,77.9999964294435,2|4,0:0|0:0,0:0:0:0:
210,175,113986,2,0,B|173:174|149:207|149:207|155:214|155:214|123:246|85:238,1,155.999992858887,2|4,0:0|0:0,0:0:0:0:
3,170,114436,1,2,0:0:0:0:
57,90,114586,1,8,0:1:0:0:
6,288,114886,1,2,0:0:0:0:
187,326,115186,6,0,B|229:308|284:320|284:320|277:334|277:334|356:336|382:380,1,233.999989288331,2|0,0:0|0:0,0:0:0:0:
386,384,115786,2,0,B|354:334|363:272|363:272|373:266|373:266|390:214,1,155.999992858887,8|2,0:1|0:0,0:0:0:0:
460,174,116236,1,4,0:0:0:0:
472,266,116386,1,2,0:0:0:0:
326,168,116686,1,4,0:0:0:0:
326,168,116836,1,2,0:0:0:0:
326,168,116986,2,0,B|299:138|299:138|310:98,1,77.9999964294435,8|4,0:1|0:0,0:0:0:0:
389,42,117286,1,2,0:0:0:0:
193,27,117586,6,0,L|188:109,1,77.9999964294435,4|0,0:0|0:0,0:0:0:0:
103,137,117886,2,0,B|109:170|131:192|131:192|144:188|144:188|166:210|212:226,2,155.999992858887,2|8|2,0:0|0:1|0:0,0:0:0:0:
103,47,118636,1,4,0:0:0:0:
103,47,118786,1,4,0:0:0:0:
254,116,119086,1,4,0:0:0:0:
397,177,119386,1,8,0:2:0:0:
350,227,119536,1,8,0:2:0:0:
378,269,119686,1,8,0:2:0:0:
361,298,119836,1,8,0:2:0:0:
369,315,119986,1,8,0:2:0:0:
