osu file format v14

[General]
AudioFilename: audio.mp3
AudioLeadIn: 0
PreviewTime: 43186
Countdown: 0
SampleSet: Drum
StackLeniency: 0.7
Mode: 0
LetterboxInBreaks: 0
WidescreenStoryboard: 1

[Editor]
Bookmarks: 4867,14467,24067,43267,57667,62467,72067,81667,91267,100867,110467,120067
DistanceSpacing: 1
BeatDivisor: 4
GridSize: 32
TimelineZoom: 1

[Metadata]
Title:ANGEL 9
TitleUnicode:ANGEL 9
Artist:Elroy
ArtistUnicode:Elroy
Creator:jamesjan3
Version:EASY
Source:
Tags:hip hop emo rap experimental pop english electronic alternative demonslayer indie sylas thekoala
BeatmapID:2489206
BeatmapSetID:1194835

[Difficulty]
HPDrainRate:2
CircleSize:3
OverallDifficulty:3
ApproachRate:4
SliderMultiplier:1.7
SliderTickRate:1

[Events]
//Background and Video events
0,0,"greg-rosenke-BIWhN6wnt7M-unsplash.jpg",0,0
//Break Periods
2,100986,109066
//Storyboard Layer 0 (Background)
//Storyboard Layer 1 (Fail)
//Storyboard Layer 2 (Pass)
//Storyboard Layer 3 (Foreground)
//Storyboard Layer 4 (Overlay)
//Storyboard Sound Samples

[TimingPoints]
-14,600,4,3,0,60,1,0
14386,-100,4,3,0,80,0,0
23986,-100,4,3,0,60,0,0
33586,-100,4,3,0,70,0,0
43186,-100,4,3,0,80,0,0
47536,-100,4,3,0,70,0,0
47836,-100,4,3,0,60,0,0
48136,-100,4,3,0,50,0,0
48436,-100,4,3,0,30,0,0
48586,-100,4,3,0,80,0,0
55936,-100,4,3,0,70,0,0
56086,-100,4,3,0,60,0,0
56236,-100,4,3,0,50,0,0
56386,-100,4,2,0,80,0,0
56986,-100,4,2,0,50,0,0
57286,-100,4,2,0,30,0,0
57436,-100,4,2,0,20,0,0
57586,-100,4,2,0,60,0,0
62386,-100,4,3,0,60,0,0
71986,-100,4,3,0,80,0,0
81586,-100,4,3,0,60,0,0
88786,-100,4,3,0,70,0,0
91186,-100,4,3,0,80,0,0
99586,-100,4,2,0,60,0,0
100186,-100,4,2,0,50,0,0
100336,-100,4,2,0,40,0,0
100486,-100,4,2,0,30,0,0
100636,-100,4,2,0,20,0,0
107986,-100,4,3,0,40,0,0
108886,-100,4,3,0,50,0,0
109186,-100,4,3,0,60,0,0
109486,-100,4,3,0,70,0,0
109786,-100,4,3,0,80,0,0
118186,-100,4,3,0,60,0,0
119386,-100,4,3,0,50,0,0
119536,-100,4,3,0,40,0,0
119686,-100,4,3,0,30,0,0
119836,-100,4,3,0,20,0,0

[Colours]
Combo1 : 255,55,61
Combo2 : 250,176,5
Combo3 : 101,252,252
Combo4 : 214,214,214

[HitObjects]
46,94,5086,5,2,0:3:0:0:
75,173,5386,2,0,B|147:228|238:209,1,170,8|0,0:1|0:0,0:0:0:0:
297,151,6286,1,2,0:3:0:0:
378,173,6586,2,0,P|408:258|413:364,1,170,8|0,0:1|0:0,0:0:0:0:
334,365,7486,1,2,0:3:0:0:
251,342,7786,2,0,P|198:340|152:318,2,85,8|4|0,0:1|0:0|0:0,0:0:0:0:
313,283,8686,1,6,0:3:0:0:
386,325,8986,2,0,P|447:319|480:286,1,85,8|0,0:1|0:0,0:0:0:0:
506,158,9886,5,2,0:3:0:0:
436,207,10186,2,0,P|350:186|276:117,1,170,8|0,0:1|0:0,0:0:0:0:
296,50,11086,1,2,0:3:0:0:
211,54,11386,2,0,L|25:64,1,170,8|0,0:1|0:0,0:0:0:0:
0,137,12286,1,2,0:3:0:0:
58,198,12586,2,0,P|75:278|71:296,2,85,2|0|0,0:2|0:0|0:0,0:0:0:0:
110,131,13486,1,2,0:3:0:0:
187,166,13786,1,2,0:2:0:0:
144,330,14386,6,0,B|245:307|221:395|347:367,1,170,4|8,0:1|0:1,0:0:0:0:
371,322,15286,1,2,0:0:0:0:
446,361,15586,1,2,0:0:0:0:
461,277,15886,2,0,P|449:213|468:140,2,127.5,6|4|4,0:3|0:0|0:0,0:0:0:0:
304,343,17386,1,8,0:1:0:0:
226,308,17686,1,2,0:0:0:0:
152,350,17986,2,0,P|84:314|66:289,2,85,2|6|8,0:0|0:3|0:1,0:0:0:0:
251,217,19186,6,0,B|256:169|234:121|234:121|185:121|159:75,1,170,0|8,0:0|0:1,0:0:0:0:
236,37,20086,1,2,0:0:0:0:
312,74,20386,1,2,0:0:0:0:
385,116,20686,2,0,L|517:88,2,127.5,6|4|4,0:3|0:0|0:0,0:0:0:0:
306,266,22186,1,8,0:1:0:0:
237,213,22486,2,0,P|147:221|73:267,1,170,4|6,0:0|0:3,0:0:0:0:
26,327,23386,1,8,0:1:0:0:
99,369,23686,1,2,0:0:0:0:
161,311,23986,6,0,B|147:202|44:146|44:146|54:25|156:25|156:25|193:89|158:140,1,510,4|8,0:1|0:1,0:0:0:0:
257,274,26386,6,8,P|307:342|396:365,1,170,10|8,0:0|0:1,0:0:0:0:
463,330,27286,1,4,0:0:0:0:
482,161,27886,1,4,0:0:0:0:
438,87,28186,2,0,P|394:66|354:70,1,85,8|0,0:1|0:0,0:0:0:0:
295,125,28786,6,0,B|249:112|200:137|200:137|197:43|101:-14|2:70|22:161|22:161|69:122|118:131,1,510,2|8,0:0|0:1,0:0:0:0:
259,211,31186,2,0,L|248:307,2,85,2|0|8,0:0|0:0|0:1,0:0:0:0:
222,134,32086,2,0,B|126:117|178:210|69:199,1,170,4|4,0:0|0:0,0:0:0:0:
38,124,32986,1,8,0:1:0:0:
5,290,33586,6,0,L|209:309,1,170,4|8,0:1|0:1,0:0:0:0:
258,292,34486,2,0,L|355:274,2,85,0|2|0,0:0|0:0|0:0,0:0:0:0:
226,371,35386,1,8,0:1:0:0:
122,236,35986,6,0,P|118:158|135:124,1,85,2|0,0:0|0:0,0:0:0:0:
162,79,36586,1,8,0:1:0:0:
244,58,36886,2,0,L|346:52,2,85,4|2|4,0:0|0:0|0:0,0:0:0:0:
223,140,37786,1,8,0:1:0:0:
364,233,38386,6,0,P|450:216|518:283,1,170,2|8,0:0|0:1,0:0:0:0:
506,349,39286,1,0,0:0:0:0:
426,379,39586,2,0,L|252:350,1,170,2|8,0:0|0:1,0:0:0:0:
90,327,40786,6,0,P|53:347|31:383,2,85,2|2|8,0:0|0:0|0:1,0:0:0:0:
163,284,41686,1,4,0:0:0:0:
174,199,41986,2,0,L|182:90,1,85,2|4,0:0|0:0,0:0:0:0:
189,29,42586,1,8,0:1:0:0:
356,0,43186,5,4,0:1:0:0:
435,29,43486,2,0,L|443:131,1,85,2|8,0:0|0:1,0:0:0:0:
453,201,44086,1,2,0:0:0:0:
373,231,44386,2,0,B|285:211|302:295|195:272,1,170,2|8,0:0|0:1,0:0:0:0:
227,191,45286,1,2,0:2:0:0:
209,107,45586,6,0,P|183:60|72:79,1,170,4|8,0:0|0:1,0:0:0:0:
36,141,46486,1,2,0:0:0:0:
70,218,46786,1,2,0:0:0:0:
19,286,47086,2,0,B|9:333|46:369|46:369|111:326|220:358,1,255,4|8,0:0|0:1,0:0:0:0:
374,346,48586,5,8,0:1:0:0:
492,226,49186,1,2,0:0:0:0:
427,171,49486,1,4,0:0:0:0:
440,87,49786,1,8,0:1:0:0:
280,28,50386,6,0,P|218:24|110:80,1,170,2|8,0:0|0:1,0:0:0:0:
85,145,51286,1,2,0:0:0:0:
119,222,51586,2,0,L|203:209,1,85,4|4,0:0|0:0,0:0:0:0:
268,154,52186,1,4,0:0:0:0:
352,147,52486,1,4,0:0:0:0:
436,140,52786,6,0,B|471:172|471:172|459:241|459:241|478:296,1,170,4|8,0:1|0:1,0:0:0:0:
423,356,53686,1,2,0:0:0:0:
273,277,54286,1,0,0:0:0:0:
209,333,54586,2,0,B|171:320|172:343|122:324,1,85,8|2,0:1|0:2,0:0:0:0:
65,265,55186,6,0,L|50:158,2,85,4|4|8,0:0|0:0|0:2,0:0:0:0:
213,181,56386,1,8,2:2:0:0:
357,271,56986,1,8,2:2:0:0:
256,192,57586,12,8,61186,3:3:0:0:
471,39,62686,5,2,0:3:0:0:
401,87,62986,2,0,P|374:170|380:266,1,170,8|0,0:1|0:0,0:0:0:0:
426,320,63886,1,2,0:3:0:0:
347,353,64186,2,0,L|171:380,1,170,8|0,0:1|0:0,0:0:0:0:
109,329,65086,1,2,0:3:0:0:
161,262,65386,2,0,P|179:211|172:164,2,85,8|4|0,0:1|0:0|0:0,0:0:0:0:
76,249,66286,1,6,0:3:0:0:
9,196,66586,2,0,P|11:147|30:103,1,85,8|0,3:1|3:0,3:0:0:0:
131,0,67486,5,2,0:3:0:0:
157,80,67786,2,0,P|224:113|345:101,1,170,8|0,0:1|0:0,0:0:0:0:
394,74,68686,1,2,0:3:0:0:
423,153,68986,2,0,L|404:333,1,170,8|0,0:1|0:0,0:0:0:0:
336,371,69886,1,2,0:3:0:0:
251,375,70186,2,0,P|199:354|175:326,2,85,2|0|0,0:2|0:0|0:0,0:0:0:0:
290,299,71086,1,2,0:3:0:0:
236,232,71386,1,2,0:2:0:0:
86,312,71986,6,0,B|72:229|140:233|115:135,1,170,4|8,0:1|0:1,0:0:0:0:
63,84,72886,1,2,0:0:0:0:
126,27,73186,1,2,0:0:0:0:
201,65,73486,2,0,L|218:212,2,127.5,6|4|4,0:3|0:0|0:0,0:0:0:0:
363,15,74986,5,8,0:1:0:0:
430,66,75286,1,2,0:0:0:0:
497,118,75586,2,0,L|511:226,2,85,2|6|8,0:0|0:3|0:1,0:0:0:0:
389,249,76786,6,0,B|365:242|328:258|328:258|338:328|278:357,1,170,0|8,0:0|0:1,0:0:0:0:
244,278,77686,1,2,0:0:0:0:
175,328,77986,1,2,0:0:0:0:
91,314,78286,2,0,P|85:247|116:191,2,127.5,6|4|4,0:3|0:0|0:0,0:0:0:0:
1,170,79786,1,8,0:1:0:0:
51,101,80086,2,0,L|149:91,1,85,4|2,0:0|0:0,0:0:0:0:
210,51,80686,1,6,0:3:0:0:
274,106,80986,1,8,0:1:0:0:
339,51,81286,2,0,P|389:65|480:156,1,170,2|0,0:0|0:0,0:0:0:0:
482,228,82186,6,0,B|450:253|442:304|442:304|401:287|345:329,2,170,8|2|8,0:1|0:0|0:1,0:0:0:0:
336,139,83986,2,0,L|238:152,1,85,4|0,0:0|0:0,0:0:0:0:
177,192,84586,6,0,B|154:226|154:267|154:267|184:315|236:317,2,170,8|4|8,0:1|0:0|0:1,0:0:0:0:
193,108,86086,1,4,0:0:0:0:
277,98,86386,2,0,B|357:89|357:89|387:104|387:104|467:95,1,170,4|8,0:0|0:1,0:0:0:0:
501,159,87286,5,4,0:0:0:0:
445,223,87586,2,0,B|422:261|422:261|439:312,2,85,4|0|8,0:0|0:0|0:1,0:0:0:0:
405,147,88486,1,4,0:0:0:0:
368,70,88786,2,2,B|263:70|263:70|219:162|219:162|172:3|172:3|149:74|149:74|91:73|91:73|80:56|80:56|71:73|71:73|-3:73,1,595,12|2,0:0|0:1,0:2:0:0:
9,157,91186,6,0,P|63:191|68:307,1,170,4|8,0:1|0:1,0:0:0:0:
103,370,92086,1,4,0:0:0:0:
187,367,92386,2,0,L|302:360,1,85,0|2,0:0|0:0,0:0:0:0:
331,301,92986,2,0,L|446:308,1,85,8|2,0:1|0:0,0:0:0:0:
500,310,93586,1,4,0:0:0:0:
482,140,94186,5,8,0:1:0:0:
418,196,94486,1,2,0:0:0:0:
341,158,94787,2,0,P|298:166|268:197,1,85,2|2,0:0|0:0,0:0:0:0:
234,272,95386,2,0,P|191:273|154:253,1,85,8|2,0:1|0:1,0:0:0:0:
162,169,95986,6,0,B|130:155|92:156|92:156|71:180|71:180|33:175|-10:201,1,170,6|8,0:1|0:1,0:0:0:0:
50,265,96886,2,0,P|58:331|147:344,1,170,2|4,0:0|0:0,0:0:0:0:
199,275,97786,1,10,0:1:0:0:
269,321,98086,1,2,0:1:0:0:
349,293,98386,1,4,0:0:0:0:
252,154,98986,6,0,B|177:132|189:205|83:182,2,170,8|2|8,0:1|0:0|0:1,0:0:0:0:
324,108,100486,1,8,0:1:0:0:
392,159,100786,1,8,0:1:0:0:
99,45,110386,6,0,B|144:45|176:54|176:54|195:68|195:68|230:68|274:80,1,170,4|8,0:0|0:1,0:0:0:0:
345,56,111286,1,2,0:0:0:0:
410,110,111586,1,2,0:0:0:0:
391,193,111886,2,0,B|417:217|409:254|409:254|428:282|422:339,2,127.5,4|4|4,0:0|0:0|0:0,0:0:0:0:
242,111,113386,1,8,0:1:0:0:
175,163,113686,1,2,0:0:0:0:
89,152,113986,2,0,B|51:179|41:222|41:222|45:231|45:231|31:274|45:312,1,170,2|8,0:0|0:1,0:0:0:0:
112,350,114886,1,2,0:0:0:0:
281,361,115486,5,2,0:0:0:0:
328,290,115786,2,0,B|319:189,2,85,8|2|2,0:1|0:0|0:0,0:0:0:0:
387,351,116686,1,4,0:0:0:0:
451,295,116986,2,0,L|465:199,2,85,8|2|4,0:1|0:0|0:0,0:0:0:0:
291,354,118186,1,8,0:1:0:0:
224,300,118486,1,2,0:0:0:0:
143,327,118786,1,4,0:0:0:0:
31,206,119386,1,8,0:2:0:0:
54,124,119686,1,8,0:2:0:0:
