osu file format v14

[General]
AudioFilename: audio.mp3
AudioLeadIn: 0
PreviewTime: 64030
Countdown: 0
SampleSet: Normal
StackLeniency: 0.5
Mode: 0
LetterboxInBreaks: 0
WidescreenStoryboard: 0

[Editor]
DistanceSpacing: 1.5
BeatDivisor: 4
GridSize: 8
TimelineZoom: 1

[Metadata]
Title:RIP Harambe
TitleUnicode:RIP Harambe
Artist:Elon Musk
ArtistUnicode:Elon Musk
Creator:Sylvarus
Version:We miss you
Source:
Tags:emo g records emog rest in piece harambe
BeatmapID:1987380
BeatmapSetID:951660

[Difficulty]
HPDrainRate:3
CircleSize:3.5
OverallDifficulty:7
ApproachRate:8
SliderMultiplier:1.4
SliderTickRate:1

[Events]
//Background and Video events
0,0,"uploads%2Fstory%2Fthumbnail%2F94067%2Fd7db2cff-5337-453c-b28f-ae09fa363ac9.jpg%2Foriginal.jpg",0,0
//Break Periods
//Storyboard Layer 0 (Background)
//Storyboard Layer 1 (Fail)
//Storyboard Layer 2 (Pass)
//Storyboard Layer 3 (Foreground)
//Storyboard Sound Samples

[TimingPoints]
31,571.428571428571,4,1,0,60,1,0
64030,-83.3333333333333,4,1,0,60,0,1
73173,-100,4,1,0,60,0,0
110602,142.857142857143,4,1,0,60,1,0
110602,-25,4,1,0,60,0,0

[HitObjects]
256,192,13745,12,0,17745,0:0:0:0:
304,82,18316,5,0,0:0:0:0:
396,31,18602,1,0,0:0:0:0:
395,137,18888,1,0,0:0:0:0:
281,76,19173,1,0,0:0:0:0:
281,76,19459,2,0,P|209:94|143:68,1,140
54,25,20316,2,0,L|31:25,2,17.5
75,73,20602,5,0,0:0:0:0:
17,161,20888,1,0,0:0:0:0:
105,219,21173,1,0,0:0:0:0:
47,307,21459,1,0,0:0:0:0:
47,307,21745,2,0,B|121:286|121:333|204:306,1,140
243,223,22602,1,0,0:0:0:0:
306,306,22888,6,0,L|299:383,1,70
343,197,23459,1,0,0:0:0:0:
418,283,23745,1,0,0:0:0:0:
455,176,24031,2,0,P|446:142|445:107,1,70
402,21,24602,2,0,P|376:45|347:63,1,70
143,84,25173,6,0,P|194:69|234:87,1,70
79,134,25745,1,0,0:0:0:0:
222,260,26316,2,0,B|256:221|268:156|268:156|268:312,1,245
270,338,27459,5,0,0:0:0:0:
370,306,27745,1,0,0:0:0:0:
470,338,28031,1,0,0:0:0:0:
446,235,28316,1,0,0:0:0:0:
446,235,28602,2,0,P|435:153|451:94,1,140
361,40,29459,2,0,L|338:40,2,17.5
308,38,29745,5,0,0:0:0:0:
271,136,30031,1,0,0:0:0:0:
173,99,30316,1,0,0:0:0:0:
210,1,30602,1,0,0:0:0:0:
210,1,30888,2,0,L|58:14,1,140
271,136,32031,6,0,L|355:143,1,70
445,151,32602,1,0,0:0:0:0:
384,237,32888,1,0,0:0:0:0:
470,296,33173,2,0,P|473:348|468:369,1,70
363,371,33745,1,0,0:0:0:0:
315,277,34031,2,0,L|272:280,1,35
384,237,34316,5,0,0:0:0:0:
195,192,34602,1,0,0:0:0:0:
361,91,34887,1,0,0:0:0:0:
172,46,35173,1,0,0:0:0:0:
172,46,35602,6,0,L|140:47,6,17.5
51,280,37173,5,0,0:0:0:0:
74,266,37315,1,0,0:0:0:0:
99,259,37458,1,0,0:0:0:0:
125,261,37601,1,0,0:0:0:0:
149,271,37744,1,0,0:0:0:0:
253,342,38030,1,0,0:0:0:0:
253,342,38173,1,0,0:0:0:0:
253,342,38316,1,0,0:0:0:0:
314,233,38602,2,0,L|337:233,2,17.5
261,233,38888,5,0,0:0:0:0:
287,131,39173,1,0,0:0:0:0:
389,157,39459,1,0,0:0:0:0:
415,55,39745,1,0,0:0:0:0:
415,55,40030,2,0,B|419:35|429:26|429:26|439:16|439:11|434:6|415:16|415:16|395:6|390:11|390:16|400:26|400:26|410:35|415:55,1,140
258,33,41030,1,0,0:0:0:0:
210,56,41173,6,0,P|171:65|123:55,1,70
45,18,41745,1,0,0:0:0:0:
66,120,42030,1,0,0:0:0:0:
66,120,42173,1,0,0:0:0:0:
66,120,42316,1,0,0:0:0:0:
24,216,42602,1,0,0:0:0:0:
24,216,42745,1,0,0:0:0:0:
24,216,42888,1,0,0:0:0:0:
198,332,43459,5,0,0:0:0:0:
182,228,43745,1,0,0:0:0:0:
277,272,44030,1,0,0:0:0:0:
265,167,44316,1,0,0:0:0:0:
361,209,44602,2,0,P|443:204|500:171,1,140
331,42,45745,6,0,L|238:33,1,70
209,44,46173,1,0,0:0:0:0:
171,80,46316,1,0,0:0:0:0:
151,128,46459,1,0,0:0:0:0:
151,180,46602,2,0,L|146:229,2,35
329,132,47173,5,0,0:0:0:0:
303,233,47459,1,0,0:0:0:0:
277,335,47745,2,0,L|272:357,2,17.5
328,324,48030,6,0,P|383:321|413:332,1,70
486,268,48602,2,0,P|440:274|461:326,1,105
374,192,49173,2,0,P|420:198|399:250,1,105
456,175,49745,2,0,P|459:134|474:102,1,70
480,56,50173,1,0,0:0:0:0:
435,28,50316,6,0,L|347:28,1,70
289,101,50888,2,0,B|258:100|235:115|235:115|209:105|192:117|192:117|154:101|127:105|127:105|110:74|81:66,1,210
27,150,52030,2,0,B|33:173|28:180|28:180|34:190|24:203|24:203|28:219,1,70
81,307,52602,6,0,B|124:290|135:296|135:296|155:290|155:290|176:315|176:317|213:311|201:280|200:280|174:276|174:276|174:256|153:251|153:251|160:281|142:316|142:316|152:321|175:345|221:316|221:316|240:330|240:329|261:349|261:349|304:314|294:347|330:330|330:330|355:347|359:326|361:325|373:307|368:331|387:334|387:334,1,525
409,296,54888,6,0,P|398:262|395:228,1,70
435,76,55459,1,0,0:0:0:0:
351,146,55745,1,0,0:0:0:0:
256,82,56030,2,0,P|207:78|167:86,1,70
176,229,56602,2,0,P|203:188|217:149,1,70
114,147,57173,6,0,L|31:139,1,70
17,318,57745,1,0,0:0:0:0:
91,243,58030,1,0,0:0:0:0:
117,349,58316,2,0,B|199:331|198:375|276:347,1,140
341,310,59173,1,0,0:0:0:0:
381,275,59316,1,0,0:0:0:0:
402,227,59459,6,0,L|394:136,1,70
278,62,60030,2,0,L|270:152,1,70
402,71,60602,2,0,P|434:82|464:100,1,70
272,217,61173,2,0,P|239:205|209:187,1,70
139,73,61745,6,0,P|139:122|135:148,1,70
105,185,62173,1,0,0:0:0:0:
83,232,62316,2,0,P|83:281|87:307,1,70
249,268,62888,2,0,P|199:257|241:294,1,140
461,188,64030,6,0,L|464:133,1,41.9999987182618
417,102,64316,2,0,L|413:47,1,41.9999987182618
362,23,64602,1,0,0:0:0:0:
298,20,64745,1,0,0:0:0:0:
243,51,64888,2,0,P|226:76|223:98,1,41.9999987182618
359,179,65173,6,0,P|338:136|310:114,1,83.9999974365235
217,257,65745,1,0,0:0:0:0:
233,218,65887,1,0,0:0:0:0:
265,192,66030,2,0,L|287:191,2,17.5
160,147,66316,6,0,P|139:148|119:141,1,41.9999987182618
72,98,66602,2,0,P|51:96|31:103,1,41.9999987182618
22,166,66888,1,0,0:0:0:0:
22,228,67030,1,0,0:0:0:0:
37,289,67173,2,0,L|29:373,1,83.9999974365235
279,335,68030,1,0,0:0:0:0:
422,127,68602,6,0,L|427:188,1,41.9999987182618
383,216,68888,2,0,L|377:277,1,41.9999987182618
339,178,69173,1,0,0:0:0:0:
276,172,69316,1,0,0:0:0:0:
221,204,69459,2,0,P|186:215|149:212,1,41.9999987182618
132,64,69745,6,0,P|171:97|179:135,1,83.9999974365235
266,44,70316,1,0,0:0:0:0:
329,44,70459,1,0,0:0:0:0:
392,44,70602,2,0,L|419:44,2,20.9999993591309
417,102,70888,5,0,0:0:0:0:
362,333,71173,1,0,0:0:0:0:
241,162,71459,1,0,0:0:0:0:
483,252,71745,1,0,0:0:0:0:
241,162,72030,6,0,B|250:112|275:90|275:90|299:66|299:54|287:41|256:47|239:83|239:83|218:49|191:41|179:54|179:66|204:90|204:90|228:112|241:162,1,335.999989746094
97,146,75459,5,0,0:0:0:0:
97,146,76316,5,0,0:0:0:0:
153,45,76602,1,0,0:0:0:0:
248,157,77173,5,0,0:0:0:0:
54,267,77745,5,0,0:0:0:0:
54,267,78602,5,0,0:0:0:0:
134,118,79459,2,0,P|134:99|129:77,1,35
246,201,80030,5,0,0:0:0:0:
246,201,80888,5,0,0:0:0:0:
208,70,81173,1,0,0:0:0:0:
372,133,81745,5,0,0:0:0:0:
323,278,82316,5,0,0:0:0:0:
323,278,83173,5,0,0:0:0:0:
156,341,84030,5,0,0:0:0:0:
97,146,84602,5,0,0:0:0:0:
97,146,85459,5,0,0:0:0:0:
153,45,85745,1,0,0:0:0:0:
248,157,86316,5,0,0:0:0:0:
54,267,86888,5,0,0:0:0:0:
54,267,87745,5,0,0:0:0:0:
130,100,88602,5,0,0:0:0:0:
246,201,89173,5,0,0:0:0:0:
246,201,90031,5,0,0:0:0:0:
208,70,90316,1,0,0:0:0:0:
372,133,90888,5,0,0:0:0:0:
323,278,91459,5,0,0:0:0:0:
323,278,92316,5,0,0:0:0:0:
156,341,93173,5,0,0:0:0:0:
201,194,93745,6,0,P|210:112|195:46,1,140
299,24,94602,2,0,P|365:72|430:92,1,140
438,194,95459,2,0,P|383:170|351:172,1,70
362,274,96030,5,0,0:0:0:0:
362,274,96316,2,0,L|510:261,1,140
443,174,97173,1,0,0:0:0:0:
467,71,97459,2,0,L|440:71,2,20.9999993591309
424,72,97745,5,0,0:0:0:0:
323,42,98030,1,0,0:0:0:0:
270,38,98173,1,0,0:0:0:0:
219,53,98316,6,0,P|178:62|154:59,1,35
138,37,98602,2,0,P|153:120|137:195,1,140
266,237,99745,2,0,P|210:195|143:173,1,140
59,269,100602,5,0,0:0:0:0:
139,336,100888,1,0,0:0:0:0:
229,282,101173,1,0,0:0:0:0:
327,318,101459,1,0,0:0:0:0:
327,318,101745,2,0,P|321:249|344:177,1,140
388,87,102602,1,0,0:0:0:0:
409,38,102745,1,0,0:0:0:0:
360,18,102888,6,0,P|310:27|264:23,1,70
229,111,103459,2,0,P|179:102|133:106,1,70
241,250,104316,2,0,L|227:97,1,140
317,166,105173,5,0,0:0:0:0:
317,166,105459,2,0,P|391:160|452:189,1,140
467,290,106316,1,0,0:0:0:0:
367,254,106602,2,0,L|281:261,1,70
208,315,107173,1,0,0:0:0:0:
155,320,107316,1,0,0:0:0:0:
107,297,107459,6,0,L|82:262,1,35
109,220,107745,2,0,P|122:170|108:74,1,140
228,12,108888,2,0,P|191:48|101:84,1,140
174,166,109745,5,0,0:0:0:0:
379,83,110030,1,0,0:0:0:0:
349,303,110316,1,0,0:0:0:0:
6,132,110602,6,0,B|-6:267|-6:267|10:187|10:187|57:192|57:192|64:137|64:137|44:233|58:279|58:279|100:196|102:141|102:141|135:283|135:283|116:232|116:232|65:236|65:236|146:228|152:138|152:138|168:277|168:277|164:134|164:134|226:150|230:211|166:197|166:196|166:196|213:282|213:282|240:136|240:136|272:279|272:279|260:217|260:217|212:219|212:219|276:213|276:213|290:264|290:264|304:136|304:136|330:195|330:195|356:139|356:139|364:289|364:289|393:272|393:272|396:135|396:135|460:156|457:198|457:198|416:208|416:208|452:239|452:239|440:288|440:288|419:286|419:286|486:290|486:290|512:152|512:152|632:146|632:146|511:151|511:151|506:233|506:233|628:227|628:227|507:233|507:233|506:311|506:311|627:311|627:311|506:312,1,3920
