osu file format v14

[General]
AudioFilename: audio.mp3
AudioLeadIn: 0
PreviewTime: -1
Countdown: 0
SampleSet: None
StackLeniency: 0.2
Mode: 0
LetterboxInBreaks: 0
WidescreenStoryboard: 1

[Editor]
DistanceSpacing: 1.5
BeatDivisor: 4
GridSize: 4
TimelineZoom: 2.5

[Metadata]
Title:Cookie-Butter-Choco-Cookie
TitleUnicode:クッキー・バター・チョコ・クッキー
Artist:Elmo and Cookie Monster
ArtistUnicode:エルモとクッキーモンスター
Creator:WillCookie
Version:cs2 sliders
Source:セサミストリート
Tags:
BeatmapID:1918995
BeatmapSetID:919024

[Difficulty]
HPDrainRate:0
CircleSize:2
OverallDifficulty:8
ApproachRate:9.5
SliderMultiplier:3.59999990463257
SliderTickRate:1

[Events]
//Background and Video events
//Break Periods
//Storyboard Layer 0 (Background)
//Storyboard Layer 1 (Fail)
//Storyboard Layer 2 (Pass)
//Storyboard Layer 3 (Foreground)
//Storyboard Sound Samples

[TimingPoints]
1352,441.176470588235,4,2,0,100,1,0
1793,-80,4,2,0,100,0,0
2234,-66.6666666666667,4,2,0,100,0,0
3999,-100,4,2,0,100,0,0
4219,-66.6666666666667,4,2,0,100,0,0
4440,-50,4,2,0,100,0,0
4660,-40,4,2,0,100,0,0
4881,-80,4,2,0,100,0,0
8410,-33.3333333333333,4,2,0,100,0,0
8631,-66.6666666666667,4,2,0,100,0,0
8851,-33.3333333333333,4,2,0,100,0,0
9072,-66.6666666666667,4,2,0,100,0,0
9293,-33.3333333333333,4,2,0,100,0,0
9513,-66.6666666666667,4,2,0,100,0,0
9734,-33.3333333333333,4,2,0,100,0,0
9954,-66.6666666666667,4,2,0,100,0,0
11940,-50,4,2,0,100,0,0
16351,-25,4,2,0,100,0,0
16572,-50,4,2,0,100,0,0
18999,-33.3333333333333,4,2,0,100,0,0
26057,-25,4,2,0,100,0,0
27822,-20,4,2,0,100,0,0
29587,-200,4,2,0,100,0,0
31351,-20,4,2,0,100,0,0
31793,-16.6666666666666,4,2,0,100,0,0
32234,-14.2857142857143,4,2,0,100,0,0
32675,-12.5,4,2,0,100,0,0
33116,-10,4,2,0,100,0,0

[HitObjects]
76,317,1352,6,0,P|163:279|259:289,1,179.999995231628
76,317,1793,2,0,P|137:201|301:147,1,224.999994039536
47,78,2234,6,0,P|272:242|553:220,1,540.000006294251
63,339,2896,2,0,P|250:135|550:109,1,540.000006294251
162,46,3557,5,0,0:0:0:0:
392,363,3778,1,0,0:0:0:0:
135,238,3999,6,0,L|184:142,1,89.9999976158143
279,293,4219,2,0,L|271:132,1,135.000001573563
39,80,4440,2,0,L|255:38,1,179.999995231629
511,350,4660,2,0,L|453:98,1,224.999994039536
136,301,4881,6,0,P|277:178|315:89,3,224.999994039536
46,66,5763,2,0,P|213:94|320:62,2,224.999994039536
363,6,6425,6,0,P|286:255|79:362,1,449.999988079071
76,58,7087,5,0,0:0:0:0:
450,350,7307,1,0,0:0:0:0:
75,266,7528,6,0,L|339:295,1,224.999994039536
454,40,7969,1,0,0:0:0:0:
181,369,8190,1,0,0:0:0:0:
329,15,8410,6,0,L|8:95,1,270.000003147125
314,306,8631,2,0,L|154:268,1,135.000001573563
329,15,8851,6,0,L|8:95,1,270.000003147125
314,306,9072,2,0,L|154:268,1,135.000001573563
329,15,9293,6,0,L|8:95,1,270.000003147125
314,306,9514,2,0,L|154:268,1,135.000001573563
329,15,9734,6,0,L|8:95,1,270.000003147125
314,306,9955,2,0,L|154:268,1,135.000001573563
439,30,10175,5,0,0:0:0:0:
79,320,10396,1,0,0:0:0:0:
439,30,10616,5,0,0:0:0:0:
79,320,10837,1,0,0:0:0:0:
439,30,11057,6,0,P|372:315|130:377,1,540.000006294251
65,53,11940,6,0,P|289:151|344:317,1,359.999990463257
47,193,12381,1,0,0:0:0:0:
459,100,12601,1,0,0:0:0:0:
148,345,12822,6,0,P|172:158|285:37,1,359.999990463257
41,279,13263,1,0,0:0:0:0:
495,307,13484,6,0,P|57:191|86:41,1,719.999980926514
427,120,14146,5,0,0:0:0:0:
54,334,14366,1,0,0:0:0:0:
253,75,14587,5,0,0:0:0:0:
297,269,14807,1,0,0:0:0:0:
89,136,15028,6,0,L|544:243,1,359.999990463257
215,22,15469,6,0,P|255:297|319:383,2,359.999990463257
392,244,16131,1,0,0:0:0:0:
71,69,16351,6,0,L|663:242,1,359.999990463257
193,244,16572,1,0,0:0:0:0:
392,15,16793,6,0,P|399:306|335:360,1,359.999990463257
17,246,17234,5,0,0:0:0:0:
471,49,17454,1,0,0:0:0:0:
97,365,17675,1,0,0:0:0:0:
344,17,17896,2,0,B|215:135|215:135|405:286|405:286|-46:149,1,719.999980926514
395,366,18557,1,0,0:0:0:0:
188,30,18778,1,0,0:0:0:0:
450,198,18999,6,0,P|165:320|-46:238,2,540.000006294251
75,163,19660,1,0,0:0:0:0:
495,14,19881,6,0,B|461:300|461:300|263:310|263:310|132:266|132:266|28:290|28:290|-156:303|-156:303|70:369,1,1080.0000125885
374,37,20543,1,0,0:0:0:0:
84,346,20763,5,0,0:0:0:0:
121,48,20984,1,0,0:0:0:0:
448,360,21204,5,0,0:0:0:0:
450,24,21425,1,0,0:0:0:0:
28,25,21646,6,0,B|79:369|79:369|685:-64,1,1080.0000125885
2,4,22307,1,0,0:0:0:0:
435,354,22528,6,0,P|338:68|122:-3,2,540.000006294251
141,160,23190,1,0,0:0:0:0:
332,354,23410,2,0,P|349:300|248:357,1,270.000003147125
313,183,23631,1,0,0:0:0:0:
46,319,23851,5,0,0:0:0:0:
424,49,24072,1,0,0:0:0:0:
158,362,24293,6,0,P|48:107|287:11,1,540.000006294251
492,320,24734,2,0,P|233:205|330:-4,1,540.000006294251
0,0,25175,5,0,0:0:0:0:
512,0,25396,1,0,0:0:0:0:
0,384,25616,5,0,0:0:0:0:
512,384,25837,1,0,0:0:0:0:
83,253,26057,6,0,L|342:-68,1,359.999990463257
345,247,26278,2,0,L|639:-62,1,359.999990463257
188,38,26499,6,0,L|599:200,1,359.999990463257
8,130,26719,2,0,L|409:334,1,359.999990463257
46,15,26940,6,0,B|-53:329|-53:329|140:-62|140:-62|593:35|641:352,1,1439.99996185303
46,35,27822,6,0,L|531:-64,1,449.999988079071
484,351,28043,2,0,L|-49:407,1,449.999988079071
16,20,28263,6,0,B|-106:-2|-106:-2|-150:371,1,449.999988079071
499,374,28484,2,0,B|652:344|652:344|665:-11,1,449.999988079071
248,197,28704,6,0,B|78:98|78:98|381:-46|579:132|445:360|445:360|-81:400|-81:400|-110:-44,1,1799.99995231628
437,159,29587,6,0,L|416:94,3,44.9999988079071
356,206,30028,2,0,L|287:193,3,44.9999988079071
220,18,30469,1,0,0:0:0:0:
220,18,30910,1,0,0:0:0:0:
494,364,31351,6,0,L|557:84,1,224.999994039536
360,357,31462,2,0,L|394:57,1,224.999994039536
217,356,31572,2,0,L|192:73,1,224.999994039536
83,369,31682,2,0,L|-2:108,1,224.999994039536
128,50,31793,6,0,L|482:-29,1,270.000003147125
184,107,31903,2,0,L|602:75,1,270.000003147125
249,182,32013,2,0,L|612:202,1,270.000003147125
306,258,32124,2,0,L|646:336,1,270.000003147125
385,349,32234,6,0,L|-31:382,1,314.999994659424
97,16,32344,2,0,L|466:-27,1,314.999994659424
334,378,32454,2,0,L|-90:328,1,314.999994659424
138,2,32565,2,0,L|545:38,1,314.999994659424
471,373,32675,6,0,L|572:183,1,179.999995231629
15,23,32730,2,0,L|165:-76,1,179.999995231629
471,373,32785,2,0,L|572:183,1,179.999995231629
15,23,32840,2,0,L|165:-76,1,179.999995231629
471,373,32896,2,0,L|572:183,1,179.999995231629
15,23,32951,2,0,L|165:-76,1,179.999995231629
471,373,33006,2,0,L|572:183,1,179.999995231629
15,23,33061,2,0,L|165:-76,1,179.999995231629
468,384,33116,6,0,B|-18:450|-18:450|685:182|685:182|129:-4,1,1799.99995231628
0,384,33557,5,0,0:0:0:0:
512,0,33778,1,0,0:0:0:0:
14,120,33999,6,0,B|-184:374|696:344|696:344|-113:211|692:-83,2,1799.99995231628
495,206,34660,6,0,B|66:327|66:327|606:352|606:352|668:-27|668:-27|591:45|591:45|676:360,1,1799.99995231628
0,0,35101,1,0,0:0:0:0:
512,0,35322,5,0,0:0:0:0:
0,384,35543,1,0,0:0:0:0:
512,0,35763,1,0,0:0:0:0:
25,48,35984,6,0,B|-151:391|-50:-15|81:-51|81:-51|586:111|586:111|-184:407,1,1799.99995231628
512,0,36425,1,0,0:0:0:0:
14,372,36646,6,0,B|-184:282|696:-86,1,899.999976158142
498,372,36866,2,0,B|696:282|-184:-86,1,899.999976158142
14,372,37087,2,0,B|-184:282|696:-86,1,899.999976158142
498,372,37307,2,0,B|696:282|-184:-86,1,899.999976158142
502,22,37528,6,0,B|-184:407|-184:407|-184:58,1,899.999976158142
502,22,37749,2,0,B|-184:407|-184:407|-184:58,1,899.999976158142
438,207,37969,6,0,L|190:-2,7,224.999994039536
0,0,38410,5,0,0:0:0:0:
512,0,38521,1,0,0:0:0:0:
0,384,38631,1,0,0:0:0:0:
512,384,38741,1,0,0:0:0:0:
0,0,38851,5,0,0:0:0:0:
512,0,38962,1,0,0:0:0:0:
0,384,39072,1,0,0:0:0:0:
512,384,39182,1,0,0:0:0:0:
0,0,39293,5,0,0:0:0:0:
512,0,39404,1,0,0:0:0:0:
0,384,39514,1,0,0:0:0:0:
512,384,39624,1,0,0:0:0:0:
0,0,39734,5,0,0:0:0:0:
512,0,39845,1,0,0:0:0:0:
0,384,39955,1,0,0:0:0:0:
