osu file format v14

[General]
AudioFilename: audio.mp3
AudioLeadIn: 0
PreviewTime: 11885
Countdown: 0
SampleSet: None
StackLeniency: 0.7
Mode: 0
LetterboxInBreaks: 0
WidescreenStoryboard: 1

[Editor]
Bookmarks: 6866,6921,6977,13484,13539,13594,15028,15083,15138,15193,15249,18116,18171,18943,18999,20322,20377,20432,20543,20598,20653,22087,22142,22197,23631,23686,24238,24293,33999,34054,34385,34440,34660,34715,34771
DistanceSpacing: 0.2
BeatDivisor: 16
GridSize: 4
TimelineZoom: 2.3

[Metadata]
Title:Cookie-Butter-Choco-Cookie
TitleUnicode:Cookie-Butter-Choco-Cookie
Artist:Elmo and Cookie Monster
ArtistUnicode:Elmo and Cookie Monster
Creator:Sensokaku
Version:MEK IS GAY
Source:セサミストリート
Tags:
BeatmapID:2171183
BeatmapSetID:1038666

[Difficulty]
HPDrainRate:0
CircleSize:4
OverallDifficulty:5
ApproachRate:9.7
SliderMultiplier:1.79999990463257
SliderTickRate:1

[Events]
//Background and Video events
0,0,"die+mr+monstrata.jpg",0,0
//Break Periods
//Storyboard Layer 0 (Background)
//Storyboard Layer 1 (Fail)
//Storyboard Layer 2 (Pass)
//Storyboard Layer 3 (Foreground)
//Storyboard Layer 4 (Overlay)
//Storyboard Sound Samples

[TimingPoints]
1352,220.588235294118,4,1,0,100,1,0
8410,-25,4,1,0,100,0,0
12160,-100,4,1,0,100,0,0

[HitObjects]
98,93,1351,5,0,0:0:0:0:
421,120,1407,1,0,0:0:0:0:
127,179,1462,1,0,0:0:0:0:
446,176,1517,1,0,0:0:0:0:
233,91,1572,1,0,0:0:0:0:
436,91,1627,1,0,0:0:0:0:
33,92,1682,1,0,0:0:0:0:
431,118,1738,1,0,0:0:0:0:
200,161,1793,1,0,0:0:0:0:
410,196,1848,1,0,0:0:0:0:
61,195,1903,1,0,0:0:0:0:
439,221,1958,1,0,0:0:0:0:
123,243,2013,1,0,0:0:0:0:
320,264,2068,1,0,0:0:0:0:
75,253,2124,1,0,0:0:0:0:
450,260,2179,1,0,0:0:0:0:
264,166,2234,1,0,0:0:0:0:
359,137,2289,1,0,0:0:0:0:
85,101,2344,1,0,0:0:0:0:
414,115,2399,1,0,0:0:0:0:
92,101,2454,1,0,0:0:0:0:
318,92,2510,1,0,0:0:0:0:
150,306,2565,5,0,0:0:0:0:
177,60,2620,1,0,0:0:0:0:
207,255,2675,1,0,0:0:0:0:
245,76,2730,1,0,0:0:0:0:
290,223,2785,1,0,0:0:0:0:
327,108,2840,1,0,0:0:0:0:
300,213,2896,1,0,0:0:0:0:
323,306,2951,1,0,0:0:0:0:
354,203,3006,1,0,0:0:0:0:
349,107,3061,1,0,0:0:0:0:
327,55,3116,1,0,0:0:0:0:
203,52,3171,1,0,0:0:0:0:
160,100,3227,1,0,0:0:0:0:
200,161,3282,1,0,0:0:0:0:
302,191,3337,1,0,0:0:0:0:
358,252,3392,1,0,0:0:0:0:
254,278,3447,1,0,0:0:0:0:
160,287,3502,1,0,0:0:0:0:
202,183,3557,1,0,0:0:0:0:
255,115,3613,1,0,0:0:0:0:
295,72,3668,1,0,0:0:0:0:
429,71,3723,1,0,0:0:0:0:
489,126,3778,1,0,0:0:0:0:
455,198,3833,1,0,0:0:0:0:
328,234,3888,1,0,0:0:0:0:
359,55,3943,1,0,0:0:0:0:
114,71,3999,5,0,0:0:0:0:
114,71,4219,1,0,0:0:0:0:
315,285,4440,1,0,0:0:0:0:
315,285,4660,1,0,0:0:0:0:
426,139,4881,6,0,L|262:39,1,179.999990463257
123,140,5322,2,0,L|208:306,1,179.999990463257
401,203,5763,2,0,L|261:75,1,179.999990463257
32,183,6204,2,0,L|198:288,1,179.999990463257
305,300,6646,2,0,L|445:171,1,179.999990463257
207,41,7087,2,0,L|43:196,1,179.999990463257
390,352,7528,2,0,L|422:153,1,179.999990463257
79,36,7969,2,0,L|72:263,1,179.999990463257
79,22,8410,6,0,P|100:306|488:316,1,719.999961853028
473,130,8852,2,0,P|28:308|50:366,1,719.999961853028
433,22,9293,6,0,P|412:306|24:316,1,719.999961853028
39,130,9735,2,0,P|484:308|462:366,1,719.999961853028
317,247,10175,5,0,0:0:0:0:
317,247,10396,1,0,0:0:0:0:
61,36,10616,1,0,0:0:0:0:
456,182,10837,1,0,0:0:0:0:
60,325,11057,1,0,0:0:0:0:
255,70,12160,5,0,0:0:0:0:
394,328,12215,1,0,0:0:0:0:
328,9,12270,1,0,0:0:0:0:
303,330,12325,1,0,0:0:0:0:
441,9,12380,1,0,0:0:0:0:
241,310,12435,1,0,0:0:0:0:
380,74,12491,1,0,0:0:0:0:
299,246,12546,1,0,0:0:0:0:
406,147,12601,1,0,0:0:0:0:
364,204,12656,1,0,0:0:0:0:
323,130,12711,1,0,0:0:0:0:
405,256,12766,1,0,0:0:0:0:
301,65,12822,1,0,0:0:0:0:
468,242,12877,1,0,0:0:0:0:
440,87,12932,1,0,0:0:0:0:
386,323,12987,1,0,0:0:0:0:
489,118,13042,1,0,0:0:0:0:
450,360,13097,1,0,0:0:0:0:
387,51,13152,1,0,0:0:0:0:
156,53,13263,5,0,0:0:0:0:
252,311,13484,1,0,0:0:0:0:
329,89,13704,1,0,0:0:0:0:
450,68,13925,6,0,L|402:108,1,44.9999976158143
298,210,14035,2,0,L|255:156,1,44.9999976158143
170,94,14146,2,0,L|129:130,1,44.9999976158143
161,302,14256,2,0,L|200:255,1,44.9999976158143
353,112,14366,2,0,L|322:153,1,44.9999976158143
245,65,14477,2,0,L|243:120,1,44.9999976158143
396,331,14587,2,0,L|354:281,1,44.9999976158143
59,228,14697,2,0,L|107:213,1,44.9999976158143
331,35,14807,2,0,L|302:84,1,44.9999976158143
277,289,14918,2,0,L|281:236,1,44.9999976158143
442,188,15028,5,0,0:0:0:0:
68,99,15249,1,0,0:0:0:0:
204,306,15469,1,0,0:0:0:0:
258,46,15690,1,0,0:0:0:0:
353,279,15910,1,0,0:0:0:0:
251,163,16131,1,0,0:0:0:0:
384,97,16352,5,0,0:0:0:0:
453,310,16365,1,0,0:0:0:0:
235,314,16379,1,0,0:0:0:0:
333,237,16393,1,0,0:0:0:0:
313,124,16407,1,0,0:0:0:0:
89,107,16420,1,0,0:0:0:0:
81,256,16434,1,0,0:0:0:0:
189,83,16448,1,0,0:0:0:0:
270,48,16462,1,0,0:0:0:0:
409,199,16476,1,0,0:0:0:0:
180,209,16489,1,0,0:0:0:0:
368,85,16503,1,0,0:0:0:0:
459,33,16517,1,0,0:0:0:0:
476,170,16531,1,0,0:0:0:0:
402,264,16545,1,0,0:0:0:0:
315,338,16558,1,0,0:0:0:0:
246,252,16572,1,0,0:0:0:0:
258,180,16793,5,0,0:0:0:0:
378,41,17013,1,0,0:0:0:0:
77,284,17234,5,0,0:0:0:0:
158,60,17289,1,0,0:0:0:0:
214,278,17344,1,0,0:0:0:0:
227,18,17399,1,0,0:0:0:0:
328,309,17454,1,0,0:0:0:0:
323,32,17510,1,0,0:0:0:0:
465,316,17565,1,0,0:0:0:0:
462,42,17620,1,0,0:0:0:0:
394,322,17675,1,0,0:0:0:0:
161,66,17730,1,0,0:0:0:0:
88,223,17785,1,0,0:0:0:0:
97,44,17840,1,0,0:0:0:0:
145,343,17896,1,0,0:0:0:0:
280,61,17951,1,0,0:0:0:0:
262,305,18006,1,0,0:0:0:0:
388,38,18061,1,0,0:0:0:0:
406,164,18116,5,0,0:0:0:0:
298,334,18337,1,0,0:0:0:0:
75,120,18557,1,0,0:0:0:0:
324,84,18778,1,0,0:0:0:0:
205,267,18999,1,0,0:0:0:0:
483,44,19219,5,0,0:0:0:0:
22,340,19274,1,0,0:0:0:0:
433,35,19329,1,0,0:0:0:0:
61,350,19385,1,0,0:0:0:0:
467,91,19440,1,0,0:0:0:0:
28,275,19495,1,0,0:0:0:0:
483,152,19550,1,0,0:0:0:0:
46,213,19605,1,0,0:0:0:0:
389,16,19660,1,0,0:0:0:0:
126,349,19715,1,0,0:0:0:0:
406,87,19771,1,0,0:0:0:0:
81,288,19826,1,0,0:0:0:0:
332,37,19881,1,0,0:0:0:0:
153,257,19936,1,0,0:0:0:0:
462,68,19991,1,0,0:0:0:0:
128,203,20046,1,0,0:0:0:0:
365,122,20102,1,0,0:0:0:0:
202,300,20157,1,0,0:0:0:0:
284,117,20212,1,0,0:0:0:0:
150,316,20267,1,0,0:0:0:0:
219,219,20322,5,0,0:0:0:0:
411,69,20543,1,0,0:0:0:0:
91,295,20763,1,0,0:0:0:0:
234,46,20984,6,0,L|266:103,1,44.9999976158143
354,278,21094,2,0,L|343:204,1,44.9999976158143
131,296,21204,2,0,L|183:239,1,44.9999976158143
369,41,21315,2,0,L|340:102,1,44.9999976158143
474,321,21425,2,0,L|450:247,1,44.9999976158143
432,44,21535,2,0,L|423:115,1,44.9999976158143
208,322,21646,2,0,L|238:264,1,44.9999976158143
47,38,21756,2,0,L|48:104,1,44.9999976158143
314,322,21866,2,0,L|277:263,1,44.9999976158143
199,31,21977,2,0,L|196:98,1,44.9999976158143
40,333,22087,2,0,L|84:269,1,44.9999976158143
322,56,22307,5,0,0:0:0:0:
410,285,22528,1,0,0:0:0:0:
115,180,22749,1,0,0:0:0:0:
290,134,22969,1,0,0:0:0:0:
133,301,23190,1,0,0:0:0:0:
390,284,23410,5,0,0:0:0:0:
62,55,23424,1,0,0:0:0:0:
455,332,23438,1,0,0:0:0:0:
424,108,23452,1,0,0:0:0:0:
51,114,23465,1,0,0:0:0:0:
310,327,23479,1,0,0:0:0:0:
181,41,23493,1,0,0:0:0:0:
247,327,23507,1,0,0:0:0:0:
116,86,23521,1,0,0:0:0:0:
441,224,23534,1,0,0:0:0:0:
274,46,23548,1,0,0:0:0:0:
236,180,23562,1,0,0:0:0:0:
235,288,23576,1,0,0:0:0:0:
58,248,23590,1,0,0:0:0:0:
57,319,23852,5,0,0:0:0:0:
361,48,24072,1,0,0:0:0:0:
363,312,24293,5,0,0:0:0:0:
176,51,24348,1,0,0:0:0:0:
132,322,24403,1,0,0:0:0:0:
447,52,24458,1,0,0:0:0:0:
188,330,24513,1,0,0:0:0:0:
71,92,24568,1,0,0:0:0:0:
354,315,24624,1,0,0:0:0:0:
297,49,24679,1,0,0:0:0:0:
470,328,24734,1,0,0:0:0:0:
180,41,24789,1,0,0:0:0:0:
39,259,24844,1,0,0:0:0:0:
248,77,24899,1,0,0:0:0:0:
239,289,24954,1,0,0:0:0:0:
420,81,25010,1,0,0:0:0:0:
167,313,25065,1,0,0:0:0:0:
148,38,25120,1,0,0:0:0:0:
358,40,25175,1,0,0:0:0:0:
132,322,25230,1,0,0:0:0:0:
369,94,25285,1,0,0:0:0:0:
389,311,25340,1,0,0:0:0:0:
191,183,25396,5,0,0:0:0:0:
380,172,25616,1,0,0:0:0:0:
107,122,25837,1,0,0:0:0:0:
448,218,26057,1,0,0:0:0:0:
46,54,26278,1,0,0:0:0:0:
407,333,26499,1,0,0:0:0:0:
137,23,26719,1,0,0:0:0:0:
67,31,27822,1,0,0:0:0:0:
441,329,28043,1,0,0:0:0:0:
160,131,28263,1,0,0:0:0:0:
284,230,28484,1,0,0:0:0:0:
396,249,29587,6,0,L|278:157,1,89.9999952316285
25,64,30028,2,0,L|37:166,1,89.9999952316285
417,325,30469,2,0,L|435:197,1,89.9999952316285
92,48,31352,5,0,0:0:0:0:
82,286,31365,1,0,0:0:0:0:
208,48,31379,1,0,0:0:0:0:
194,293,31393,1,0,0:0:0:0:
307,58,31407,1,0,0:0:0:0:
319,271,31420,1,0,0:0:0:0:
428,71,31434,1,0,0:0:0:0:
456,244,31448,1,0,0:0:0:0:
400,34,31462,1,0,0:0:0:0:
335,202,31476,1,0,0:0:0:0:
283,47,31489,1,0,0:0:0:0:
184,242,31503,1,0,0:0:0:0:
212,80,31517,1,0,0:0:0:0:
164,155,31531,1,0,0:0:0:0:
176,194,31545,1,0,0:0:0:0:
345,113,31558,1,0,0:0:0:0:
381,148,31572,1,0,0:0:0:0:
203,189,31586,1,0,0:0:0:0:
164,155,31600,1,0,0:0:0:0:
152,132,31613,1,0,0:0:0:0:
187,111,31627,1,0,0:0:0:0:
256,116,31641,1,0,0:0:0:0:
312,146,31655,1,0,0:0:0:0:
330,205,31669,1,0,0:0:0:0:
311,231,31682,1,0,0:0:0:0:
265,229,31696,1,0,0:0:0:0:
187,199,31710,1,0,0:0:0:0:
147,169,31724,1,0,0:0:0:0:
141,142,31738,1,0,0:0:0:0:
169,116,31751,1,0,0:0:0:0:
275,117,31765,1,0,0:0:0:0:
366,150,31779,1,0,0:0:0:0:
397,183,31793,1,0,0:0:0:0:
403,222,31806,1,0,0:0:0:0:
347,253,31820,1,0,0:0:0:0:
282,265,31834,1,0,0:0:0:0:
200,266,31848,1,0,0:0:0:0:
129,258,31862,1,0,0:0:0:0:
96,224,31875,1,0,0:0:0:0:
91,175,31889,1,0,0:0:0:0:
105,133,31903,1,0,0:0:0:0:
139,106,31917,1,0,0:0:0:0:
215,104,31931,1,0,0:0:0:0:
298,131,31944,1,0,0:0:0:0:
274,186,31958,1,0,0:0:0:0:
430,122,31972,1,0,0:0:0:0:
159,136,31986,1,0,0:0:0:0:
233,273,31999,1,0,0:0:0:0:
385,339,32013,1,0,0:0:0:0:
267,143,32027,1,0,0:0:0:0:
120,86,32041,1,0,0:0:0:0:
290,82,32055,1,0,0:0:0:0:
390,141,32068,1,0,0:0:0:0:
426,229,32082,1,0,0:0:0:0:
243,241,32096,1,0,0:0:0:0:
105,240,32110,1,0,0:0:0:0:
223,269,32124,1,0,0:0:0:0:
291,203,32137,1,0,0:0:0:0:
233,125,32151,1,0,0:0:0:0:
136,108,32165,1,0,0:0:0:0:
89,136,32179,1,0,0:0:0:0:
126,218,32192,1,0,0:0:0:0:
172,290,32206,1,0,0:0:0:0:
257,303,32220,1,0,0:0:0:0:
373,254,32234,1,0,0:0:0:0:
361,167,32248,1,0,0:0:0:0:
338,111,32261,1,0,0:0:0:0:
214,64,32275,1,0,0:0:0:0:
112,68,32289,1,0,0:0:0:0:
99,166,32303,1,0,0:0:0:0:
164,237,32317,1,0,0:0:0:0:
274,307,32330,1,0,0:0:0:0:
364,331,32344,1,0,0:0:0:0:
424,261,32358,1,0,0:0:0:0:
361,63,32372,1,0,0:0:0:0:
304,142,32386,1,0,0:0:0:0:
113,185,32399,1,0,0:0:0:0:
152,291,32413,1,0,0:0:0:0:
278,325,32427,1,0,0:0:0:0:
442,293,32441,1,0,0:0:0:0:
430,179,32454,1,0,0:0:0:0:
313,106,32468,1,0,0:0:0:0:
185,89,32482,1,0,0:0:0:0:
101,114,32496,1,0,0:0:0:0:
98,190,32510,1,0,0:0:0:0:
198,266,32523,1,0,0:0:0:0:
310,328,32537,1,0,0:0:0:0:
385,292,32551,1,0,0:0:0:0:
411,214,32565,1,0,0:0:0:0:
337,141,32579,1,0,0:0:0:0:
195,108,32592,1,0,0:0:0:0:
98,128,32606,1,0,0:0:0:0:
45,188,32620,1,0,0:0:0:0:
89,256,32634,1,0,0:0:0:0:
244,296,32647,1,0,0:0:0:0:
304,249,32661,1,0,0:0:0:0:
325,192,32675,1,0,0:0:0:0:
268,112,32689,1,0,0:0:0:0:
152,99,32703,1,0,0:0:0:0:
118,171,32716,1,0,0:0:0:0:
141,227,32730,1,0,0:0:0:0:
236,151,32744,1,0,0:0:0:0:
232,100,32758,1,0,0:0:0:0:
116,114,32772,1,0,0:0:0:0:
243,227,32785,1,0,0:0:0:0:
322,272,32799,1,0,0:0:0:0:
222,297,32813,1,0,0:0:0:0:
123,295,32827,1,0,0:0:0:0:
122,223,32840,1,0,0:0:0:0:
137,141,32854,1,0,0:0:0:0:
265,102,32868,1,0,0:0:0:0:
436,80,32882,1,0,0:0:0:0:
419,159,32896,1,0,0:0:0:0:
357,197,32909,1,0,0:0:0:0:
144,227,32923,1,0,0:0:0:0:
104,229,32937,1,0,0:0:0:0:
143,275,32951,1,0,0:0:0:0:
257,303,32965,1,0,0:0:0:0:
316,274,32978,1,0,0:0:0:0:
361,179,32992,1,0,0:0:0:0:
316,102,33006,1,0,0:0:0:0:
219,61,33020,1,0,0:0:0:0:
100,83,33033,1,0,0:0:0:0:
104,165,33047,1,0,0:0:0:0:
144,224,33061,1,0,0:0:0:0:
248,256,33075,1,0,0:0:0:0:
280,285,33089,1,0,0:0:0:0:
420,123,33116,5,0,0:0:0:0:
97,308,33337,1,0,0:0:0:0:
262,104,33557,1,0,0:0:0:0:
320,325,33778,1,0,0:0:0:0:
87,132,33999,1,0,0:0:0:0:
380,62,34219,1,0,0:0:0:0:
208,210,34440,1,0,0:0:0:0:
393,297,34660,1,0,0:0:0:0:
366,132,34881,1,0,0:0:0:0:
192,75,35102,1,0,0:0:0:0:
31,220,35322,1,0,0:0:0:0:
206,284,35543,1,0,0:0:0:0:
290,148,35763,1,0,0:0:0:0:
210,298,35984,1,0,0:0:0:0:
24,251,36204,1,0,0:0:0:0:
196,101,36425,1,0,0:0:0:0:
332,121,36646,1,0,0:0:0:0:
373,182,36866,1,0,0:0:0:0:
268,261,37087,1,0,0:0:0:0:
106,269,37307,1,0,0:0:0:0:
312,291,37528,1,0,0:0:0:0:
412,292,37749,1,0,0:0:0:0:
403,144,37969,1,0,0:0:0:0:
92,48,38410,5,0,0:0:0:0:
82,286,38423,1,0,0:0:0:0:
208,48,38437,1,0,0:0:0:0:
194,293,38451,1,0,0:0:0:0:
307,58,38465,1,0,0:0:0:0:
319,271,38478,1,0,0:0:0:0:
428,71,38492,1,0,0:0:0:0:
456,244,38506,1,0,0:0:0:0:
400,34,38520,1,0,0:0:0:0:
335,202,38534,1,0,0:0:0:0:
283,47,38547,1,0,0:0:0:0:
184,242,38561,1,0,0:0:0:0:
212,80,38575,1,0,0:0:0:0:
164,155,38589,1,0,0:0:0:0:
176,194,38603,1,0,0:0:0:0:
345,113,38616,1,0,0:0:0:0:
381,148,38630,1,0,0:0:0:0:
203,189,38644,1,0,0:0:0:0:
164,155,38658,1,0,0:0:0:0:
152,132,38671,1,0,0:0:0:0:
187,111,38685,1,0,0:0:0:0:
256,116,38699,1,0,0:0:0:0:
312,146,38713,1,0,0:0:0:0:
330,205,38727,1,0,0:0:0:0:
311,231,38740,1,0,0:0:0:0:
265,229,38754,1,0,0:0:0:0:
187,199,38768,1,0,0:0:0:0:
147,169,38782,1,0,0:0:0:0:
141,142,38796,1,0,0:0:0:0:
169,116,38809,1,0,0:0:0:0:
275,117,38823,1,0,0:0:0:0:
366,150,38837,1,0,0:0:0:0:
397,183,38851,1,0,0:0:0:0:
403,222,38864,1,0,0:0:0:0:
347,253,38878,1,0,0:0:0:0:
282,265,38892,1,0,0:0:0:0:
200,266,38906,1,0,0:0:0:0:
129,258,38920,1,0,0:0:0:0:
96,224,38933,1,0,0:0:0:0:
91,175,38947,1,0,0:0:0:0:
105,133,38961,1,0,0:0:0:0:
139,106,38975,1,0,0:0:0:0:
215,104,38989,1,0,0:0:0:0:
298,131,39002,1,0,0:0:0:0:
274,186,39016,1,0,0:0:0:0:
430,122,39030,1,0,0:0:0:0:
159,136,39044,1,0,0:0:0:0:
233,273,39057,1,0,0:0:0:0:
385,339,39071,1,0,0:0:0:0:
267,143,39085,1,0,0:0:0:0:
120,86,39099,1,0,0:0:0:0:
290,82,39113,1,0,0:0:0:0:
390,141,39126,1,0,0:0:0:0:
426,229,39140,1,0,0:0:0:0:
243,241,39154,1,0,0:0:0:0:
105,240,39168,1,0,0:0:0:0:
223,269,39182,1,0,0:0:0:0:
291,203,39195,1,0,0:0:0:0:
233,125,39209,1,0,0:0:0:0:
136,108,39223,1,0,0:0:0:0:
89,136,39237,1,0,0:0:0:0:
126,218,39250,1,0,0:0:0:0:
172,290,39264,1,0,0:0:0:0:
257,303,39278,1,0,0:0:0:0:
373,254,39292,1,0,0:0:0:0:
361,167,39306,1,0,0:0:0:0:
338,111,39319,1,0,0:0:0:0:
214,64,39333,1,0,0:0:0:0:
112,68,39347,1,0,0:0:0:0:
99,166,39361,1,0,0:0:0:0:
164,237,39375,1,0,0:0:0:0:
274,307,39388,1,0,0:0:0:0:
364,331,39402,1,0,0:0:0:0:
424,261,39416,1,0,0:0:0:0:
361,63,39430,1,0,0:0:0:0:
304,142,39444,1,0,0:0:0:0:
113,185,39457,1,0,0:0:0:0:
152,291,39471,1,0,0:0:0:0:
278,325,39485,1,0,0:0:0:0:
442,293,39499,1,0,0:0:0:0:
430,179,39512,1,0,0:0:0:0:
313,106,39526,1,0,0:0:0:0:
185,89,39540,1,0,0:0:0:0:
101,114,39554,1,0,0:0:0:0:
98,190,39568,1,0,0:0:0:0:
198,266,39581,1,0,0:0:0:0:
310,328,39595,1,0,0:0:0:0:
385,292,39609,1,0,0:0:0:0:
411,214,39623,1,0,0:0:0:0:
337,141,39637,1,0,0:0:0:0:
195,108,39650,1,0,0:0:0:0:
98,128,39664,1,0,0:0:0:0:
45,188,39678,1,0,0:0:0:0:
89,256,39692,1,0,0:0:0:0:
244,296,39705,1,0,0:0:0:0:
304,249,39719,1,0,0:0:0:0:
325,192,39733,1,0,0:0:0:0:
268,112,39747,1,0,0:0:0:0:
152,99,39761,1,0,0:0:0:0:
118,171,39774,1,0,0:0:0:0:
141,227,39788,1,0,0:0:0:0:
236,151,39802,1,0,0:0:0:0:
232,100,39816,1,0,0:0:0:0:
116,114,39830,1,0,0:0:0:0:
243,227,39843,1,0,0:0:0:0:
322,272,39857,1,0,0:0:0:0:
222,297,39871,1,0,0:0:0:0:
123,295,39885,1,0,0:0:0:0:
122,223,39898,1,0,0:0:0:0:
137,141,39912,1,0,0:0:0:0:
265,102,39926,1,0,0:0:0:0:
436,80,39940,1,0,0:0:0:0:
419,159,39954,1,0,0:0:0:0:
357,197,39967,1,0,0:0:0:0:
144,227,39981,1,0,0:0:0:0:
104,229,39995,1,0,0:0:0:0:
143,275,40009,1,0,0:0:0:0:
257,303,40023,1,0,0:0:0:0:
316,274,40036,1,0,0:0:0:0:
361,179,40050,1,0,0:0:0:0:
316,102,40064,1,0,0:0:0:0:
219,61,40078,1,0,0:0:0:0:
100,83,40091,1,0,0:0:0:0:
104,165,40105,1,0,0:0:0:0:
144,224,40119,1,0,0:0:0:0:
248,256,40133,1,0,0:0:0:0:
280,285,40147,1,0,0:0:0:0:
256,192,42050,12,0,44587,0:0:0:0:
