osu file format v14

[General]
AudioFilename: audio.mp3
AudioLeadIn: 0
PreviewTime: 11885
Countdown: 0
SampleSet: None
StackLeniency: 0.7
Mode: 0
LetterboxInBreaks: 0
WidescreenStoryboard: 0

[Editor]
Bookmarks: 31351,33116,38410,39954
DistanceSpacing: 1
BeatDivisor: 4
GridSize: 4
TimelineZoom: 1

[Metadata]
Title:Cookie-Butter-Choco-Cookie
TitleUnicode:クッキー・バター・チョコ・クッキー
Artist:Elmo and Cookie Monster
ArtistUnicode:エルモとクッキーモンスター
Creator:Monstrata
Version:Sotarks' Insane
Source:セサミストリート
Tags:cbcc ppap pikotaro sesame street ozzyozrock ozzy irre irreversible nino snownino_ haruto haruto_aizawa haruto- sotarks linada red derandom otaku derandom_otaku Gero Foxy FoxyGrandpa Akitoshi Corinn Andrea osuplayer111 Deppyforce -_Rain_- Rain ascendance
BeatmapID:1149638
BeatmapSetID:542081

[Difficulty]
HPDrainRate:5.5
CircleSize:4
OverallDifficulty:8
ApproachRate:8
SliderMultiplier:1.72
SliderTickRate:1

[Events]
//Background and Video events
0,0,"thank+mr+monstrata.jpg",0,0
//Break Periods
//Storyboard Layer 0 (Background)
//Storyboard Layer 1 (Fail)
//Storyboard Layer 2 (Pass)
//Storyboard Layer 3 (Foreground)
//Storyboard Sound Samples

[TimingPoints]
1352,441.176470588235,4,3,0,52,1,0
3999,-100,4,3,0,62,0,0
4440,-100,4,3,0,72,0,0
4881,-100,4,3,0,52,0,0
8410,-83.3333333333333,4,3,0,52,0,0
9734,-62.5,4,3,0,52,0,0
10175,-100,4,3,0,52,0,0
11057,-100,4,3,0,42,0,0
11940,-100,4,3,0,52,0,0
26719,-142.857142857143,4,3,0,42,0,0
27822,-142.857142857143,4,3,0,62,0,0
28484,-142.857142857143,4,3,0,52,0,0
30469,-71.4285714285714,4,3,0,72,0,0
31351,-100,4,3,0,52,0,1
31793,-100,4,3,0,62,0,1
32234,-100,4,3,0,72,0,1
32675,-100,4,3,0,82,0,1
33116,-100,4,3,0,52,0,0
38410,-100,4,3,0,62,0,1
38851,-100,4,3,0,72,0,1
39293,-100,4,3,0,82,0,1
39734,-100,4,3,0,92,0,1
39954,-100,4,3,0,92,0,0

[Colours]
Combo1 : 204,102,0
Combo2 : 255,85,85
Combo3 : 102,171,255
Combo4 : 255,255,83

[HitObjects]
87,273,1352,5,4,0:0:0:0:
469,181,1793,1,8,0:0:0:0:
211,60,2234,2,0,L|225:235,1,172,4|0,0:0|0:0,0:0:0:0:
314,132,2896,6,0,L|297:46,1,86,4|0,0:0|0:0,0:0:0:0:
132,98,3337,2,0,L|115:182,1,86,8|0,0:0|0:0,0:0:0:0:
233,258,3778,1,8,0:0:0:0:
209,34,3999,5,6,0:0:0:0:
147,266,4219,1,2,0:0:0:0:
293,70,4440,5,2,0:0:0:0:
355,302,4660,1,2,0:0:0:0:
49,188,4881,6,0,P|111:176|224:181,1,172,4|8,0:0|0:0,0:0:0:0:
421,226,5543,1,2,0:0:0:0:
233,298,5763,2,0,P|168:280|130:265,1,86,4|0,0:0|0:0,0:0:0:0:
75,91,6204,1,8,0:0:0:0:
299,212,6425,6,0,B|328:260|328:260|335:312,1,86,4|0,0:0|0:0,0:0:0:0:
132,262,6866,1,2,0:0:0:0:
280,117,7087,1,8,0:0:0:0:
179,342,7307,2,0,L|160:151,1,172,4|4,0:0|0:0,0:0:0:0:
240,24,7969,1,8,0:0:0:0:
324,209,8190,1,8,0:0:0:0:
93,103,8410,6,0,P|77:165|72:219,1,103.199996850586,6|0,0:0|0:0,0:0:0:0:
398,128,8851,2,0,P|414:190|419:244,1,103.199996850586,10|0,0:0|0:0,0:0:0:0:
166,179,9293,2,0,P|150:241|145:295,1,103.199996850586,6|0,0:0|0:0,0:0:0:0:
467,58,9734,6,0,P|493:140|509:238,1,137.6,12|0,0:0|0:0,0:0:0:0:
337,311,10175,5,4,0:0:0:0:
394,117,10396,1,4,0:0:0:0:
490,320,10616,1,8,0:0:0:0:
230,235,10837,1,8,0:0:0:0:
356,215,11057,1,2,0:0:0:0:
356,215,11940,5,4,0:0:0:0:
282,140,12160,2,0,L|192:130,1,86,2|8,0:0|0:0,0:0:0:0:
61,288,12601,1,4,0:0:0:0:
164,305,12822,2,0,L|238:262,1,86,2|4,0:0|0:0,0:0:0:0:
294,113,13263,1,8,0:0:0:0:
311,325,13484,2,0,P|322:259|325:219,1,86,4|0,0:0|0:0,0:0:0:0:
209,94,13925,5,4,0:0:0:0:
143,191,14146,2,0,L|237:183,1,86,8|0,0:0|0:0,0:0:0:0:
416,258,14587,1,2,0:0:0:0:
324,105,14807,1,2,0:0:0:0:
191,284,15028,2,0,L|87:272,1,86,8|0,0:0|0:0,0:0:0:0:
272,44,15469,6,0,P|295:137|305:244,1,172,4|8,0:0|0:0,0:0:0:0:
153,164,16131,1,2,0:0:0:0:
365,62,16351,2,0,P|380:117|386:150,1,86,4|4,0:0|0:0,0:0:0:0:
283,296,16793,2,0,P|291:253|303:212,1,86,8|0,0:0|0:0,0:0:0:0:
422,347,17234,5,4,0:0:0:0:
170,353,17454,1,2,0:0:0:0:
380,258,17675,1,8,0:0:0:0:
228,137,17896,1,4,0:0:0:0:
279,306,18116,1,0,0:0:0:0:
359,74,18337,5,6,0:0:0:0:
203,257,18557,1,10,0:0:0:0:
449,165,18778,1,2,0:0:0:0:
235,123,18999,5,4,0:0:0:0:
302,204,19219,2,0,P|315:254|321:300,1,86,2|8,0:2|0:0,0:2:0:0:
128,151,19660,1,4,0:0:0:0:
165,57,19881,2,0,P|223:35|264:31,1,86,2|4,0:0|0:0,0:0:0:0:
201,222,20322,2,0,P|143:244|102:248,1,86,8|0,0:0|0:0,0:0:0:0:
303,94,20763,5,4,0:0:0:0:
369,191,20984,2,0,P|318:188|275:183,1,86,8|0,0:0|0:0,0:0:0:0:
94,242,21425,1,2,0:0:0:0:
203,26,21645,1,2,0:0:0:0:
339,285,21866,2,0,P|388:284|443:273,1,86,8|0,0:0|0:0,0:0:0:0:
316,97,22307,1,4,0:0:0:0:
168,324,22528,6,0,P|111:331|62:333,1,86,4|0,0:0|0:0,0:0:0:0:
299,256,22969,1,8,0:0:0:0:
80,155,23190,1,4,0:0:0:0:
337,89,23410,1,2,0:0:0:0:
218,221,23631,1,4,0:0:0:0:
221,36,23851,2,0,P|247:108|255:152,1,86,8|0,0:0|0:0,0:0:0:0:
173,314,24293,5,4,0:0:0:0:
113,34,24513,1,2,0:0:0:0:
98,258,24734,1,8,0:0:0:0:
160,115,24954,1,4,0:0:0:0:
281,234,25175,6,0,P|227:229|191:220,1,86,2|2,2:0|2:0,2:0:0:0:
0,177,25616,2,0,P|58:171|94:162,1,86,10|2,2:0|2:0,2:0:0:0:
248,56,26057,5,4,0:0:0:0:
381,157,26278,1,4,0:0:0:0:
162,114,26499,1,8,0:0:0:0:
446,72,26719,2,0,P|464:120|474:204,1,120.399996325684,6|4,0:0|0:0,0:0:0:0:
451,283,27381,1,8,0:0:0:0:
451,283,27822,5,4,0:0:0:0:
188,324,28043,1,4,0:0:0:0:
385,149,28263,1,8,0:0:0:0:
285,355,28484,2,0,P|270:291|238:221,1,120.399996325684,6|4,0:0|0:0,0:0:0:0:
190,164,29146,1,8,0:0:0:0:
190,164,29587,6,0,L|260:156,1,60.1999981628419,4|0,0:0|0:0,0:0:0:0:
360,90,30028,2,0,L|290:82,1,60.1999981628419,4|0,0:0|0:0,0:0:0:0:
110,270,30469,6,0,B|315:247|315:247|359:217,1,240.799992651367,10|0,2:0|0:0,0:0:0:0:
343,227,31351,5,10,0:0:0:0:
246,90,31572,1,0,0:0:0:0:
259,345,31793,5,2,0:0:0:0:
332,117,32013,1,0,0:0:0:0:
373,318,32234,5,10,0:0:0:0:
125,229,32454,1,0,0:0:0:0:
433,209,32675,5,2,0:0:0:0:
80,318,32895,1,2,0:0:0:0:
344,226,33116,6,0,B|280:221|280:221|178:169,1,172,4|8,0:0|0:0,0:0:0:0:
49,53,33778,1,2,0:0:0:0:
210,70,33998,2,0,B|259:103|259:103|294:137,1,86,4|0,0:0|0:0,0:0:0:0:
283,320,34439,1,8,0:0:0:0:
118,127,34660,6,0,B|108:71|120:20,1,86,4|0,0:0|0:0,0:0:0:0:
292,140,35101,1,2,0:0:0:0:
101,222,35322,1,8,0:0:0:0:
276,48,35543,2,0,P|255:132|225:233,1,172,4|4,0:0|0:0,0:0:0:0:
105,323,36204,1,8,0:0:0:0:
93,120,36425,1,8,0:0:0:0:
201,302,36646,6,0,P|267:308|309:305,1,86,4|0,0:0|0:0,0:0:0:0:
411,138,37087,1,8,0:0:0:0:
435,283,37307,1,2,0:0:0:0:
271,74,37528,1,4,0:0:0:0:
247,219,37748,1,4,0:0:0:0:
393,33,37969,1,8,1:0:0:0:
393,33,38410,5,10,0:0:0:0:
171,51,38631,1,0,0:0:0:0:
352,302,38851,5,2,0:0:0:0:
281,44,39072,1,0,0:0:0:0:
78,316,39293,5,10,0:0:0:0:
374,165,39513,1,0,0:0:0:0:
90,88,39734,5,2,0:0:0:0:
422,367,39954,1,2,0:0:0:0:
256,192,40175,12,0,41940,0:0:0:0:
256,192,43263,12,0,45028,0:0:0:0:
