osu file format v14

[General]
AudioFilename: audio.mp3
AudioLeadIn: 0
PreviewTime: 11885
Countdown: 0
SampleSet: Normal
StackLeniency: 0.7
Mode: 1
LetterboxInBreaks: 0
WidescreenStoryboard: 1

[Editor]
Bookmarks: 1352,45469
DistanceSpacing: 1.2
BeatDivisor: 4
GridSize: 4
TimelineZoom: 0.9999999

[Metadata]
Title:Cookie-Butter-Choco-Cookie
TitleUnicode:クッキー・バター・チョコ・クッキー
Artist:Elmo and Cookie Monster
ArtistUnicode:エルモとクッキーモンスター
Creator:Monstrata
Version:Ozzy's Muzukashii
Source:セサミストリート
Tags:cbcc ppap pikotaro sesame street ozzyozrock ozzy irre irreversible nino snownino_ haruto haruto_aizawa haruto- sotarks linada red derandom otaku derandom_otaku Gero Foxy FoxyGrandpa Akitoshi Corinn Andrea osuplayer111 Deppyforce -_Rain_- Rain ascendance
BeatmapID:1205931
BeatmapSetID:542081

[Difficulty]
HPDrainRate:5
CircleSize:5
OverallDifficulty:5
ApproachRate:5
SliderMultiplier:1.4
SliderTickRate:2

[Events]
//Background and Video events
0,0,"thank+mr+monstrata.jpg",0,0
//Break Periods
//Storyboard Layer 0 (Background)
//Storyboard Layer 1 (Fail)
//Storyboard Layer 2 (Pass)
//Storyboard Layer 3 (Foreground)
//Storyboard Sound Samples

[TimingPoints]
1352,441.176470588235,4,1,0,80,1,0
31351,-100,4,1,0,80,0,1
40175,-100,4,1,0,80,0,0

[HitObjects]
168,300,1352,5,0,0:0:0:0:
408,272,1793,1,8,0:0:0:0:
184,304,2234,1,0,0:0:0:0:
160,304,2896,1,0,0:0:0:0:
152,316,3337,1,0,0:0:0:0:
376,296,3557,1,8,0:0:0:0:
136,324,3999,1,0,0:0:0:0:
135,299,4881,1,0,0:0:0:0:
152,300,5101,1,0,0:0:0:0:
280,268,5322,1,8,0:0:0:0:
128,300,5542,1,0,0:0:0:0:
300,308,5763,1,8,0:0:0:0:
88,296,5983,1,0,0:0:0:0:
60,280,6204,1,0,0:0:0:0:
292,272,6425,1,8,0:0:0:0:
144,288,6866,1,0,0:0:0:0:
336,288,7087,1,8,0:0:0:0:
384,280,7307,1,8,0:0:0:0:
168,296,7528,1,0,0:0:0:0:
383,270,7969,1,8,0:0:0:0:
204,104,8410,1,4,0:0:0:0:
204,104,8851,1,4,0:0:0:0:
204,104,9293,1,4,0:0:0:0:
376,76,9734,1,12,0:0:0:0:
96,260,10175,1,0,0:0:0:0:
304,268,10616,1,8,0:0:0:0:
332,260,10837,1,8,0:0:0:0:
296,269,11057,1,8,0:0:0:0:
372,248,12160,1,8,0:0:0:0:
352,260,12381,1,8,0:0:0:0:
172,296,12601,1,0,0:0:0:0:
128,300,12822,1,0,0:0:0:0:
392,252,13043,1,8,0:0:0:0:
328,268,13925,1,8,0:0:0:0:
328,268,14146,1,8,0:0:0:0:
180,292,14366,1,0,0:0:0:0:
328,268,14587,1,8,0:0:0:0:
168,304,14807,1,0,0:0:0:0:
148,260,15469,1,0,0:0:0:0:
304,252,15910,1,8,0:0:0:0:
140,88,16351,1,4,0:0:0:0:
456,296,17234,1,8,0:0:0:0:
148,280,17454,1,0,0:0:0:0:
148,280,17675,1,0,0:0:0:0:
432,300,17896,1,8,0:0:0:0:
360,292,18557,1,8,0:0:0:0:
352,284,19219,1,8,0:0:0:0:
176,288,19440,1,0,0:0:0:0:
176,288,19660,1,0,0:0:0:0:
312,284,19881,1,8,0:0:0:0:
132,284,20101,1,0,0:0:0:0:
372,308,20543,1,8,0:0:0:0:
140,288,20984,1,0,0:0:0:0:
372,316,21204,1,8,0:0:0:0:
104,272,21425,1,0,0:0:0:0:
316,288,21646,1,8,0:0:0:0:
340,284,21866,1,8,0:0:0:0:
88,302,22307,1,0,0:0:0:0:
316,288,22528,1,8,0:0:0:0:
284,308,22749,1,8,0:0:0:0:
136,308,22969,1,0,0:0:0:0:
320,120,23410,1,6,0:0:0:0:
296,240,24293,1,8,0:0:0:0:
308,248,24513,1,8,0:0:0:0:
152,280,24734,1,0,0:0:0:0:
284,264,24954,1,8,0:0:0:0:
402,276,25616,1,8,0:0:0:0:
124,88,26057,1,4,0:0:0:0:
124,88,26278,1,4,0:0:0:0:
124,88,26499,1,4,0:0:0:0:
124,88,26719,1,4,0:0:0:0:
400,88,27822,1,12,0:0:0:0:
400,88,28043,1,12,0:0:0:0:
400,88,28264,1,12,0:0:0:0:
400,88,28484,1,12,0:0:0:0:
396,92,30469,1,12,0:0:0:0:
172,132,31351,1,4,0:0:0:0:
176,128,31572,1,4,0:0:0:0:
196,120,31793,1,4,0:0:0:0:
352,128,32234,1,12,0:0:0:0:
352,128,32454,1,12,0:0:0:0:
328,116,32675,1,12,0:0:0:0:
108,263,33116,1,0,0:0:0:0:
84,264,33336,1,0,0:0:0:0:
300,272,33557,1,8,0:0:0:0:
112,276,33778,1,0,0:0:0:0:
324,284,33998,1,8,0:0:0:0:
164,284,34219,1,0,0:0:0:0:
128,264,34440,1,0,0:0:0:0:
296,240,34660,1,8,0:0:0:0:
312,264,35101,1,0,0:0:0:0:
312,264,35322,1,8,0:0:0:0:
324,244,35543,1,8,0:0:0:0:
136,288,35763,1,0,0:0:0:0:
130,300,35874,1,0,0:0:0:0:
160,276,35984,1,0,0:0:0:0:
316,252,36204,1,8,0:0:0:0:
72,288,36646,1,0,0:0:0:0:
120,296,36866,1,0,0:0:0:0:
316,264,37087,1,8,0:0:0:0:
184,288,37307,1,0,0:0:0:0:
324,256,37528,1,8,0:0:0:0:
140,296,37749,1,0,0:0:0:0:
376,108,37969,1,12,0:0:0:0:
120,128,38410,1,4,0:0:0:0:
184,116,38631,1,4,0:0:0:0:
112,132,38851,1,4,0:0:0:0:
92,132,39293,1,4,0:0:0:0:
92,132,39513,1,4,0:0:0:0:
332,104,39734,1,12,0:0:0:0:
332,104,39954,1,12,0:0:0:0:
256,192,40175,12,0,45469,0:0:0:0:
