osu file format v14

[General]
AudioFilename: audio.mp3
AudioLeadIn: 0
PreviewTime: 11885
Countdown: 0
SampleSet: Soft
StackLeniency: 0.7
Mode: 0
LetterboxInBreaks: 0
WidescreenStoryboard: 0

[Editor]
DistanceSpacing: 2.2
BeatDivisor: 4
GridSize: 4
TimelineZoom: 1

[Metadata]
Title:Cookie-Butter-Choco-Cookie
TitleUnicode:クッキー・バター・チョコ・クッキー
Artist:Elmo and Cookie Monster
ArtistUnicode:エルモとクッキーモンスター
Creator:Monstrata
Version:NiNo's Insane
Source:セサミストリート
Tags:cbcc ppap pikotaro sesame street ozzyozrock ozzy irre irreversible nino snownino_ haruto haruto_aizawa haruto- sotarks linada red derandom otaku derandom_otaku Gero Foxy FoxyGrandpa Akitoshi Corinn Andrea osuplayer111 Deppyforce -_Rain_- Rain ascendance
BeatmapID:1150597
BeatmapSetID:542081

[Difficulty]
HPDrainRate:5.5
CircleSize:4.5
OverallDifficulty:8.3
ApproachRate:8
SliderMultiplier:1.9
SliderTickRate:1

[Events]
//Background and Video events
0,0,"thank+mr+monstrata.jpg",0,0
//Break Periods
//Storyboard Layer 0 (Background)
//Storyboard Layer 1 (Fail)
//Storyboard Layer 2 (Pass)
//Storyboard Layer 3 (Foreground)
//Storyboard Sound Samples

[TimingPoints]
1352,441.176470588235,4,2,0,70,1,0
4881,-100,4,3,0,60,0,0
8410,-83.3333333333333,4,3,0,60,0,0
9734,-83.3333333333333,4,2,0,80,0,0
10175,-100,4,3,0,60,0,0
24293,-100,4,3,0,60,0,0
26057,-100,4,2,0,80,0,0
31351,-100,4,2,0,50,0,0
32234,-100,4,2,0,75,0,0
33116,-100,4,3,0,75,0,0
38410,-100,4,3,0,35,0,0
38851,-100,4,3,0,55,0,0
39293,-100,4,3,0,75,0,0
39734,-100,4,3,0,95,0,0
40175,-100,4,2,0,25,0,0
41940,-100,4,2,0,5,0,0

[Colours]
Combo1 : 204,102,0
Combo2 : 255,85,85
Combo3 : 102,171,255
Combo4 : 255,255,83

[HitObjects]
102,147,1352,6,0,P|153:121|183:83,1,95,2|0,0:0|0:0,0:0:0:0:
150,281,1793,2,0,P|92:299|45:293,1,95,2|0,0:0|0:0,0:0:0:0:
253,183,2234,2,0,L|266:375,1,190,2|0,0:0|0:0,0:0:0:0:
341,180,2896,6,0,P|316:120|200:113,1,190,2|2,0:0|0:0,0:0:0:0:
265,372,3557,1,2,0:0:0:0:
425,332,3778,1,0,0:0:0:0:
203,110,3999,5,10,0:0:0:0:
193,328,4219,1,8,0:0:0:0:
376,101,4440,1,10,0:0:0:0:
425,332,4660,1,10,0:0:0:0:
247,194,4881,5,0,0:0:0:0:
432,166,5101,1,0,0:0:0:0:
203,110,5322,1,8,0:0:0:0:
351,227,5543,1,0,0:0:0:0:
312,56,5763,1,0,0:0:0:0:
210,267,5984,1,0,0:0:0:0:
237,0,6204,1,8,0:0:0:0:
351,227,6425,6,0,P|406:247|453:244,1,95
319,79,6866,1,0,0:0:0:0:
277,274,7087,1,8,0:0:0:0:
441,246,7307,2,0,P|449:199|434:142,1,95
282,187,7749,1,8,0:0:0:0:
342,352,7969,1,0,0:0:0:0:
252,180,8190,1,0,0:0:0:0:
441,246,8410,5,2,0:2:0:0:
167,205,8631,1,0,0:0:0:0:
348,157,8851,5,2,0:2:0:0:
127,306,9072,1,0,0:0:0:0:
379,318,9293,5,2,0:2:0:0:
191,109,9514,1,0,0:0:0:0:
231,353,9734,5,10,0:3:0:0:
348,157,9955,1,0,0:0:0:0:
98,177,10175,5,0,0:0:0:0:
394,227,10396,1,0,0:0:0:0:
184,87,10616,1,8,0:0:0:0:
231,353,10837,1,8,0:0:0:0:
348,157,11057,1,2,0:2:0:0:
348,157,11940,6,0,P|284:142|254:117,1,95,0|2,0:0|0:0,0:0:0:0:
432,29,12381,1,10,0:0:0:0:
482,225,12601,1,0,0:0:0:0:
322,70,12822,1,0,0:0:0:0:
277,253,13043,1,0,0:0:0:0:
434,120,13263,1,8,0:0:0:0:
473,324,13484,1,0,0:0:0:0:
242,193,13704,6,0,P|291:165|340:164,1,95,0|2,0:0|0:0,0:0:0:0:
343,366,14146,1,10,0:0:0:0:
222,321,14366,1,0,0:0:0:0:
419,263,14587,1,2,0:2:0:0:
242,193,14807,1,0,0:0:0:0:
343,366,15028,1,8,0:0:0:0:
397,161,15249,1,0,0:0:0:0:
222,321,15469,6,0,P|167:319|119:290,1,95,0|0,0:0|0:0,0:0:0:0:
307,181,15910,2,0,P|349:161|397:161,1,95,8|0,0:0|0:0,0:0:0:0:
199,234,16351,1,10,0:2:0:0:
242,45,16572,1,0,0:0:0:0:
374,267,16793,1,8,0:0:0:0:
331,78,17014,1,0,0:0:0:0:
223,318,17234,5,2,0:0:0:0:
432,155,17454,1,0,0:0:0:0:
185,52,17675,1,10,0:0:0:0:
342,267,17896,2,0,B|377:300|388:341|388:341|425:293|479:283,1,190,2|0,0:0|0:0,0:0:0:0:
293,136,18557,1,8,0:0:0:0:
223,318,18778,1,0,0:0:0:0:
416,218,18999,6,0,P|464:199|510:207,1,95,0|2,0:0|0:0,0:0:0:0:
326,294,19440,1,10,0:0:0:0:
353,90,19660,1,0,0:0:0:0:
220,241,19881,1,0,0:0:0:0:
416,218,20101,1,0,0:0:0:0:
239,121,20322,1,8,0:0:0:0:
332,324,20543,1,0,0:0:0:0:
403,46,20763,6,0,P|461:20|509:21,1,95,0|2,0:0|0:0,0:0:0:0:
230,165,21204,1,10,0:0:0:0:
456,175,21425,1,0,0:0:0:0:
274,43,21646,1,2,0:2:0:0:
334,241,21866,1,0,0:0:0:0:
403,46,22087,1,8,0:0:0:0:
198,166,22307,1,0,0:0:0:0:
451,266,22528,6,0,P|464:210|452:168,1,95,0|0,0:0|0:0,0:0:0:0:
343,92,22969,1,8,0:0:0:0:
301,266,23190,1,0,0:0:0:0:
195,82,23410,2,0,P|236:58|289:59,1,95,10|0,0:2|0:0,0:0:0:0:
455,174,23851,1,8,0:0:0:0:
301,266,24072,1,0,0:0:0:0:
282,57,24293,5,2,0:0:0:0:
404,301,24513,1,0,0:0:0:0:
393,120,24734,1,10,0:0:0:0:
230,268,24954,2,0,B|188:309|188:309|55:268,1,190,2|0,0:0|0:0,0:0:0:0:
44,368,25616,1,8,1:3:0:0:
44,368,25837,1,0,1:3:0:0:
194,111,26057,5,0,0:0:0:0:
322,278,26278,1,0,0:0:0:0:
194,111,26499,1,0,0:0:0:0:
322,278,26720,1,0,0:0:0:0:
194,111,26940,2,0,B|149:79|149:79|131:146|52:174,1,190,0|0,3:0|3:0,0:0:0:0:
65,178,27822,5,0,0:0:0:0:
314,200,28043,1,0,0:0:0:0:
65,178,28263,1,0,0:0:0:0:
314,200,28484,1,0,0:0:0:0:
65,178,28704,2,0,P|84:122|19:16,1,190,0|0,3:0|3:0,0:0:0:0:
21,17,29587,6,0,P|68:39|121:39,1,95,0|0,3:0|0:0,0:0:0:0:
282,191,30028,2,0,P|234:194|192:214,1,95,0|0,3:0|0:0,0:0:0:0:
31,174,30469,1,2,0:0:0:0:
31,174,31351,5,2,0:0:0:0:
252,100,31572,1,0,0:0:0:0:
208,330,31793,5,2,0:0:0:0:
123,68,32014,1,0,0:0:0:0:
320,177,32234,5,2,0:0:0:0:
18,276,32455,1,2,0:0:0:0:
112,16,32675,5,2,0:0:0:0:
229,378,32896,1,2,0:0:0:0:
245,128,33116,6,0,P|301:106|343:105,1,95,2|0,0:0|0:0,0:0:0:0:
387,287,33557,1,8,0:0:0:0:
257,261,33778,1,0,0:0:0:0:
424,176,33999,1,2,0:0:0:0:
453,362,34219,1,0,0:0:0:0:
326,176,34440,1,8,0:0:0:0:
500,268,34660,1,2,0:0:0:0:
283,304,34881,5,0,0:0:0:0:
401,119,35101,1,2,0:0:0:0:
453,362,35322,1,8,0:0:0:0:
326,176,35543,1,0,0:0:0:0:
500,268,35763,1,2,0:0:0:0:
238,236,35984,1,0,0:0:0:0:
394,79,36204,1,8,0:0:0:0:
393,300,36425,1,0,0:0:0:0:
245,97,36646,5,2,0:0:0:0:
461,165,36866,1,0,0:0:0:0:
173,168,37087,1,8,0:0:0:0:
394,79,37307,1,0,0:0:0:0:
154,56,37528,1,2,0:0:0:0:
373,167,37748,1,0,0:0:0:0:
23,212,37969,1,4,0:2:0:0:
23,212,38410,5,2,0:2:0:0:
183,162,38631,1,2,0:2:0:0:
88,304,38851,1,2,0:2:0:0:
140,80,39072,1,2,0:2:0:0:
250,357,39293,1,2,0:2:0:0:
55,52,39513,1,2,0:2:0:0:
358,211,39734,1,2,0:2:0:0:
3,371,39954,1,2,0:2:0:0:
256,192,40175,12,0,41940,0:0:0:0:
