osu file format v14

[General]
AudioFilename: audio.mp3
AudioLeadIn: 0
PreviewTime: 11885
Countdown: 0
SampleSet: Soft
StackLeniency: 0.7
Mode: 0
LetterboxInBreaks: 0
WidescreenStoryboard: 0

[Editor]
DistanceSpacing: 1
BeatDivisor: 4
GridSize: 4
TimelineZoom: 1

[Metadata]
Title:Cookie-Butter-Choco-Cookie
TitleUnicode:クッキー・バター・チョコ・クッキー
Artist:Elmo and Cookie Monster
ArtistUnicode:エルモとクッキーモンスター
Creator:Monstrata
Version:Insane
Source:セサミストリート
Tags:cbcc ppap pikotaro sesame street ozzyozrock ozzy irre irreversible nino snownino_ haruto haruto_aizawa haruto- sotarks linada red derandom otaku derandom_otaku Gero Foxy FoxyGrandpa Akitoshi Corinn Andrea osuplayer111 Deppyforce -_Rain_- Rain ascendance
BeatmapID:1149303
BeatmapSetID:542081

[Difficulty]
HPDrainRate:5.5
CircleSize:4.1
OverallDifficulty:8.2
ApproachRate:8
SliderMultiplier:1.8
SliderTickRate:1

[Events]
//Background and Video events
0,0,"thank+mr+monstrata.jpg",0,0
//Break Periods
//Storyboard Layer 0 (Background)
//Storyboard Layer 1 (Fail)
//Storyboard Layer 2 (Pass)
//Storyboard Layer 3 (Foreground)
//Storyboard Sound Samples

[TimingPoints]
1352,441.176470588235,4,2,0,70,1,0
4881,-100,4,3,0,60,0,0
8410,-83.3333333333333,4,3,0,60,0,0
9734,-71.4285714285714,4,2,0,80,0,0
10175,-100,4,3,0,60,0,0
26057,-100,4,2,0,80,0,0
26940,-133.333333333333,4,2,0,80,0,0
31351,-100,4,2,0,50,0,0
32234,-100,4,2,0,75,0,0
33116,-100,4,3,0,75,0,1
38410,-100,4,3,0,35,0,1
38851,-100,4,3,0,55,0,1
39293,-100,4,3,0,75,0,1
39734,-100,4,3,0,95,0,1
40175,-100,4,2,0,25,0,0
41940,-100,4,2,0,5,0,0

[Colours]
Combo1 : 204,102,0
Combo2 : 255,85,85
Combo3 : 102,171,255
Combo4 : 255,255,83

[HitObjects]
250,269,1352,6,0,L|377:252,1,90,2|0,0:0|0:0,0:0:0:0:
80,109,1793,2,0,L|207:126,1,90,2|0,0:0|0:0,0:0:0:0:
80,275,2234,2,0,L|207:258,1,90,2|0,0:0|0:0,0:0:0:0:
134,36,2675,1,0,0:0:0:0:
0,192,2896,5,2,0:0:0:0:
356,144,3337,1,2,0:0:0:0:
324,256,3557,1,2,0:0:0:0:
436,288,3778,1,0,0:0:0:0:
468,176,3999,5,10,0:0:0:0:
324,256,4219,1,8,0:0:0:0:
244,112,4440,1,10,0:0:0:0:
388,32,4660,1,10,0:0:0:0:
356,144,4881,6,0,L|406:235,1,90,0|0,0:0|0:0,0:0:0:0:
244,112,5322,1,8,0:0:0:0:
223,199,5543,1,8,0:0:0:0:
71,161,5763,2,0,L|158:137,1,90,0|0,0:0|0:0,0:0:0:0:
202,286,6204,1,8,0:0:0:0:
372,236,6425,6,0,L|307:173,2,90,0|0|0,0:0|0:0|0:0,0:0:0:0:
329,85,7087,1,8,0:0:0:0:
350,324,7307,2,0,P|409:320|448:284,1,90,0|0,0:0|0:0,0:0:0:0:
307,173,7749,1,0,0:0:0:0:
263,348,7969,1,8,0:0:0:0:
372,236,8190,1,0,0:0:0:0:
198,285,8410,6,0,P|135:281|90:183,1,161.999995056152,2|0,0:2|2:0,0:0:0:0:
170,207,8851,2,0,P|174:144|272:99,1,161.999995056152,2|0,0:2|2:0,0:0:0:0:
248,179,9293,2,0,L|140:8,1,161.999995056152,2|0,0:2|2:0,0:0:0:0:
87,202,9734,6,0,L|85:67,1,125.999996154785,10|0,0:3|0:0,0:0:0:0:
175,242,10175,5,0,0:0:0:0:
175,242,10396,1,0,0:0:0:0:
248,179,10616,5,8,0:0:0:0:
150,242,10837,1,8,0:0:0:0:
253,295,11057,1,2,0:2:0:0:
253,295,11940,5,0,0:0:0:0:
368,158,12160,5,2,0:0:0:0:
190,128,12381,1,10,0:0:0:0:
310,227,12601,1,0,0:0:0:0:
336,74,12822,1,0,0:0:0:0:
222,212,13043,1,0,0:0:0:0:
398,241,13263,1,8,0:0:0:0:
279,143,13484,2,0,L|216:220,1,90
368,158,13925,5,2,0:0:0:0:
430,327,14146,1,10,0:0:0:0:
310,227,14366,1,0,0:0:0:0:
196,363,14587,1,2,0:2:0:0:
222,212,14807,1,0,0:0:0:0:
282,378,15028,1,8,0:0:0:0:
310,227,15249,1,0,0:0:0:0:
165,278,15469,6,0,L|52:293,1,90,0|0,0:0|0:0,0:0:0:0:
124,155,15910,2,0,L|237:170,1,90,8|0,0:0|0:0,0:0:0:0:
420,44,16351,2,0,L|227:69,1,180,10|8,0:2|0:0,0:0:0:0:
241,67,17234,5,2,0:0:0:0:
165,278,17454,1,0,0:0:0:0:
241,67,17675,1,10,0:0:0:0:
165,278,17895,1,2,0:0:0:0:
261,196,18116,5,0,0:0:0:0:
261,196,18337,1,0,0:0:0:0:
261,196,18557,1,8,0:0:0:0:
261,196,18778,1,0,0:0:0:0:
261,196,18999,1,0,0:0:0:0:
319,364,19219,5,2,0:0:0:0:
290,280,19440,1,10,0:0:0:0:
231,347,19660,1,0,0:0:0:0:
261,196,19881,1,0,0:0:0:0:
376,297,20101,1,0,0:0:0:0:
319,128,20322,1,8,0:0:0:0:
201,261,20543,6,0,L|304:261,1,90
110,215,20984,1,2,0:0:0:0:
201,261,21204,1,10,0:0:0:0:
77,117,21425,1,0,0:0:0:0:
77,313,21646,5,2,0:2:0:0:
201,169,21867,1,0,0:0:0:0:
110,215,22087,1,8,0:0:0:0:
299,201,22308,1,0,0:0:0:0:
115,113,22528,5,0,0:0:0:0:
110,215,22749,1,0,0:0:0:0:
206,67,22969,1,8,0:0:0:0:
201,169,23190,1,0,0:0:0:0:
297,21,23410,1,10,0:2:0:0:
292,123,23631,1,0,0:0:0:0:
382,76,23851,2,8,L|488:79,1,90
286,223,24293,5,2,0:0:0:0:
297,21,24513,1,0,0:0:0:0:
95,10,24734,1,10,0:0:0:0:
84,212,24954,1,2,0:0:0:0:
243,68,25175,1,0,0:0:0:0:
238,169,25396,1,0,0:0:0:0:
137,164,25616,1,8,1:3:0:0:
142,63,25837,1,0,0:3:0:0:
191,117,26057,5,0,0:0:0:0:
193,121,26278,1,0,0:0:0:0:
195,125,26499,1,0,0:0:0:0:
197,129,26719,1,0,0:0:0:0:
199,133,26940,2,0,L|280:116,1,67.5000025749208,0|0,3:0|0:0,0:0:0:0:
225,206,27381,2,0,L|306:189,1,67.5000025749208,0|0,3:0|0:0,0:0:0:0:
251,279,27822,5,0,0:0:0:0:
247,296,28043,1,0,0:0:0:0:
243,313,28263,1,0,0:0:0:0:
239,330,28484,1,0,0:0:0:0:
235,347,28704,2,0,P|200:355|166:351,1,67.5000025749208,0|0,3:0|0:0,0:0:0:0:
82,334,29146,2,0,P|117:326|151:330,1,67.5000025749208,0|0,3:0|0:0,0:0:0:0:
174,223,29587,6,0,L|180:269,3,33.7500012874604,0|0|0|0,3:0|0:0|0:0|0:0,0:0:0:0:
264,204,30028,2,0,L|258:250,3,33.7500012874604,0|0|0|0,3:0|0:0|0:0|0:0,0:0:0:0:
202,135,30469,5,6,0:0:0:0:
202,135,31351,5,2,0:0:0:0:
179,222,31572,1,0,0:0:0:0:
330,263,31793,1,2,0:0:0:0:
266,199,32014,1,0,0:0:0:0:
154,309,32234,1,2,0:0:0:0:
242,285,32455,1,2,0:0:0:0:
225,48,32675,5,2,0:0:0:0:
154,309,32896,1,2,0:0:0:0:
330,263,33116,5,2,0:0:0:0:
202,135,33337,1,0,0:0:0:0:
305,350,33557,1,8,0:0:0:0:
266,199,33778,1,0,0:0:0:0:
154,309,33999,1,2,0:0:0:0:
202,135,34219,1,0,0:0:0:0:
217,374,34440,1,8,0:0:0:0:
289,111,34660,6,0,P|252:61|187:50,1,90
330,263,35101,1,2,0:0:0:0:
90,245,35322,1,8,0:0:0:0:
266,198,35543,1,0,0:0:0:0:
67,333,35763,1,2,0:0:0:0:
202,133,35984,1,0,0:0:0:0:
305,350,36204,1,8,0:0:0:0:
289,111,36425,1,0,0:0:0:0:
217,374,36646,5,2,0:0:0:0:
202,133,36866,1,0,0:0:0:0:
390,327,37087,1,10,0:0:0:0:
289,111,37307,1,0,0:0:0:0:
152,309,37528,1,2,0:0:0:0:
376,89,37749,1,0,0:0:0:0:
0,192,37969,1,4,0:2:0:0:
299,240,38410,5,2,0:2:0:0:
210,141,38631,1,2,0:2:0:0:
234,284,38851,5,2,0:2:0:0:
275,97,39072,1,2,0:2:0:0:
299,326,39293,5,2,0:2:0:0:
213,58,39514,1,2,0:2:0:0:
237,381,39734,5,2,0:2:0:0:
275,3,39954,1,2,0:2:0:0:
256,192,40175,12,0,41940,2:0:0:0:
256,192,43263,12,0,45028,0:0:0:0:
