osu file format v14

[General]
AudioFilename: audio.mp3
AudioLeadIn: 0
PreviewTime: 11885
Countdown: 0
SampleSet: None
StackLeniency: 0.7
Mode: 0
LetterboxInBreaks: 0
WidescreenStoryboard: 1

[Editor]
Bookmarks: 31351,33116,38410,39954
DistanceSpacing: 1
BeatDivisor: 4
GridSize: 32
TimelineZoom: 1

[Metadata]
Title:Cookie-Butter-Choco-Cookie
TitleUnicode:クッキー・バター・チョコ・クッキー
Artist:Elmo and Cookie Monster
ArtistUnicode:エルモとクッキーモンスター
Creator:Monstrata
Version:Haru's Insane
Source:セサミストリート
Tags:cbcc ppap pikotaro sesame street ozzyozrock ozzy irre irreversible nino snownino_ haruto haruto_aizawa haruto- sotarks linada red derandom otaku derandom_otaku Gero Foxy FoxyGrandpa Akitoshi Corinn Andrea osuplayer111 Deppyforce -_Rain_- Rain ascendance
BeatmapID:1153219
BeatmapSetID:542081

[Difficulty]
HPDrainRate:5.5
CircleSize:3.7
OverallDifficulty:8.2
ApproachRate:8
SliderMultiplier:1.82
SliderTickRate:1

[Events]
//Background and Video events
0,0,"thank+mr+monstrata.jpg",0,0
//Break Periods
//Storyboard Layer 0 (Background)
//Storyboard Layer 1 (Fail)
//Storyboard Layer 2 (Pass)
//Storyboard Layer 3 (Foreground)
//Storyboard Sound Samples

[TimingPoints]
1352,441.176470588235,4,3,0,52,1,0
3999,-100,4,3,0,62,0,0
4440,-100,4,3,0,72,0,0
4881,-100,4,3,0,52,0,0
8410,-83.3333333333333,4,3,0,52,0,0
9734,-62.5,4,3,0,52,0,0
10175,-100,4,3,0,52,0,0
11057,-100,4,3,0,42,0,0
11940,-100,4,3,0,52,0,0
27822,-142.857142857143,4,3,0,62,0,0
28484,-142.857142857143,4,3,0,52,0,0
30469,-71.4285714285714,4,3,0,72,0,0
31351,-100,4,3,0,52,0,1
31793,-100,4,3,0,62,0,1
32234,-100,4,3,0,72,0,1
32675,-100,4,3,0,82,0,1
33116,-100,4,3,0,52,0,0
38410,-100,4,3,0,62,0,1
38851,-100,4,3,0,72,0,1
39293,-100,4,3,0,82,0,1
39734,-100,4,3,0,92,0,1
39954,-100,4,3,0,92,0,0
40175,-100,4,3,0,22,0,0

[Colours]
Combo1 : 204,102,0
Combo2 : 255,85,85
Combo3 : 102,171,255
Combo4 : 255,255,83

[HitObjects]
381,350,1352,5,4,0:0:0:0:
87,145,1793,1,8,0:0:0:0:
291,67,2234,2,0,B|294:138|294:138|282:181|282:181|286:251,1,182,4|0,0:0|0:0,0:0:0:0:
101,234,2896,2,0,P|93:178|80:116,1,91,4|0,0:0|0:0,0:0:0:0:
274,232,3337,1,8,0:0:0:0:
109,356,3557,1,0,0:0:0:0:
86,144,3778,1,8,0:0:0:0:
433,170,3999,5,6,0:0:0:0:
155,241,4219,1,2,0:0:0:0:
446,280,4440,5,2,0:0:0:0:
86,144,4660,1,2,0:0:0:0:
280,333,4881,6,0,B|287:267|287:267|274:228|274:228|280:146,1,182,4|8,0:0|0:0,0:0:0:0:
425,43,5543,1,2,0:0:0:0:
418,259,5763,2,0,P|426:203|439:141,1,91,4|0,0:0|0:0,0:0:0:0:
227,41,6204,1,8,0:0:0:0:
67,178,6425,2,0,P|122:166|185:157,1,91,4|0,0:0|0:0,0:0:0:0:
54,198,6866,5,2,0:0:0:0:
378,217,7087,1,8,0:0:0:0:
167,328,7307,6,0,B|133:231|201:256|160:136,1,182,4|4,0:0|0:0,0:0:0:0:
343,74,7969,1,8,0:0:0:0:
326,286,8190,1,8,0:0:0:0:
241,3,8410,6,0,P|243:58|245:113,1,109.199996667481,6|0,0:0|0:0,0:0:0:0:
439,125,8851,2,0,P|390:100|343:74,1,109.199996667481,10|0,0:0|0:0,0:0:0:0:
235,237,9293,2,0,P|281:208|328:180,1,109.199996667481,6|0,0:0|0:0,0:0:0:0:
186,305,9734,6,0,B|180:271|190:245|190:245|182:223|182:223|189:192|178:159,1,145.6,12|0,0:0|0:0,0:0:0:0:
379,61,10175,1,4,0:0:0:0:
361,286,10396,1,4,0:0:0:0:
244,53,10616,5,8,0:0:0:0:
435,185,10837,1,8,0:0:0:0:
230,282,11057,1,2,0:0:0:0:
230,282,11940,5,4,0:0:0:0:
77,167,12160,2,0,P|122:159|166:149,1,91,2|8,0:0|0:0,0:0:0:0:
310,19,12601,1,4,0:0:0:0:
386,225,12822,2,0,P|341:215|296:207,1,91,2|4,0:0|0:0,0:0:0:0:
77,167,13263,1,8,0:0:0:0:
224,372,13484,2,0,P|228:307|230:259,1,91,4|0,0:0|0:0,0:0:0:0:
195,21,13925,5,4,0:0:0:0:
65,175,14146,2,0,P|130:173|178:171,1,91,4|0,0:0|0:0,0:0:0:0:
356,129,14587,1,2,0:0:0:0:
89,67,14807,1,2,0:0:0:0:
259,203,15028,2,0,P|261:155|229:97,1,91,8|0,0:0|0:0,0:0:0:0:
34,329,15469,6,0,B|96:337|96:337|146:322|146:322|218:329,1,182,4|8,0:0|0:0,0:0:0:0:
396,244,16131,1,2,0:0:0:0:
231,125,16351,2,0,L|244:246,1,91,4|4,0:0|0:0,0:0:0:0:
398,325,16793,2,0,L|408:235,1,91,8|0,0:0|0:0,0:0:0:0:
336,24,17234,5,4,0:0:0:0:
54,118,17454,1,2,0:0:0:0:
277,313,17675,5,8,0:0:0:0:
163,0,17896,1,4,0:0:0:0:
400,148,18116,5,0,0:0:0:0:
177,248,18337,1,6,0:0:0:0:
286,194,18557,5,10,0:0:0:0:
390,351,18778,1,2,0:0:0:0:
184,132,18999,5,4,0:0:0:0:
98,359,19219,2,0,P|90:298|77:238,1,91,2|8,0:2|0:0,0:0:0:0:
31,60,19660,1,4,0:0:0:0:
219,136,19881,2,0,P|277:141|326:144,1,91,2|4,0:0|0:0,0:0:0:0:
477,214,20322,2,0,P|431:217|386:221,1,91,8|0,0:0|0:0,0:0:0:0:
99,260,20763,5,4,0:0:0:0:
361,324,20984,2,0,P|366:279|375:235,1,91,8|0,0:0|0:0,0:0:0:0:
194,376,21425,1,2,0:0:0:0:
229,126,21646,2,0,P|238:170|243:215,1,91,2|8,0:0|0:0,0:0:0:0:
372,62,22087,1,0,0:0:0:0:
192,0,22307,1,4,0:0:0:0:
46,240,22528,6,0,P|99:231|141:227,1,91,4|0,0:0|0:0,0:0:0:0:
349,176,22969,1,8,0:0:0:0:
198,21,23190,1,4,0:0:0:0:
266,272,23410,1,2,0:0:0:0:
325,46,23631,1,4,0:0:0:0:
107,117,23851,1,8,0:0:0:0:
107,117,24072,1,0,0:0:0:0:
396,181,24293,5,4,0:0:0:0:
118,262,24513,1,2,0:0:0:0:
335,32,24734,5,8,0:0:0:0:
270,303,24954,1,4,0:0:0:0:
197,67,25175,6,0,P|203:136|204:190,1,91,2|2,3:2|1:2,0:0:0:0:
363,270,25616,2,0,P|365:225|370:180,1,91,2|2,1:2|1:2,0:0:0:0:
138,270,26057,5,4,0:0:0:0:
360,356,26278,1,4,0:0:0:0:
275,129,26499,2,0,L|283:237,1,91,8|6,0:0|0:0,0:0:0:0:
110,342,26940,2,0,P|119:257|148:301,1,182,0|8,0:0|0:0,0:0:0:0:
406,334,27822,5,4,0:0:0:0:
310,115,28043,1,4,0:0:0:0:
258,349,28263,1,8,0:0:0:0:
438,189,28484,1,6,0:0:0:0:
197,212,28704,2,0,L|321:243,1,127.399996112061,0|8,0:0|0:0,0:0:0:0:
76,90,29587,6,0,P|82:133|85:174,1,63.6999980560303,4|0,0:0|0:0,0:0:0:0:
197,212,30028,2,0,P|200:180|204:148,1,63.6999980560303,4|0,0:0|0:0,0:0:0:0:
78,292,30469,6,0,B|136:289|196:330|196:330|250:289|323:288,1,254.799992224121,8|0,1:0|0:0,0:0:0:0:
437,72,31351,5,10,0:0:0:0:
174,140,31572,1,0,0:0:0:0:
475,175,31793,5,2,0:0:0:0:
135,50,32013,1,0,0:0:0:0:
322,276,32234,5,10,0:0:0:0:
303,91,32454,1,0,0:0:0:0:
85,179,32675,5,2,0:0:0:0:
375,163,32896,1,2,0:0:0:0:
271,365,33116,6,0,P|224:293|265:190,1,182,4|8,0:0|0:0,0:0:0:0:
437,74,33778,1,2,0:0:0:0:
413,276,33999,2,0,P|359:276|309:276,1,91,4|0,0:0|0:0,0:0:0:0:
114,239,34440,1,8,0:0:0:0:
232,123,34660,2,0,L|238:228,1,91,4|0,0:0|0:0,0:0:0:0:
145,362,35101,1,2,0:0:0:0:
24,329,35322,1,8,0:0:0:0:
67,82,35543,5,8,0:0:0:0:
248,30,35763,2,0,B|144:21|175:86|76:68,1,182,4|4,0:0|0:0,0:0:0:0:
114,239,36425,1,8,0:0:0:0:
232,124,36646,6,0,L|242:227,1,91,4|0,0:0|0:0,0:0:0:0:
370,373,37087,1,8,0:0:0:0:
363,131,37307,1,2,0:0:0:0:
148,255,37528,5,4,0:0:0:0:
368,256,37749,1,4,0:0:0:0:
256,61,37969,1,8,1:0:0:0:
256,61,38410,5,10,0:0:0:0:
177,366,38631,1,0,0:0:0:0:
117,54,38851,5,2,0:0:0:0:
304,309,39072,1,0,0:0:0:0:
23,156,39293,5,10,0:0:0:0:
338,173,39513,1,0,0:0:0:0:
46,294,39734,5,2,0:0:0:0:
256,61,39954,1,2,0:0:0:0:
256,192,40175,12,0,41940,0:0:0:0:
256,192,43263,12,0,45028,0:0:0:0:
