osu file format v14

[General]
AudioFilename: audio.mp3
AudioLeadIn: 0
PreviewTime: 11885
Countdown: 0
SampleSet: Soft
StackLeniency: 0.7
Mode: 0
LetterboxInBreaks: 0
WidescreenStoryboard: 0

[Editor]
DistanceSpacing: 1
BeatDivisor: 4
GridSize: 4
TimelineZoom: 1

[Metadata]
Title:Cookie-Butter-Choco-Cookie
TitleUnicode:クッキー・バター・チョコ・クッキー
Artist:Elmo and Cookie Monster
ArtistUnicode:エルモとクッキーモンスター
Creator:Monstrata
Version:Foxy's Hard
Source:セサミストリート
Tags:cbcc ppap pikotaro sesame street ozzyozrock ozzy irre irreversible nino snownino_ haruto haruto_aizawa haruto- sotarks linada red derandom otaku derandom_otaku Gero Foxy FoxyGrandpa Akitoshi Corinn Andrea osuplayer111 Deppyforce -_Rain_- Rain ascendance
BeatmapID:1149925
BeatmapSetID:542081

[Difficulty]
HPDrainRate:5
CircleSize:3.5
OverallDifficulty:6.5
ApproachRate:7.5
SliderMultiplier:1.7
SliderTickRate:1

[Events]
//Background and Video events
0,0,"thank+mr+monstrata.jpg",0,0
//Break Periods
//Storyboard Layer 0 (Background)
//Storyboard Layer 1 (Fail)
//Storyboard Layer 2 (Pass)
//Storyboard Layer 3 (Foreground)
//Storyboard Sound Samples

[TimingPoints]
1352,441.176470588235,4,2,0,60,1,0
6204,-66.6666666666667,4,2,0,60,0,0
6646,-100,4,2,0,60,0,0
8410,-76.9230769230769,4,2,0,60,0,0
9734,-66.6666666666667,4,2,0,60,0,0
11940,-100,4,2,0,60,0,0
16351,-76.9230769230769,4,2,0,60,0,0
18999,-100,4,2,0,60,0,0
23410,-71.4285714285714,4,2,0,60,0,0
31351,-100,4,2,0,70,0,1
36204,-62.5,4,2,0,70,0,1
37969,-100,4,2,0,40,0,0
38410,-100,4,2,0,60,0,1
40175,-100,4,2,0,40,0,0

[Colours]
Combo1 : 204,102,0
Combo2 : 255,85,85
Combo3 : 102,171,255
Combo4 : 255,255,83

[HitObjects]
139,71,1352,6,0,P|106:125|113:170,1,85
216,276,1793,2,0,P|249:222|242:177,1,85,2|0,0:0|0:0,0:0:0:0:
83,240,2234,2,0,P|50:294|57:339,1,85,2|0,0:0|0:0,0:0:0:0:
149,359,2675,1,0,0:0:0:0:
291,347,2896,6,0,P|313:310|318:268,1,85,2|0,0:0|0:0,0:0:0:0:
215,175,3337,1,2,0:0:0:0:
121,176,3557,1,2,0:0:0:0:
169,256,3778,1,2,0:0:0:0:
166,94,3999,5,2,0:0:0:0:
76,259,4219,1,2,0:0:0:0:
264,254,4440,1,2,0:0:0:0:
121,176,4660,1,2,0:0:0:0:
215,175,4881,6,0,B|267:175|299:155,1,85
396,76,5322,1,8,0:0:0:0:
494,128,5543,1,0,0:0:0:0:
408,197,5763,1,0,0:0:0:0:
510,241,5984,1,0,0:0:0:0:
472,340,6204,6,0,B|417:339|417:339|382:352|382:352|334:351,1,127.500004863739,8|0,0:0|0:0,0:0:0:0:
269,246,6646,5,0,0:0:0:0:
171,246,6866,1,0,0:0:0:0:
269,330,7087,1,8,0:0:0:0:
273,167,7307,1,0,0:0:0:0:
273,167,7749,2,0,P|236:112|199:97,1,85,0|8,0:0|0:0,0:0:0:0:
127,63,8190,1,0,0:0:0:0:
63,273,8410,6,0,P|140:271|172:244,1,110.499994941712
449,273,8851,2,0,P|372:271|340:244,1,110.499994941712,8|0,0:0|0:0,0:0:0:0:
257,295,9293,2,0,L|257:170,1,110.499994941712
316,86,9734,6,0,P|251:67|193:91,1,127.500004863739,8|0,0:0|0:0,0:0:0:0:
75,105,10175,5,2,0:0:0:0:
96,296,10395,1,2,0:0:0:0:
144,177,10616,1,10,0:0:0:0:
5,215,10837,1,10,0:0:0:0:
213,249,11057,1,10,0:0:0:0:
393,311,11940,6,0,P|415:268|402:200,1,85,0|0,0:0|0:0,0:0:0:0:
330,190,12381,1,8,0:0:0:0:
234,240,12601,1,0,0:0:0:0:
300,108,12822,1,0,0:0:0:0:
193,130,13043,1,0,0:0:0:0:
109,68,13263,2,0,P|88:104|89:146,1,85,8|0,0:0|0:0,0:0:0:0:
144,224,13704,1,0,0:0:0:0:
249,279,13925,5,0,0:0:0:0:
333,274,14146,1,8,0:0:0:0:
287,203,14366,1,0,0:0:0:0:
289,352,14587,1,0,0:0:0:0:
402,236,14807,1,0,0:0:0:0:
288,122,15028,1,8,0:0:0:0:
173,236,15249,1,0,0:0:0:0:
398,270,15469,6,0,P|431:245|451:207,1,85
341,58,15910,2,0,P|308:83|288:121,1,85,8|0,0:0|0:0,0:0:0:0:
439,333,16351,6,0,P|495:285|515:249,1,110.499994941712,2|0,0:0|0:0,0:0:0:0:
374,188,16793,1,8,0:0:0:0:
250,252,17013,1,0,0:0:0:0:
363,269,17234,5,2,0:0:0:0:
273,162,17454,1,2,0:0:0:0:
229,343,17675,1,10,0:0:0:0:
141,233,17896,1,2,0:0:0:0:
237,88,18116,2,0,P|304:85|341:117,1,110.499994941712,8|8,0:0|0:0,0:0:0:0:
462,290,18557,2,0,P|395:293|358:261,1,110.499994941712,8|8,0:0|0:0,0:0:0:0:
141,233,18999,6,0,P|208:236|245:204,1,85
122,83,19440,1,8,0:0:0:0:
205,143,19660,1,0,0:0:0:0:
390,83,19881,1,0,0:0:0:0:
307,143,20101,1,0,0:0:0:0:
351,233,20322,2,0,P|284:236|247:204,1,85,8|0,0:0|0:0,0:0:0:0:
50,187,20763,5,0,0:0:0:0:
143,186,20984,1,2,0:0:0:0:
142,25,21204,1,8,0:0:0:0:
96,106,21425,1,0,0:0:0:0:
234,187,21646,1,2,0:0:0:0:
188,106,21866,1,2,0:0:0:0:
95,261,22087,2,0,P|136:253|176:267,1,85,8|0,0:0|0:0,0:0:0:0:
294,240,22528,6,0,P|328:253|378:245,1,85
379,102,22969,1,8,0:0:0:0:
482,195,23190,1,0,0:0:0:0:
377,326,23410,6,0,P|282:318|255:304,1,118.999996368408,2|0,0:0|0:0,0:0:0:0:
114,357,23851,2,0,P|92:302|98:243,1,118.999996368408,8|0,0:0|0:0,0:0:0:0:
263,224,24293,5,2,0:0:0:0:
348,225,24513,1,2,0:0:0:0:
262,308,24734,1,10,0:0:0:0:
263,139,24954,1,2,0:0:0:0:
164,225,25175,5,8,0:0:0:0:
263,139,25396,1,8,0:0:0:0:
348,225,25616,1,8,0:0:0:0:
348,225,25837,1,8,0:0:0:0:
348,225,26057,6,0,P|381:164|378:113,1,118.999996368408,2|0,0:0|0:0,0:0:0:0:
164,225,26499,2,0,P|131:164|134:113,1,118.999996368408,2|0,0:0|0:0,0:0:0:0:
256,68,26940,1,2,0:0:0:0:
256,68,27381,1,2,0:0:0:0:
133,115,27822,6,0,P|133:174|164:225,1,118.999996368408,2|0,0:0|0:0,0:0:0:0:
378,115,28264,2,0,P|378:174|348:225,1,118.999996368408,2|0,0:0|0:0,0:0:0:0:
256,316,28704,1,2,0:0:0:0:
256,316,29145,1,2,0:0:0:0:
256,316,29587,6,0,P|156:188|183:137,1,237.999992736817,2|2,0:0|0:0,0:0:0:0:
340,64,30469,5,12,0:0:0:0:
340,64,31351,5,2,0:0:0:0:
429,119,31572,1,2,0:0:0:0:
339,170,31793,1,2,0:0:0:0:
419,27,32013,1,2,0:0:0:0:
420,204,32234,5,2,0:0:0:0:
267,121,32455,1,2,0:0:0:0:
496,64,32675,1,2,0:0:0:0:
383,277,32896,1,0,0:0:0:0:
309,47,33116,6,0,P|263:42|207:56,1,85,4|0,0:0|0:0,0:0:0:0:
60,96,33557,2,0,P|106:104|143:97,1,85,8|0,0:0|0:0,0:0:0:0:
305,162,33999,2,0,P|259:170|221:163,1,85
53,218,34440,2,0,P|99:226|136:219,1,85,8|0,0:0|0:0,0:0:0:0:
364,324,34881,5,0,0:0:0:0:
221,236,35101,1,0,0:0:0:0:
190,348,35322,1,8,0:0:0:0:
320,258,35543,1,0,0:0:0:0:
181,153,35763,2,0,P|148:179|137:219,1,85
190,348,36204,6,0,P|263:370|329:341,1,136,8|0,0:0|0:0,0:0:0:0:
255,271,36646,6,0,B|255:131,1,136,2|0,0:0|0:0,0:0:0:0:
177,278,37087,2,0,B|141:215|141:215|136:149,1,136,10|0,0:0|0:0,0:0:0:0:
335,278,37528,2,0,B|371:215|371:215|376:149,1,136,2|0,0:0|0:0,0:0:0:0:
277,92,37969,1,12,0:0:0:0:
277,92,38410,5,2,0:0:0:0:
375,151,38631,1,2,0:0:0:0:
315,249,38851,1,2,0:0:0:0:
217,190,39072,1,2,0:0:0:0:
349,81,39293,5,2,0:0:0:0:
385,223,39514,1,2,0:0:0:0:
242,259,39734,1,2,0:0:0:0:
206,116,39955,1,2,0:0:0:0:
256,192,40175,12,0,41940,0:0:0:0:
256,192,43263,12,0,45028,0:0:0:0:
