osu file format v14

[General]
AudioFilename: audio.mp3
AudioLeadIn: 0
PreviewTime: 11885
Countdown: 0
SampleSet: Soft
StackLeniency: 0.7
Mode: 0
LetterboxInBreaks: 0
WidescreenStoryboard: 0

[Editor]
DistanceSpacing: 1.4
BeatDivisor: 4
GridSize: 4
TimelineZoom: 1

[Metadata]
Title:Cookie-Butter-Choco-Cookie
TitleUnicode:クッキー・バター・チョコ・クッキー
Artist:Elmo and Cookie Monster
ArtistUnicode:エルモとクッキーモンスター
Creator:Monstrata
Version:Deppy's Normal
Source:セサミストリート
Tags:cbcc ppap pikotaro sesame street ozzyozrock ozzy irre irreversible nino snownino_ haruto haruto_aizawa haruto- sotarks linada red derandom otaku derandom_otaku Gero Foxy FoxyGrandpa Akitoshi Corinn Andrea osuplayer111 Deppyforce -_Rain_- Rain ascendance
BeatmapID:1153285
BeatmapSetID:542081

[Difficulty]
HPDrainRate:3
CircleSize:3.3
OverallDifficulty:4
ApproachRate:4.5
SliderMultiplier:1.11
SliderTickRate:1

[Events]
//Background and Video events
0,0,"thank+mr+monstrata.jpg",0,0
//Break Periods
//Storyboard Layer 0 (Background)
//Storyboard Layer 1 (Fail)
//Storyboard Layer 2 (Pass)
//Storyboard Layer 3 (Foreground)
//Storyboard Sound Samples

[TimingPoints]
1352,441.176470588235,4,2,0,70,1,0
1352,-101.010101010101,4,2,0,70,0,0
4881,-101.010101010101,4,3,0,60,0,0
9734,-101.010101010101,4,2,0,80,0,0
10175,-101.010101010101,4,3,0,60,0,0
26057,-101.010101010101,4,2,0,80,0,0
30469,-100,4,2,0,70,0,1
30579,-101.010101010101,4,2,0,6,0,0
31351,-101.010101010101,4,2,0,50,0,0
32234,-101.010101010101,4,2,0,75,0,0
33116,-101.010101010101,4,3,0,75,0,0
38410,-101.010101010101,4,3,0,35,0,0
38851,-101.010101010101,4,3,0,55,0,0
39293,-101.010101010101,4,3,0,75,0,0
39734,-101.010101010101,4,3,0,95,0,0
40175,-101.010101010101,4,2,0,25,0,0
41940,-101.010101010101,4,2,0,5,0,0

[Colours]
Combo1 : 204,102,0
Combo2 : 255,85,85
Combo3 : 102,171,255
Combo4 : 255,255,83

[HitObjects]
159,108,1352,6,0,B|213:111|213:111|261:83,2,109.889999664642,2|2|2,0:0|0:0|0:0,0:0:0:0:
17,48,2675,1,0,0:0:0:0:
17,48,2896,6,0,L|12:164,1,109.889999664642,2|2,0:0|0:0,0:0:0:0:
53,222,3557,2,0,L|55:276,2,54.9449998323212,2|0|10,0:0|0:0|0:0,0:0:0:0:
335,358,4881,6,0,P|389:364|436:338,1,109.889999664642,0|8,0:0|0:3,0:0:0:0:
468,267,5543,1,0,0:3:0:0:
443,194,5763,1,0,0:0:0:0:
294,235,6204,2,0,L|300:289,1,54.9449998323212,8|0,0:3|0:3,0:3:0:0:
335,358,6646,6,0,P|389:364|436:338,1,109.889999664642,0|8,0:0|0:3,0:0:0:0:
468,267,7307,2,0,B|483:185|483:185|470:105,1,164.834999496964,0|8,0:3|0:3,0:0:0:0:
406,60,8190,1,0,0:3:0:0:
336,27,8410,6,0,P|282:16|228:27,2,109.889999664642,2|2|2,0:2|0:2|0:2,0:0:0:0:
469,104,9734,1,10,0:3:0:0:
335,181,10175,6,0,B|279:184|279:184|229:164,1,109.889999664642,0|8,0:0|0:3,0:0:0:0:
171,113,10837,1,8,0:3:0:0:
153,38,11057,1,2,0:2:0:0:
47,332,11940,6,0,P|101:338|149:312,2,109.889999664642,0|10|0,0:0|0:0|0:0,0:0:0:0:
25,188,13263,1,8,0:0:0:0:
170,238,13704,6,0,P|223:244|271:218,2,109.889999664642,0|10|2,0:0|0:0|0:2,0:0:0:0:
102,201,14807,2,0,L|105:146,1,54.9449998323212,0|8,0:0|0:0,0:0:0:0:
256,108,15469,6,0,L|272:223,1,109.889999664642,0|8,0:0|0:0,0:0:0:0:
347,229,16131,1,0,0:0:0:0:
398,172,16351,2,0,B|413:118|413:118|405:65,1,109.889999664642,10|8,0:2|0:0,0:0:0:0:
256,108,17234,6,0,B|297:211|297:211|347:229,2,164.834999496964,2|2|8,0:0|0:0|0:0,0:0:0:0:
202,52,18778,1,0,0:0:0:0:
127,71,18999,6,0,P|74:58|41:15,2,109.889999664642,0|10|0,0:0|0:0|0:0,0:0:0:0:
266,6,20322,1,8,0:0:0:0:
294,157,20763,6,0,P|241:144|208:101,2,109.889999664642,0|10|2,0:0|0:0|0:2,0:0:0:0:
367,131,21866,2,0,L|359:76,1,54.9449998323212,0|8,0:0|0:0,0:0:0:0:
498,142,22528,6,0,L|495:251,1,109.889999664642,0|8,0:0|0:0,0:0:0:0:
442,308,23190,1,0,0:0:0:0:
374,344,23410,2,0,B|321:355|321:355|264:336,1,109.889999664642,10|8,0:2|0:0,0:0:0:0:
168,220,24293,6,0,P|105:258|150:317,1,164.834999496964,2|2,0:0|0:0,0:0:0:0:
218,280,25175,1,0,0:0:0:0:
149,141,25616,1,8,1:3:0:0:
149,141,25837,1,0,1:3:0:0:
149,141,26057,6,0,L|40:149,2,109.889999664642,0|0|0,3:0|3:0|3:0,3:0:0:0:
206,283,27381,1,0,0:0:0:0:
256,138,27822,6,0,L|256:29,2,109.889999664642,0|0|0,3:0|3:0|3:0,3:0:0:0:
306,283,29146,1,0,0:0:0:0:
363,141,29587,6,0,L|472:149,1,109.889999664642,0|0,3:0|3:0,3:0:0:0:
416,294,30469,2,0,L|360:302,1,55.5,6|0,0:0|0:0,0:0:0:0:
295,252,33116,6,0,B|242:267|242:267|189:255,1,109.889999664642,2|8,0:0|0:0,0:0:0:0:
116,228,33778,1,0,0:0:0:0:
40,241,33999,2,0,P|28:295|41:347,1,109.889999664642,2|8,0:0|0:0,0:0:0:0:
195,360,34881,6,0,P|204:306|188:254,1,109.889999664642,0|8,0:0|0:0,0:0:0:0:
116,228,35543,1,0,0:0:0:0:
40,241,35763,1,2,0:0:0:0:
125,112,36204,1,8,0:0:0:0:
188,254,36646,6,0,B|241:267|241:267|294:251,2,109.889999664642,2|8|2,0:0|0:0|0:0,0:0:0:0:
61,162,37969,1,4,0:2:0:0:
149,36,38410,6,0,P|202:25|252:45,1,109.889999664642
164,171,39293,2,0,P|111:181|61:162,1,109.889999664642
33,89,39954,1,0,0:0:0:0:
256,192,40175,12,0,41940,2:0:0:0:
256,192,43263,12,0,45028,0:0:0:0:
