osu file format v14

[General]
AudioFilename: audio.mp3
AudioLeadIn: 0
PreviewTime: 11885
Countdown: 0
SampleSet: Soft
StackLeniency: 0.7
Mode: 2
LetterboxInBreaks: 0
WidescreenStoryboard: 0

[Editor]
Bookmarks: 31351,33116,38410,39954
DistanceSpacing: 1
BeatDivisor: 4
GridSize: 8
TimelineZoom: 1

[Metadata]
Title:Cookie-Butter-Choco-Cookie
TitleUnicode:クッキー・バター・チョコ・クッキー
Artist:Elmo and Cookie Monster
ArtistUnicode:エルモとクッキーモンスター
Creator:Monstrata
Version:Ascendance's Rain
Source:セサミストリート
Tags:cbcc ppap pikotaro sesame street ozzyozrock ozzy irre irreversible nino snownino_ haruto haruto_aizawa haruto- sotarks linada red derandom otaku derandom_otaku Gero Foxy FoxyGrandpa Akitoshi Corinn Andrea osuplayer111 Deppyforce -_Rain_- Rain ascendance
BeatmapID:1207082
BeatmapSetID:542081

[Difficulty]
HPDrainRate:6
CircleSize:3
OverallDifficulty:9
ApproachRate:9
SliderMultiplier:2.2
SliderTickRate:2

[Events]
//Background and Video events
0,0,"thank+mr+monstrata.jpg",0,0
//Break Periods
//Storyboard Layer 0 (Background)
//Storyboard Layer 1 (Fail)
//Storyboard Layer 2 (Pass)
//Storyboard Layer 3 (Foreground)
//Storyboard Sound Samples

[TimingPoints]
1352,441.176470588235,4,2,0,70,1,0
3999,-100,4,2,0,70,0,0
4440,-100,4,2,0,70,0,0
4881,-100,4,3,0,60,0,0
8410,-100,4,3,0,60,0,0
9734,-100,4,2,0,80,0,0
10175,-100,4,3,0,60,0,0
11057,-100,4,3,0,60,0,0
11278,-100,4,3,0,25,0,0
11940,-100,4,3,0,60,0,0
26057,-100,4,2,0,80,0,0
27822,-100,4,2,0,80,0,0
28484,-100,4,2,0,80,0,0
30469,-100,4,2,0,80,0,0
30690,-100,4,2,0,5,0,0
31351,-100,4,2,0,50,0,1
31793,-100,4,2,0,50,0,1
32234,-100,4,2,0,75,0,1
32675,-100,4,2,0,75,0,1
33116,-100,4,3,0,75,0,0
38410,-100,4,3,0,35,0,1
38851,-100,4,3,0,55,0,1
39293,-100,4,3,0,75,0,1
39734,-100,4,3,0,95,0,1
39954,-100,4,3,0,95,0,0
40175,-100,4,2,0,25,0,0
41940,-100,4,2,0,5,0,0

[Colours]
Combo1 : 204,102,0
Combo2 : 255,85,85
Combo3 : 102,171,255
Combo4 : 255,255,83

[HitObjects]
184,312,1352,6,0,P|120:232|200:152,1,220,2|2,0:0|0:0,0:0:0:0:
392,40,2234,2,0,L|376:264,1,220,2|0,0:0|0:0,0:0:0:0:
193,258,2896,2,0,L|209:378,1,110,2|0,0:0|0:0,0:0:0:0:
416,192,3337,2,0,L|296:184,2,110,2|2|0,0:0|0:0|0:0,0:0:0:0:
104,120,3999,5,10,0:0:0:0:
264,118,4219,1,8,0:0:0:0:
104,120,4440,1,10,0:0:0:0:
456,120,4660,1,10,0:0:0:0:
304,72,4881,6,0,L|176:72,2,110,0|0|8,0:0|0:0|0:0,0:0:0:0:
136,144,5543,1,8,0:0:0:0:
139,198,5653,1,0,0:0:0:0:
143,253,5763,1,0,0:0:0:0:
280,312,5984,1,0,0:0:0:0:
120,336,6204,1,8,0:0:0:0:
432,208,6425,6,0,P|496:128|408:48,1,220,0|0,0:0|0:0,0:0:0:0:
312,8,7087,1,8,0:0:0:0:
152,64,7307,2,0,L|176:288,1,220,0|0,0:0|0:0,0:0:0:0:
343,331,7969,2,0,L|455:315,1,110,8|0,0:0|0:0,0:0:0:0:
88,264,8410,6,0,L|72:144,1,110,2|0,0:2|0:0,0:0:0:0:
168,80,8851,1,2,0:2:0:0:
288,160,9072,2,0,L|416:144,2,110,0|2|0,0:0|0:2|0:0,0:0:0:0:
104,184,9734,1,10,0:3:0:0:
464,288,9954,6,0,L|480:160,1,110,0|0,0:0|0:0,0:0:0:0:
376,112,10396,1,0,0:0:0:0:
64,64,10616,2,0,L|72:192,1,110,8|8,0:0|0:0,0:0:0:0:
368,248,11057,5,2,0:2:0:0:
240,184,11278,2,0,L|199:117,5,55,0|0|0|0|0|0,0:0|0:0|0:0|0:0|0:0|0:0,0:0:0:0:
440,72,11940,5,0,0:0:0:0:
312,160,12160,2,0,L|320:288,1,110,2|10,0:0|0:0,0:0:0:0:
440,72,12601,1,0,0:0:0:0:
144,40,12822,2,0,L|24:48,2,110,0|0|8,0:0|0:0|0:0,0:0:0:0:
288,80,13484,6,0,P|351:162|280:256,1,220,0|2,0:0|0:0,0:0:0:0:
64,320,14146,2,0,L|176:320,1,110,10|0,0:0|0:0,0:0:0:0:
472,184,14587,2,0,L|352:184,2,110,2|0|8,0:2|0:0|0:0,0:0:0:0:
312,136,15249,1,0,0:0:0:0:
168,88,15469,6,0,L|48:88,2,110,0|0|8,0:0|0:0|0:0,0:0:0:0:
304,88,16131,2,0,L|368:88,1,55,0|0,0:0|0:0,0:0:0:0:
128,328,16351,6,0,P|88:264|176:144,1,220,10|8,0:2|0:0,0:0:0:0:
328,136,17013,1,0,0:0:0:0:
32,72,17234,2,0,L|152:72,2,110,2|0|10,0:0|0:0|0:0,0:0:0:0:
328,48,17896,2,0,P|424:80|424:232,1,220,2|0,0:0|0:0,0:0:0:0:
256,136,18557,2,0,L|392:136,1,110,8|0,0:0|0:0,0:0:0:0:
192,200,18999,5,0,0:0:0:0:
352,344,19219,2,0,L|336:224,1,110,2|10,0:0|0:0,0:0:0:0:
136,304,19660,1,0,0:0:0:0:
456,176,19881,2,0,L|464:56,1,110,0|0,0:0|0:0,0:0:0:0:
328,24,20322,1,8,0:0:0:0:
192,24,20543,1,0,0:0:0:0:
328,104,20763,5,0,0:0:0:0:
144,104,20984,2,0,L|24:104,2,110,2|10|0,0:0|0:0|0:0,0:0:0:0:
488,240,21646,2,0,L|376:240,1,110,2|0,0:2|0:0,0:0:0:0:
248,248,22087,1,8,0:0:0:0:
408,176,22307,2,0,L|424:104,1,55,0|0,0:0|0:0,0:0:0:0:
192,80,22528,6,0,L|64:80,2,110,0|0|8,0:0|0:0|0:0,0:0:0:0:
32,128,23190,1,0,0:0:0:0:
416,320,23410,6,0,P|488:264|424:136,1,220,10|8,0:2|0:0,0:0:0:0:
328,120,24072,1,0,0:0:0:0:
24,80,24293,5,2,0:0:0:0:
168,80,24513,1,0,0:0:0:0:
24,80,24734,1,10,0:0:0:0:
408,80,24954,2,0,P|456:192|384:312,1,220,2|0,0:0|0:0,0:0:0:0:
232,336,25616,2,0,L|96:344,1,110,8|0,1:3|1:3,0:0:0:0:
472,208,26057,6,0,L|352:208,2,110,0|0|0,0:0|0:0|0:0,0:0:0:0:
112,32,26719,2,0,P|48:88|104:216,1,220,0|0,0:0|0:0,0:0:0:0:
240,256,27381,2,0,L|360:256,1,110,0|0,3:0|0:0,0:0:0:0:
32,320,27822,6,0,L|184:320,2,110,0|0|0,0:0|0:0|0:0,0:0:0:0:
400,264,28484,2,0,P|464:200|376:96,1,220,0|0,0:0|0:0,0:0:0:0:
272,48,29146,2,0,L|144:48,1,110,0|0,3:0|0:0,0:0:0:0:
320,136,29587,6,0,L|392:136,1,55,0|0,3:0|0:0,0:0:0:0:
192,240,29807,2,0,L|128:240,1,55,0|0,0:0|0:0,0:0:0:0:
384,136,30028,2,0,L|448:136,1,55,0|0,3:0|0:0,0:0:0:0:
128,240,30249,2,0,L|64:240,1,55,0|0,0:0|0:0,0:0:0:0:
464,312,30469,5,6,0:0:0:0:
216,312,31351,6,0,L|200:176,1,110,2|0,0:0|0:0,0:0:0:0:
384,72,31793,2,0,L|368:200,1,110,2|0,0:0|0:0,0:0:0:0:
48,40,32234,2,0,L|72:168,1,110,2|2,0:0|0:0,0:0:0:0:
464,200,32675,2,0,L|432:328,1,110,2|2,0:0|0:0,0:0:0:0:
96,344,33116,6,0,L|96:224,1,110,2|0,0:0|0:0,0:0:0:0:
240,160,33557,1,8,0:0:0:0:
96,96,33778,2,0,L|32:96,2,55,0|0|2,0:0|0:0|0:0,0:0:0:0:
240,40,34219,2,0,L|128:40,1,110,0|8,0:0|0:0,0:0:0:0:
320,40,34660,1,2,0:0:0:0:
144,144,34881,6,0,L|256:144,1,110
304,160,35212,1,0,0:0:0:0:
360,160,35322,1,8,0:0:0:0:
208,248,35543,2,0,L|80:248,2,110,0|2|0,0:0|0:0|0:0,0:0:0:0:
496,336,36204,2,0,L|384:336,1,110,8|0,0:0|0:0,0:0:0:0:
56,288,36646,6,0,L|48:160,1,110,2|0,0:0|0:0,0:0:0:0:
192,128,37087,1,8,0:0:0:0:
48,104,37307,2,0,L|40:40,1,55,0|0,0:0|0:0,0:0:0:0:
272,200,37528,2,0,L|400:192,1,110,2|0,0:0|0:0,0:0:0:0:
80,344,37969,6,0,L|64:160,1,165,4|0,0:2|0:0,0:0:0:0:
280,128,38410,6,0,L|400:112,1,110,2|2,0:2|0:2,0:0:0:0:
216,224,38851,2,0,L|96:200,1,110,2|2,0:2|0:2,0:0:0:0:
480,360,39293,2,0,L|488:224,1,110,2|2,0:2|0:2,0:0:0:0:
128,152,39734,1,2,0:2:0:0:
480,128,39954,1,2,0:2:0:0:
256,192,40175,12,0,41940,2:0:0:0:
