osu file format v14

[General]
AudioFilename: audio.mp3
AudioLeadIn: 0
PreviewTime: 11885
Countdown: 0
SampleSet: Soft
StackLeniency: 0.7
Mode: 0
LetterboxInBreaks: 0
WidescreenStoryboard: 0

[Editor]
Bookmarks: 11940,18999,40175,41940,43263,45028
DistanceSpacing: 1.4
BeatDivisor: 4
GridSize: 4
TimelineZoom: 1

[Metadata]
Title:Cookie-Butter-Choco-Cookie
TitleUnicode:クッキー・バター・チョコ・クッキー
Artist:Elmo and Cookie Monster
ArtistUnicode:エルモとクッキーモンスター
Creator:Monstrata
Version:Akitoshi's Hard
Source:セサミストリート
Tags:cbcc ppap pikotaro sesame street ozzyozrock ozzy irre irreversible nino snownino_ haruto haruto_aizawa haruto- sotarks linada red derandom otaku derandom_otaku Gero Foxy FoxyGrandpa Akitoshi Corinn Andrea osuplayer111 Deppyforce -_Rain_- Rain ascendance
BeatmapID:1149864
BeatmapSetID:542081

[Difficulty]
HPDrainRate:5
CircleSize:3.5
OverallDifficulty:6
ApproachRate:7
SliderMultiplier:1.5
SliderTickRate:1

[Events]
//Background and Video events
0,0,"thank+mr+monstrata.jpg",0,0
//Break Periods
//Storyboard Layer 0 (Background)
//Storyboard Layer 1 (Fail)
//Storyboard Layer 2 (Pass)
//Storyboard Layer 3 (Foreground)
//Storyboard Sound Samples

[TimingPoints]
1352,441.176470588235,4,2,0,70,1,0
4881,-100,4,3,0,60,0,0
9734,-100,4,2,0,80,0,0
10175,-100,4,3,0,60,0,0
16351,-90.9090909090909,4,3,0,60,0,0
17234,-100,4,3,0,60,0,0
23410,-90.9090909090909,4,3,0,60,0,0
24293,-100,4,3,0,60,0,0
26057,-111.111111111111,4,2,0,80,0,0
30469,-90.9090909090909,4,2,0,80,0,0
31351,-111.111111111111,4,2,0,50,0,0
32234,-111.111111111111,4,2,0,75,0,0
33116,-100,4,3,0,75,0,0
38410,-100,4,3,0,35,0,0
38851,-100,4,3,0,55,0,0
39293,-100,4,3,0,75,0,0
39734,-100,4,3,0,95,0,0
40175,-100,4,2,0,25,0,0
41940,-100,4,2,0,5,0,0

[Colours]
Combo1 : 204,102,0
Combo2 : 255,85,85
Combo3 : 102,171,255
Combo4 : 255,255,83

[HitObjects]
3,158,1352,6,0,L|110:149,1,75,2|0,0:0|0:0,0:0:0:0:
157,72,1793,2,0,L|264:63,1,75,2|0,0:0|0:0,0:0:0:0:
344,64,2234,2,0,P|376:138|358:216,1,150,2|0,0:0|0:0,0:0:0:0:
265,258,2896,6,0,B|211:255|164:228|164:228|158:180,1,150,2|0,0:0|0:0,0:0:0:0:
157,72,3557,1,2,0:0:0:0:
248,137,3778,1,0,0:0:0:0:
257,24,3999,1,10,0:0:0:0:
257,24,4219,1,8,0:0:0:0:
157,72,4440,1,10,0:0:0:0:
157,72,4660,1,10,0:0:0:0:
261,144,4881,6,0,L|342:139,1,75,0|0,0:0|0:0,0:0:0:0:
448,137,5322,1,8,0:0:0:0:
392,234,5543,1,0,0:0:0:0:
335,139,5763,2,0,L|327:32,1,75,0|0,0:0|0:0,0:0:0:0:
228,114,6204,2,0,L|236:221,1,75,8|0,0:0|0:0,0:0:0:0:
229,301,6646,6,0,P|161:322|85:270,1,150,0|8,0:0|0:0,0:0:0:0:
100,174,7307,2,0,P|168:153|244:205,1,150,0|0,0:0|0:0,0:0:0:0:
308,272,7969,1,8,0:0:0:0:
343,165,8190,1,0,0:0:0:0:
438,248,8410,6,0,L|443:329,1,75,2|0,0:2|0:0,0:0:0:0:
343,165,8851,2,0,L|348:84,1,75,2|0,0:2|0:0,0:0:0:0:
308,272,9293,2,0,L|313:353,1,75,2|0,0:2|0:0,0:0:0:0:
213,189,9734,2,0,L|218:108,1,75,10|0,0:3|0:0,0:0:0:0:
140,32,10175,5,0,0:0:0:0:
54,106,10396,1,0,0:0:0:0:
131,187,10616,1,8,0:0:0:0:
217,114,10837,1,8,0:0:0:0:
140,31,11057,1,2,0:2:0:0:
320,108,11940,6,0,L|407:104,1,75,0|2,0:0|0:0,0:0:0:0:
447,204,12381,2,0,L|360:208,1,75,10|0,0:0|0:0,0:0:0:0:
259,218,12822,1,0,0:0:0:0:
324,309,13043,1,0,0:0:0:0:
259,218,13263,2,0,P|217:210|170:221,1,75,8|0,0:0|0:0,0:0:0:0:
82,261,13704,6,0,P|73:217|80:172,1,75,0|2,0:0|0:0,0:0:0:0:
179,141,14146,2,0,P|188:185|181:230,1,75,10|0,0:0|0:0,0:0:0:0:
185,327,14587,1,2,0:2:0:0:
282,271,14807,1,0,0:0:0:0:
185,327,15028,2,0,L|93:338,1,75,8|0,0:0|0:0,0:0:0:0:
11,281,15469,6,0,B|5:244|5:244|11:194,1,75,0|0,0:0|0:0,0:0:0:0:
30,95,15910,1,8,0:0:0:0:
123,157,16131,1,0,0:0:0:0:
162,40,16351,2,0,P|225:24|328:90,1,165.000005035401,10|8,0:2|0:0,0:0:0:0:
220,149,17013,1,0,0:0:0:0:
331,165,17234,6,0,P|367:150|402:114,1,75,2|0,0:0|0:0,0:0:0:0:
448,27,17675,1,10,0:0:0:0:
506,123,17896,2,0,L|502:279,1,150,2|0,0:0|0:0,0:0:0:0:
427,356,18557,2,0,P|391:361|347:353,1,75,8|0,0:0|0:0,0:0:0:0:
276,271,18999,6,0,L|176:277,1,75,0|2,0:0|0:0,0:0:0:0:
147,176,19440,2,0,L|247:170,1,75,10|0,0:0|0:0,0:0:0:0:
334,162,19881,1,0,0:0:0:0:
271,69,20101,1,0,0:0:0:0:
221,171,20322,2,0,L|228:263,1,75,8|0,0:0|0:0,0:0:0:0:
340,237,20763,6,0,L|333:145,1,75,0|2,0:0|0:0,0:0:0:0:
380,59,21204,1,10,0:0:0:0:
445,150,21425,1,0,0:0:0:0:
491,47,21646,1,2,0:2:0:0:
380,59,21866,1,0,0:0:0:0:
445,150,22087,2,0,L|450:224,1,75,8|0,0:0|0:0,0:0:0:0:
403,327,22528,6,0,P|364:343|316:339,1,75,0|0,0:0|0:0,0:0:0:0:
242,274,22969,1,8,0:0:0:0:
344,227,23190,1,0,0:0:0:0:
247,150,23410,2,0,B|185:146|185:146|144:167|144:167|59:161,1,165.000005035401,10|8,0:2|0:0,0:0:0:0:
123,53,24072,1,0,0:0:0:0:
26,107,24293,6,0,P|8:139|9:190,1,75,2|0,0:0|0:0,0:0:0:0:
56,277,24734,1,10,0:0:0:0:
164,249,24954,2,0,P|256:243|338:244,1,150,2|0,0:0|0:0,0:0:0:0:
425,254,25616,1,8,1:3:0:0:
354,342,25837,1,0,1:3:0:0:
313,243,26057,5,0,3:0:0:0:
456,99,26499,1,0,3:0:0:0:
253,99,26940,1,0,3:0:0:0:
396,242,27381,1,0,3:0:0:0:
193,242,27822,5,0,3:0:0:0:
49,98,28263,1,0,3:0:0:0:
49,300,28704,1,0,3:0:0:0:
160,130,29146,1,0,3:0:0:0:
160,332,29587,5,0,3:0:0:0:
362,332,30028,1,0,3:0:0:0:
255,108,30469,1,6,0:0:0:0:
255,108,31351,5,2,0:0:0:0:
255,108,31572,1,0,0:0:0:0:
183,179,31793,1,2,0:0:0:0:
183,179,32014,1,0,0:0:0:0:
254,250,32234,1,2,0:0:0:0:
254,250,32455,1,2,0:0:0:0:
325,178,32675,1,2,0:0:0:0:
325,178,32896,1,2,0:0:0:0:
365,282,33116,6,0,L|439:278,1,75,2|0,0:0|0:0,0:0:0:0:
505,187,33557,1,8,0:0:0:0:
440,94,33778,2,0,P|387:62|286:80,1,150,0|0,0:0|0:0,0:0:0:0:
195,106,34440,2,0,L|192:27,1,75,8|2,0:0|0:0,0:0:0:0:
79,33,34881,6,0,L|82:112,1,75,0|2,0:0|0:0,0:0:0:0:
90,220,35322,1,8,0:0:0:0:
158,309,35543,2,0,P|239:320|312:260,1,150,0|0,0:0|0:0,0:0:0:0:
321,177,36204,1,8,0:0:0:0:
214,212,36425,1,0,0:0:0:0:
237,101,36646,6,0,L|243:19,1,75,2|0,0:0|0:0,0:0:0:0:
354,12,37087,1,8,0:0:0:0:
443,79,37307,2,0,P|468:151|446:241,1,150,0|0,0:0|0:0,0:0:0:0:
361,318,37969,1,4,0:2:0:0:
205,155,38410,5,2,0:2:0:0:
205,155,38631,1,2,0:2:0:0:
205,267,38851,1,2,0:2:0:0:
205,267,39072,1,2,0:2:0:0:
92,267,39293,1,2,0:2:0:0:
92,267,39514,1,2,0:2:0:0:
92,154,39734,1,2,0:2:0:0:
92,154,39955,1,2,0:2:0:0:
256,192,40175,12,0,41940,2:0:0:0:
256,192,43263,12,0,45028,0:0:0:0:
