osu file format v14

[General]
AudioFilename: audio.mp3
AudioLeadIn: 0
PreviewTime: 11885
Countdown: 0
SampleSet: Soft
StackLeniency: 0.7
Mode: 0
LetterboxInBreaks: 0
WidescreenStoryboard: 0

[Editor]
Bookmarks: 11940,18999,40175,41940,43263,45028
DistanceSpacing: 1.5
BeatDivisor: 4
GridSize: 4
TimelineZoom: 1

[Metadata]
Title:Cookie-Butter-Choco-Cookie
TitleUnicode:クッキー・バター・チョコ・クッキー
Artist:Elmo and Cookie Monster
ArtistUnicode:エルモとクッキーモンスター
Creator:Monstrata
Version:Hard
Source:セサミストリート
Tags:cbcc ppap pikotaro sesame street ozzyozrock ozzy irre irreversible nino snownino_ haruto haruto_aizawa haruto- sotarks linada red derandom otaku derandom_otaku Gero Foxy FoxyGrandpa Akitoshi Corinn Andrea osuplayer111 Deppyforce -_Rain_- Rain ascendance
BeatmapID:1153237
BeatmapSetID:542081

[Difficulty]
HPDrainRate:5
CircleSize:4
OverallDifficulty:7
ApproachRate:7.7
SliderMultiplier:1.4
SliderTickRate:1

[Events]
//Background and Video events
0,0,"thank+mr+monstrata.jpg",0,0
//Break Periods
//Storyboard Layer 0 (Background)
//Storyboard Layer 1 (Fail)
//Storyboard Layer 2 (Pass)
//Storyboard Layer 3 (Foreground)
//Storyboard Sound Samples

[TimingPoints]
1352,441.176470588235,4,2,0,70,1,0
4881,-100,4,3,0,60,0,0
9734,-100,4,2,0,80,0,0
10175,-100,4,3,0,60,0,0
17234,-100,4,3,0,60,0,0
24293,-100,4,3,0,60,0,0
26057,-111.111111111111,4,2,0,80,0,0
30469,-90.9090909090909,4,2,0,80,0,0
31351,-111.111111111111,4,2,0,50,0,0
32234,-111.111111111111,4,2,0,75,0,0
33116,-100,4,3,0,75,0,1
38410,-100,4,3,0,35,0,1
38851,-100,4,3,0,55,0,1
39293,-100,4,3,0,75,0,1
39734,-100,4,3,0,95,0,1
40175,-100,4,2,0,25,0,0
41940,-100,4,2,0,5,0,0

[Colours]
Combo1 : 204,102,0
Combo2 : 255,85,85
Combo3 : 102,171,255
Combo4 : 255,255,83

[HitObjects]
141,195,1352,6,0,L|148:264,1,70,2|0,0:0|0:0,0:0:0:0:
239,148,1793,2,0,L|231:217,1,70,2|0,0:0|0:0,0:0:0:0:
321,100,2234,2,0,L|337:247,1,140,2|0,0:0|0:0,0:0:0:0:
426,185,2896,2,0,L|410:332,1,140,2|2,0:0|0:0,0:0:0:0:
327,357,3557,1,2,0:0:0:0:
327,357,3778,1,0,0:0:0:0:
207,156,3999,5,10,0:0:0:0:
195,260,4219,1,8,0:0:0:0:
299,272,4440,1,10,0:0:0:0:
311,168,4660,1,10,0:0:0:0:
125,202,4881,6,0,P|103:269|153:341,1,140,8|8,0:0|0:0,0:0:0:0:
195,260,5543,1,0,0:0:0:0:
195,260,5763,2,0,P|262:242|327:292,1,140,8|8,0:0|0:0,0:0:0:0:
380,344,6425,2,0,P|410:283|388:219,1,140,8|0,0:0|0:0,0:0:0:0:
322,136,7087,1,8,0:0:0:0:
372,44,7307,2,0,L|467:38,1,70,8|0,0:0|0:0,0:0:0:0:
387,218,7749,1,0,0:0:0:0:
437,126,7969,2,0,L|532:120,1,70,8|0,0:0|0:0,0:0:0:0:
321,136,8410,6,0,P|286:131|252:136,1,70,2|0,0:2|0:0,0:0:0:0:
120,193,8851,2,0,P|155:197|190:193,1,70,2|0,0:2|0:0,0:0:0:0:
251,66,9293,2,0,L|252:160,1,70,2|0,0:2|0:0,0:0:0:0:
271,298,9734,2,0,L|270:228,1,70,10|0,0:3|0:0,0:0:0:0:
181,284,10175,5,0,0:0:0:0:
213,368,10396,1,0,0:0:0:0:
186,191,10616,1,8,0:0:0:0:
124,353,10837,1,8,0:0:0:0:
102,233,11057,1,2,0:2:0:0:
274,138,11940,6,0,L|350:134,1,70,0|2,0:0|0:0,0:0:0:0:
388,229,12381,2,0,L|318:232,1,70,10|0,0:0|0:0,0:0:0:0:
234,296,12822,1,0,0:0:0:0:
234,296,13043,1,0,0:0:0:0:
156,225,13263,1,8,0:0:0:0:
78,296,13484,1,0,0:0:0:0:
0,225,13704,6,0,P|-5:190|1:151,1,70,0|2,0:0|0:0,0:0:0:0:
71,78,14146,2,0,P|75:43|70:8,1,70,10|0,0:0|0:0,0:0:0:0:
157,138,14587,1,2,0:2:0:0:
157,138,14807,1,0,0:0:0:0:
248,85,15028,1,8,0:0:0:0:
314,166,15249,1,0,0:0:0:0:
405,113,15469,6,0,L|419:44,1,70,0|0,0:0|0:0,0:0:0:0:
485,180,15910,2,0,L|501:254,1,70,8|0,0:0|0:0,0:0:0:0:
406,374,16351,2,0,P|400:340|411:305,2,70,10|0|8,0:2|0:0|0:0,0:0:0:0:
82,310,17234,5,2,0:0:0:0:
223,226,17454,1,0,0:0:0:0:
59,209,17675,1,10,0:0:0:0:
182,318,17896,1,2,0:0:0:0:
146,157,18117,5,0,0:0:0:0:
138,240,18337,1,0,0:0:0:0:
222,248,18557,1,8,0:0:0:0:
230,165,18778,1,0,0:0:0:0:
314,173,18999,6,0,P|352:168|395:183,1,70,0|2,0:0|0:0,0:0:0:0:
413,275,19440,2,0,P|378:281|344:273,1,70,10|0,0:0|0:0,0:0:0:0:
485,199,19881,1,0,0:0:0:0:
485,199,20101,1,0,0:0:0:0:
456,97,20322,1,8,0:0:0:0:
382,175,20543,1,0,0:0:0:0:
413,275,20763,6,0,L|405:361,1,70,0|2,0:0|0:0,0:0:0:0:
289,232,21204,2,0,L|297:318,1,70,10|0,0:0|0:0,0:0:0:0:
382,175,21646,1,2,0:2:0:0:
382,175,21866,1,0,0:0:0:0:
288,128,22087,1,8,0:0:0:0:
359,51,22307,1,0,0:0:0:0:
265,4,22528,6,0,L|188:15,1,70,0|0,0:0|0:0,0:0:0:0:
66,90,22969,2,0,L|136:100,1,70,8|0,0:0|0:0,0:0:0:0:
221,241,23410,2,0,L|212:172,2,70,10|0|8,0:2|0:0|0:0,0:0:0:0:
481,23,24293,5,2,0:0:0:0:
443,120,24513,1,0,0:0:0:0:
345,81,24734,1,10,0:0:0:0:
307,178,24954,1,2,0:0:0:0:
167,81,25175,1,0,0:0:0:0:
205,178,25395,1,0,0:0:0:0:
171,58,25616,1,8,1:3:0:0:
150,239,25836,1,0,1:3:0:0:
283,164,26057,6,0,L|365:164,1,62.9999980773926,0|0,0:0|0:0,0:0:0:0:
266,238,26499,2,0,L|345:260,1,62.9999980773926,0|0,0:0|0:0,0:0:0:0:
230,306,26940,2,0,L|301:347,1,62.9999980773926,0|0,3:0|0:0,0:0:0:0:
177,363,27381,1,0,3:0:0:0:
0,161,27822,6,0,L|0:243,1,62.9999980773926,0|0,0:0|0:0,0:0:0:0:
74,144,28264,2,0,L|95:223,1,62.9999980773926,0|0,0:0|0:0,0:0:0:0:
142,108,28705,2,0,L|183:179,1,62.9999980773926,0|0,3:0|0:0,0:0:0:0:
199,55,29146,1,0,3:0:0:0:
455,47,29587,6,0,L|455:98,3,31.4999990386963,0|0|0|0,3:0|0:0|0:0|0:0,0:0:0:0:
382,85,30028,2,0,L|382:136,3,31.4999990386963,0|0|0|0,3:0|0:0|0:0|0:0,0:0:0:0:
309,123,30469,1,6,0:0:0:0:
309,123,31351,5,2,0:0:0:0:
279,208,31572,1,0,0:0:0:0:
364,238,31793,1,2,0:0:0:0:
394,153,32013,1,0,0:0:0:0:
220,139,32234,5,2,0:0:0:0:
206,313,32454,1,2,0:0:0:0:
380,327,32675,1,2,0:0:0:0:
394,153,32895,1,0,0:0:0:0:
300,233,33116,5,2,0:0:0:0:
243,143,33337,1,0,0:0:0:0:
161,208,33557,1,8,0:0:0:0:
104,118,33778,1,0,0:0:0:0:
34,291,33999,2,0,B|98:320|100:276|177:307,1,140,2|8,0:0|0:0,0:0:0:0:
292,364,34660,6,0,P|279:331|280:296,1,70,2|0,0:0|0:0,0:0:0:0:
340,210,35101,1,2,0:0:0:0:
382,306,35322,1,8,0:0:0:0:
461,237,35543,1,0,0:0:0:0:
503,333,35764,5,2,0:0:0:0:
477,143,35984,1,0,0:0:0:0:
382,306,36204,1,8,0:0:0:0:
356,116,36425,1,0,0:0:0:0:
261,279,36646,5,2,0:0:0:0:
242,175,36866,1,0,0:0:0:0:
213,340,37087,5,8,0:0:0:0:
243,168,37307,1,0,0:0:0:0:
290,352,37528,5,2,0:0:0:0:
244,161,37749,1,0,0:0:0:0:
150,384,37969,5,4,0:2:0:0:
91,163,38410,5,2,0:2:0:0:
123,263,38631,1,2,0:2:0:0:
236,120,38851,1,2,0:2:0:0:
204,220,39072,1,2,0:2:0:0:
317,77,39293,1,2,0:2:0:0:
349,177,39514,1,2,0:2:0:0:
375,13,39734,1,2,0:2:0:0:
291,241,39954,1,2,0:2:0:0:
256,192,40175,12,0,41940,2:0:0:0:
256,192,43263,12,0,45028,0:0:0:0:
