osu file format v14

[General]
AudioFilename: audio.mp3
AudioLeadIn: 0
PreviewTime: 11885
Countdown: 0
SampleSet: Soft
StackLeniency: 0.7
Mode: 0
LetterboxInBreaks: 0
WidescreenStoryboard: 0

[Editor]
DistanceSpacing: 1.5
BeatDivisor: 4
GridSize: 4
TimelineZoom: 1

[Metadata]
Title:Cookie-Butter-Choco-Cookie
TitleUnicode:クッキー・バター・チョコ・クッキー
Artist:Elmo and Cookie Monster
ArtistUnicode:エルモとクッキーモンスター
Creator:Monstrata
Version:Cookie-Triangle-Spicy-Cookie
Source:セサミストリート
Tags:cbcc ppap pikotaro sesame street ozzyozrock ozzy irre irreversible nino snownino_ haruto haruto_aizawa haruto- sotarks linada red derandom otaku derandom_otaku Gero Foxy FoxyGrandpa Akitoshi Corinn Andrea osuplayer111 Deppyforce -_Rain_- Rain ascendance
BeatmapID:1373950
BeatmapSetID:542081

[Difficulty]
HPDrainRate:6
CircleSize:4
OverallDifficulty:9
ApproachRate:8.3
SliderMultiplier:2
SliderTickRate:1

[Events]
//Background and Video events
0,0,"thank+mr+monstrata.jpg",0,0
//Break Periods
//Storyboard Layer 0 (Background)
//Storyboard Layer 1 (Fail)
//Storyboard Layer 2 (Pass)
//Storyboard Layer 3 (Foreground)
//Storyboard Sound Samples

[TimingPoints]
1352,441.176470588235,4,2,0,70,1,0
4881,-100,4,3,0,60,0,0
8410,-83.3333333333333,4,3,0,60,0,0
8741,-83.3333333333333,4,3,0,5,0,0
8851,-83.3333333333333,4,3,0,60,0,0
9182,-83.3333333333333,4,3,0,5,0,0
9293,-83.3333333333333,4,3,0,60,0,0
9624,-83.3333333333333,4,3,0,5,0,0
9734,-71.4285714285714,4,2,0,80,0,0
10175,-100,4,3,0,60,0,0
16351,-76.9230769230769,4,3,0,60,0,0
16793,-100,4,3,0,60,0,0
23410,-76.9230769230769,4,3,0,60,0,0
23851,-100,4,3,0,60,0,0
24293,-100,4,3,0,60,0,0
26057,-100,4,2,0,80,0,0
30690,-100,4,2,0,5,0,0
31351,-100,4,2,0,50,0,0
32234,-100,4,2,0,75,0,0
33116,-100,4,3,0,75,0,1
38410,-100,4,3,0,35,0,1
38851,-100,4,3,0,55,0,1
39293,-100,4,3,0,75,0,1
39734,-100,4,3,0,95,0,1
40175,-100,4,2,0,25,0,0
41940,-100,4,2,0,5,0,0

[Colours]
Combo1 : 204,102,0
Combo2 : 255,85,85
Combo3 : 102,171,255
Combo4 : 255,255,83

[HitObjects]
154,231,1352,6,0,L|165:330,1,100,2|0,0:0|0:0,0:0:0:0:
373,196,1793,2,0,L|362:296,1,100,2|0,0:0|0:0,0:0:0:0:
199,142,2234,2,0,P|245:124|294:132,1,100,2|0,0:0|0:0,0:0:0:0:
142,60,2675,1,0,0:0:0:0:
59,240,2896,6,0,P|108:248|154:231,1,100,2|0,0:0|0:0,0:0:0:0:
242,51,3337,1,2,0:0:0:0:
100,152,3557,1,2,0:0:0:0:
342,42,3778,1,0,0:0:0:0:
41,69,3999,5,10,0:0:0:0:
212,313,4219,1,8,0:0:0:0:
142,60,4440,1,10,0:0:0:0:
112,322,4660,1,10,0:0:0:0:
184,129,4881,5,0,0:0:0:0:
238,290,5101,1,0,0:0:0:0:
278,54,5322,1,8,0:0:0:0:
368,280,5543,1,0,0:0:0:0:
351,161,5763,1,8,0:0:0:0:
238,290,5983,1,0,0:0:0:0:
278,54,6204,1,8,0:0:0:0:
368,280,6425,6,0,P|432:288|478:263,2,100
278,54,7087,1,8,0:0:0:0:
484,177,7307,2,0,L|461:282,1,100
291,144,7749,1,0,0:0:0:0:
471,87,7969,1,8,0:0:0:0:
278,54,8190,1,0,0:0:0:0:
123,327,8410,6,0,B|190:313|190:313|302:349,1,179.999994506836,2|0,0:2|2:0,0:0:0:0:
328,271,8851,2,0,P|266:270|219:373,1,179.999994506836,2|0,0:2|2:0,0:0:0:0:
377,337,9293,2,0,L|333:125,1,179.999994506836,2|0,0:2|2:0,0:0:0:0:
462,225,9734,6,0,L|501:35,1,139.999995727539,10|0,0:3|0:0,0:0:0:0:
219,87,10175,5,0,0:0:0:0:
243,184,10396,1,0,0:0:0:0:
292,18,10616,5,8,0:0:0:0:
146,156,10837,1,8,0:0:0:0:
338,213,11057,1,2,0:2:0:0:
344,243,11940,5,0,0:0:0:0:
118,103,12160,1,2,0:0:0:0:
276,317,12381,1,10,0:0:0:0:
314,147,12601,1,0,0:0:0:0:
180,347,12822,1,10,3:0:0:0:
216,125,13043,1,0,0:0:0:0:
344,243,13263,1,8,0:0:0:0:
381,72,13484,2,0,L|270:47,1,100
276,317,13925,5,2,0:0:0:0:
479,187,14146,1,10,0:0:0:0:
222,233,14366,1,0,0:0:0:0:
458,285,14587,1,2,0:2:0:0:
244,135,14807,1,0,0:0:0:0:
374,339,15028,1,8,0:0:0:0:
334,146,15249,1,0,0:0:0:0:
200,330,15469,6,0,P|151:341|103:329,1,100
326,250,15910,2,0,P|374:239|423:251,1,100,8|0,0:0|0:0,0:0:0:0:
166,121,16351,6,0,B|139:160|139:160|153:241,1,129.999994049073,10|0,0:2|0:0,0:0:0:0:
326,346,16793,38,0,P|338:298|326:250,1,100,8|0,0:0|0:0,0:0:0:0:
93,65,17234,21,2,0:0:0:0:
213,322,17454,1,0,0:0:0:0:
193,40,17675,1,10,0:0:0:0:
114,335,17896,1,2,0:0:0:0:
298,273,18116,1,0,0:0:0:0:
153,145,18337,5,0,0:0:0:0:
183,233,18557,1,8,0:0:0:0:
153,145,18778,1,0,0:0:0:0:
114,335,18999,1,0,0:0:0:0:
359,145,19219,5,2,0:0:0:0:
183,233,19440,1,10,0:0:0:0:
370,242,19660,1,0,0:0:0:0:
206,31,19881,1,0,0:0:0:0:
275,256,20101,1,0,0:0:0:0:
299,56,20322,1,8,0:0:0:0:
183,233,20543,2,0,P|208:250|294:250,1,100
397,43,20984,5,2,0:0:0:0:
253,152,21204,1,10,0:0:0:0:
299,56,21425,1,0,0:0:0:0:
298,360,21646,1,2,0:2:0:0:
359,145,21866,1,0,0:0:0:0:
192,367,22087,1,8,0:0:0:0:
253,152,22307,1,0,0:0:0:0:
408,312,22528,6,0,P|453:331|502:326,1,100
347,137,22969,2,0,P|297:132|252:151,1,100,8|0,0:0|0:0,0:0:0:0:
329,384,23410,6,0,B|371:352|371:352|388:165,1,194.999991073609,10|0,0:2|2:2,0:0:0:0:
260,229,23851,2,0,L|269:328,1,100,8|0,0:0|0:0,0:0:0:0:
432,140,24293,5,2,0:0:0:0:
178,286,24513,1,0,0:0:0:0:
340,97,24734,1,10,0:0:0:0:
269,328,24954,1,2,0:0:0:0:
423,39,25175,5,0,0:0:0:0:
260,229,25396,1,0,0:0:0:0:
351,271,25616,1,8,1:3:0:0:
342,172,25837,1,0,1:3:0:0:
269,328,26057,5,0,0:0:0:0:
271,340,26278,1,0,0:0:0:0:
273,352,26499,1,0,0:0:0:0:
275,364,26719,1,0,0:0:0:0:
277,376,26940,1,0,3:0:0:0:
377,60,27381,1,0,3:0:0:0:
54,132,27822,5,0,0:0:0:0:
47,159,28043,1,0,0:0:0:0:
40,186,28263,1,0,0:0:0:0:
33,213,28484,1,0,0:0:0:0:
26,240,28704,1,0,3:0:0:0:
312,18,29146,1,0,3:0:0:0:
361,376,29587,6,0,L|350:304,3,50,0|0|0|0,3:0|0:0|0:0|0:0,0:0:0:0:
270,264,30028,2,0,L|262:313,3,50,0|0|0|0,3:0|0:0|0:0|0:0,0:0:0:0:
369,247,30469,2,0,L|246:269,1,100,6|0,0:0|0:0,0:0:0:0:
216,127,31351,5,2,0:0:0:0:
191,232,31572,1,0,0:0:0:0:
321,152,31793,1,2,0:0:0:0:
296,257,32014,1,0,0:0:0:0:
132,94,32234,5,2,0:0:0:0:
158,315,32455,1,2,0:0:0:0:
353,68,32676,1,2,0:0:0:0:
379,289,32897,1,2,0:0:0:0:
231,15,33116,5,2,0:0:0:0:
144,257,33337,1,0,0:0:0:0:
397,211,33557,1,8,0:0:0:0:
170,91,33778,1,0,0:0:0:0:
179,347,33999,1,2,0:0:0:0:
266,105,34219,1,0,0:0:0:0:
12,150,34440,1,8,0:0:0:0:
239,271,34660,1,2,0:0:0:0:
231,13,34881,5,0,0:0:0:0:
144,257,35101,1,2,0:0:0:0:
400,212,35322,1,8,0:0:0:0:
170,91,35543,1,0,0:0:0:0:
373,303,35763,1,2,0:0:0:0:
328,30,35984,1,0,0:0:0:0:
215,364,36204,1,8,0:0:0:0:
400,212,36425,1,0,0:0:0:0:
73,74,36646,5,2,0:0:0:0:
373,303,36866,1,0,0:0:0:0:
231,11,37087,1,8,0:0:0:0:
215,364,37307,1,0,0:0:0:0:
385,81,37528,1,2,0:0:0:0:
61,296,37749,1,0,0:0:0:0:
512,192,37969,1,4,0:2:0:0:
179,169,38410,5,2,0:2:0:0:
333,215,38631,1,2,0:2:0:0:
121,274,38851,5,2,0:2:0:0:
390,109,39072,1,2,0:2:0:0:
30,124,39293,5,2,0:2:0:0:
481,259,39514,1,2,0:2:0:0:
0,315,39734,5,2,0:2:0:0:
512,69,39954,1,2,0:2:0:0:
256,192,40175,12,0,41940,2:0:0:0:
256,192,43263,12,0,45028,0:0:0:0:
