osu file format v14

[General]
AudioFilename: audio.mp3
AudioLeadIn: 0
PreviewTime: -1
Countdown: 1
SampleSet: Soft
StackLeniency: 0.7
Mode: 3
LetterboxInBreaks: 0
SpecialStyle: 0
WidescreenStoryboard: 0

[Editor]
DistanceSpacing: 0.8
BeatDivisor: 8
GridSize: 16
TimelineZoom: 1

[Metadata]
Title:Migraine (feat. Anna Yvette)
TitleUnicode:Migraine (feat. Anna Yvette)
Artist:Ellis
ArtistUnicode:Ellis
Creator:[ Kuke ]
Version:my first
Source:
Tags:
BeatmapID:1926296
BeatmapSetID:922432

[Difficulty]
HPDrainRate:8
CircleSize:4
OverallDifficulty:8
ApproachRate:5
SliderMultiplier:0.7
SliderTickRate:1

[Events]
//Background and Video events
//Break Periods
//Storyboard Layer 0 (Background)
//Storyboard Layer 1 (Fail)
//Storyboard Layer 2 (Pass)
//Storyboard Layer 3 (Foreground)
//Storyboard Layer 4 (Overlay)
//Storyboard Sound Samples

[TimingPoints]
-434.329545454546,476.190476190476,4,2,0,100,1,0

[HitObjects]
51,192,2176,5,0,0:0:0:0:
51,192,2652,1,0,0:0:0:0:
51,192,3128,1,0,0:0:0:0:
51,192,3604,1,0,0:0:0:0:
448,192,4080,128,0,11580:0:0:0:0:
320,192,5033,1,0,0:0:0:0:
192,192,5509,1,0,0:0:0:0:
320,192,5985,1,0,0:0:0:0:
320,192,6461,1,0,0:0:0:0:
192,192,6938,1,0,0:0:0:0:
192,192,7414,1,0,0:0:0:0:
320,192,7771,1,0,0:0:0:0:
192,192,7890,1,0,0:0:0:0:
64,192,8009,1,0,0:0:0:0:
192,192,8128,1,0,0:0:0:0:
320,192,8247,1,0,0:0:0:0:
320,192,8842,1,0,0:0:0:0:
320,192,9319,1,0,0:0:0:0:
192,192,9795,1,0,0:0:0:0:
192,192,10271,1,0,0:0:0:0:
320,192,10747,1,0,0:0:0:0:
320,192,11223,1,0,0:0:0:0:
320,192,11700,1,0,0:0:0:0:
192,192,11759,1,0,0:0:0:0:
64,192,11819,1,0,0:0:0:0:
192,192,11878,1,0,0:0:0:0:
320,192,11997,1,0,0:0:0:0:
448,192,12057,1,0,0:0:0:0:
64,192,12235,1,0,0:0:0:0:
192,192,12295,1,0,0:0:0:0:
320,192,12354,1,0,0:0:0:0:
448,192,12414,1,0,0:0:0:0:
64,192,13128,1,0,0:0:0:0:
192,192,13188,1,0,0:0:0:0:
448,192,13426,1,0,0:0:0:0:
320,192,13485,1,0,0:0:0:0:
192,192,13545,1,0,0:0:0:0:
64,192,13604,1,0,0:0:0:0:
64,192,13902,1,0,0:0:0:0:
192,192,13961,1,0,0:0:0:0:
320,192,14021,1,0,0:0:0:0:
448,192,14080,128,0,15033:0:0:0:0:
320,192,15092,1,0,0:0:0:0:
192,192,15152,1,0,0:0:0:0:
64,192,15211,1,0,0:0:0:0:
64,192,16045,1,0,0:0:0:0:
192,192,16283,1,0,0:0:0:0:
320,192,16700,128,0,18069:0:0:0:0:
448,192,17235,128,0,18069:0:0:0:0:
320,192,18366,1,0,0:0:0:0:
448,192,18366,1,0,0:0:0:0:
192,192,18604,1,0,0:0:0:0:
64,192,18604,1,0,0:0:0:0:
320,192,18842,1,0,0:0:0:0:
448,192,18842,1,0,0:0:0:0:
192,192,19080,1,0,0:0:0:0:
64,192,19080,1,0,0:0:0:0:
448,192,19378,128,0,21461:0:0:0:0:
64,192,19854,1,0,0:0:0:0:
192,192,19973,1,0,0:0:0:0:
320,192,20092,1,0,0:0:0:0:
192,192,20211,1,0,0:0:0:0:
64,192,20330,1,0,0:0:0:0:
192,192,20450,1,0,0:0:0:0:
320,192,20569,1,0,0:0:0:0:
192,192,20747,1,0,0:0:0:0:
64,192,20985,1,0,0:0:0:0:
192,192,21223,1,0,0:0:0:0:
320,192,21461,1,0,0:0:0:0:
448,192,21700,1,0,0:0:0:0:
320,192,21938,1,0,0:0:0:0:
192,192,22176,1,0,0:0:0:0:
192,192,22354,1,0,0:0:0:0:
192,192,22533,1,0,0:0:0:0:
192,192,22711,1,0,0:0:0:0:
64,192,23128,1,0,0:0:0:0:
192,192,23188,1,0,0:0:0:0:
320,192,23247,1,0,0:0:0:0:
448,192,23307,1,0,0:0:0:0:
448,192,23604,1,0,0:0:0:0:
320,192,23723,1,0,0:0:0:0:
192,192,23842,1,0,0:0:0:0:
64,192,23961,1,0,0:0:0:0:
64,192,24080,1,0,0:0:0:0:
192,192,24259,1,0,0:0:0:0:
320,192,24497,1,0,0:0:0:0:
448,192,24795,1,0,0:0:0:0:
320,192,25033,1,0,0:0:0:0:
192,192,25211,1,0,0:0:0:0:
64,192,25509,1,0,0:0:0:0:
192,192,25747,1,0,0:0:0:0:
320,192,25985,1,0,0:0:0:0:
320,192,26104,1,0,0:0:0:0:
320,192,26223,1,0,0:0:0:0:
320,192,26342,1,0,0:0:0:0:
320,192,26461,1,0,0:0:0:0:
448,192,26938,1,0,0:0:0:0:
320,192,26997,1,0,0:0:0:0:
192,192,27057,1,0,0:0:0:0:
64,192,27116,1,0,0:0:0:0:
64,192,27414,1,0,0:0:0:0:
192,192,27533,1,0,0:0:0:0:
320,192,27652,1,0,0:0:0:0:
448,192,27771,1,0,0:0:0:0:
320,192,27890,1,0,0:0:0:0:
192,192,28009,1,0,0:0:0:0:
64,192,28307,1,0,0:0:0:0:
192,192,28604,1,0,0:0:0:0:
320,192,28604,1,0,0:0:0:0:
448,192,28604,1,0,0:0:0:0:
64,192,28842,1,0,0:0:0:0:
192,192,29021,1,0,0:0:0:0:
320,192,29200,1,0,0:0:0:0:
448,192,29378,1,0,0:0:0:0:
320,192,29557,1,0,0:0:0:0:
192,192,29795,1,0,0:0:0:0:
192,192,29973,1,0,0:0:0:0:
192,192,30152,1,0,0:0:0:0:
192,192,30330,1,0,0:0:0:0:
320,192,30747,1,0,0:0:0:0:
192,192,30747,1,0,0:0:0:0:
64,192,30747,1,0,0:0:0:0:
448,192,31223,1,0,0:0:0:0:
320,192,31342,1,0,0:0:0:0:
192,192,31461,1,0,0:0:0:0:
64,192,31580,1,0,0:0:0:0:
192,192,31759,1,0,0:0:0:0:
192,192,31878,1,0,0:0:0:0:
192,192,32116,1,0,0:0:0:0:
192,192,32354,1,0,0:0:0:0:
448,192,32652,1,0,0:0:0:0:
320,192,32890,1,0,0:0:0:0:
192,192,33128,1,0,0:0:0:0:
64,192,33366,1,0,0:0:0:0:
64,192,33604,1,0,0:0:0:0:
64,192,33783,1,0,0:0:0:0:
64,192,33961,1,0,0:0:0:0:
64,192,34140,1,0,0:0:0:0:
192,192,34557,1,0,0:0:0:0:
320,192,34557,1,0,0:0:0:0:
448,192,34557,1,0,0:0:0:0:
64,192,34557,1,0,0:0:0:0:
64,192,35033,1,0,0:0:0:0:
192,192,35033,1,0,0:0:0:0:
320,192,35033,1,0,0:0:0:0:
448,192,35033,1,0,0:0:0:0:
64,192,35509,1,0,0:0:0:0:
192,192,35509,1,0,0:0:0:0:
320,192,35509,1,0,0:0:0:0:
448,192,35509,1,0,0:0:0:0:
64,192,35985,1,0,0:0:0:0:
192,192,35985,1,0,0:0:0:0:
320,192,35985,1,0,0:0:0:0:
448,192,35985,1,0,0:0:0:0:
448,192,36461,1,0,0:0:0:0:
448,192,36580,1,0,0:0:0:0:
448,192,36700,1,0,0:0:0:0:
448,192,36819,1,0,0:0:0:0:
448,192,36938,1,0,0:0:0:0:
448,192,37057,1,0,0:0:0:0:
448,192,37176,1,0,0:0:0:0:
448,192,37295,1,0,0:0:0:0:
448,192,37414,1,0,0:0:0:0:
448,192,37533,1,0,0:0:0:0:
448,192,37652,1,0,0:0:0:0:
448,192,37771,1,0,0:0:0:0:
448,192,37890,1,0,0:0:0:0:
64,192,38366,1,0,0:0:0:0:
64,192,38485,1,0,0:0:0:0:
64,192,38604,1,0,0:0:0:0:
64,192,38723,1,0,0:0:0:0:
64,192,38842,1,0,0:0:0:0:
64,192,38961,1,0,0:0:0:0:
64,192,39080,1,0,0:0:0:0:
64,192,39200,1,0,0:0:0:0:
64,192,39319,1,0,0:0:0:0:
64,192,39438,1,0,0:0:0:0:
64,192,39557,1,0,0:0:0:0:
64,192,39676,1,0,0:0:0:0:
64,192,39795,1,0,0:0:0:0:
448,192,40271,1,0,0:0:0:0:
448,192,40390,1,0,0:0:0:0:
448,192,40509,1,0,0:0:0:0:
448,192,40628,1,0,0:0:0:0:
448,192,40747,1,0,0:0:0:0:
448,192,40866,1,0,0:0:0:0:
448,192,40985,1,0,0:0:0:0:
448,192,41104,1,0,0:0:0:0:
448,192,41223,1,0,0:0:0:0:
448,192,41342,1,0,0:0:0:0:
448,192,41461,1,0,0:0:0:0:
448,192,41580,1,0,0:0:0:0:
448,192,41700,1,0,0:0:0:0:
448,192,42176,1,0,0:0:0:0:
192,192,42176,1,0,0:0:0:0:
320,192,42533,1,0,0:0:0:0:
64,192,42533,1,0,0:0:0:0:
192,192,42890,1,0,0:0:0:0:
448,192,42890,1,0,0:0:0:0:
320,192,43128,1,0,0:0:0:0:
64,192,43128,1,0,0:0:0:0:
192,192,43485,1,0,0:0:0:0:
448,192,43485,1,0,0:0:0:0:
64,192,43842,1,0,0:0:0:0:
320,192,43842,1,0,0:0:0:0:
192,192,44140,1,0,0:0:0:0:
448,192,44140,1,0,0:0:0:0:
64,192,44497,1,0,0:0:0:0:
320,192,44497,1,0,0:0:0:0:
192,192,44795,1,0,0:0:0:0:
448,192,44795,1,0,0:0:0:0:
64,192,45092,1,0,0:0:0:0:
192,192,45092,1,0,0:0:0:0:
320,192,45390,1,0,0:0:0:0:
448,192,45390,1,0,0:0:0:0:
64,192,45747,1,0,0:0:0:0:
192,192,45747,1,0,0:0:0:0:
320,192,45985,1,0,0:0:0:0:
448,192,45985,1,0,0:0:0:0:
64,192,46342,1,0,0:0:0:0:
192,192,46342,1,0,0:0:0:0:
320,192,46700,1,0,0:0:0:0:
448,192,46700,1,0,0:0:0:0:
192,192,47116,1,0,0:0:0:0:
64,192,47116,1,0,0:0:0:0:
320,192,47176,1,0,0:0:0:0:
448,192,47176,1,0,0:0:0:0:
192,192,47235,1,0,0:0:0:0:
64,192,47235,1,0,0:0:0:0:
320,192,47295,1,0,0:0:0:0:
448,192,47295,1,0,0:0:0:0:
192,192,47354,1,0,0:0:0:0:
64,192,47354,1,0,0:0:0:0:
320,192,47414,1,0,0:0:0:0:
448,192,47414,1,0,0:0:0:0:
64,192,47473,1,0,0:0:0:0:
192,192,47473,1,0,0:0:0:0:
320,192,47533,1,0,0:0:0:0:
448,192,47533,1,0,0:0:0:0:
64,192,47592,1,0,0:0:0:0:
192,192,47592,1,0,0:0:0:0:
320,192,47652,1,0,0:0:0:0:
448,192,47652,1,0,0:0:0:0:
64,192,47950,1,0,0:0:0:0:
192,192,47950,1,0,0:0:0:0:
320,192,47950,1,0,0:0:0:0:
448,192,47950,1,0,0:0:0:0:
64,192,49795,1,0,0:0:0:0:
192,192,49795,1,0,0:0:0:0:
320,192,49795,1,0,0:0:0:0:
448,192,49795,1,0,0:0:0:0:
64,192,50271,1,0,0:0:0:0:
192,192,50390,1,0,0:0:0:0:
320,192,50509,1,0,0:0:0:0:
448,192,50628,1,0,0:0:0:0:
64,192,50747,1,0,0:0:0:0:
192,192,50866,1,0,0:0:0:0:
320,192,50985,1,0,0:0:0:0:
448,192,51104,1,0,0:0:0:0:
448,192,51223,1,0,0:0:0:0:
320,192,51342,1,0,0:0:0:0:
192,192,51521,1,0,0:0:0:0:
64,192,51700,1,0,0:0:0:0:
192,192,51700,1,0,0:0:0:0:
320,192,51700,1,0,0:0:0:0:
192,192,51938,1,0,0:0:0:0:
192,192,52176,1,0,0:0:0:0:
320,192,52176,1,0,0:0:0:0:
448,192,52176,1,0,0:0:0:0:
320,192,52414,1,0,0:0:0:0:
192,192,52414,1,0,0:0:0:0:
192,192,52652,1,0,0:0:0:0:
448,192,52652,1,0,0:0:0:0:
64,192,52830,1,0,0:0:0:0:
192,192,52830,1,0,0:0:0:0:
320,192,52830,1,0,0:0:0:0:
64,192,53009,1,0,0:0:0:0:
320,192,53009,1,0,0:0:0:0:
448,192,53009,1,0,0:0:0:0:
64,192,53188,1,0,0:0:0:0:
192,192,53188,1,0,0:0:0:0:
64,192,53604,1,0,0:0:0:0:
192,192,53604,1,0,0:0:0:0:
320,192,53604,1,0,0:0:0:0:
448,192,53604,1,0,0:0:0:0:
64,192,54080,1,0,0:0:0:0:
320,192,54200,1,0,0:0:0:0:
192,192,54319,1,0,0:0:0:0:
448,192,54438,1,0,0:0:0:0:
64,192,54438,1,0,0:0:0:0:
320,192,54616,1,0,0:0:0:0:
448,192,54735,1,0,0:0:0:0:
192,192,54854,1,0,0:0:0:0:
64,192,54973,1,0,0:0:0:0:
320,192,55152,1,0,0:0:0:0:
448,192,55152,1,0,0:0:0:0:
448,192,55330,1,0,0:0:0:0:
192,192,55330,1,0,0:0:0:0:
64,192,55569,1,0,0:0:0:0:
192,192,55569,1,0,0:0:0:0:
192,192,55807,1,0,0:0:0:0:
320,192,55807,1,0,0:0:0:0:
448,192,55807,1,0,0:0:0:0:
64,192,55985,1,0,0:0:0:0:
320,192,55985,1,0,0:0:0:0:
192,192,56223,1,0,0:0:0:0:
320,192,56223,1,0,0:0:0:0:
448,192,56223,1,0,0:0:0:0:
320,192,56402,1,0,0:0:0:0:
64,192,56402,1,0,0:0:0:0:
448,192,56580,1,0,0:0:0:0:
64,192,56580,1,0,0:0:0:0:
192,192,56580,1,0,0:0:0:0:
448,192,56759,1,0,0:0:0:0:
192,192,56759,1,0,0:0:0:0:
64,192,56938,1,0,0:0:0:0:
320,192,56938,1,0,0:0:0:0:
448,192,56938,1,0,0:0:0:0:
448,192,57414,1,0,0:0:0:0:
320,192,57414,1,0,0:0:0:0:
192,192,57414,1,0,0:0:0:0:
64,192,57414,1,0,0:0:0:0:
448,192,57890,1,0,0:0:0:0:
192,192,57890,1,0,0:0:0:0:
320,192,58009,1,0,0:0:0:0:
192,192,58128,1,0,0:0:0:0:
64,192,58128,1,0,0:0:0:0:
448,192,58128,1,0,0:0:0:0:
192,192,58247,1,0,0:0:0:0:
320,192,58366,1,0,0:0:0:0:
448,192,58485,1,0,0:0:0:0:
64,192,58485,1,0,0:0:0:0:
320,192,58604,1,0,0:0:0:0:
192,192,58723,1,0,0:0:0:0:
448,192,58723,1,0,0:0:0:0:
320,192,58842,1,0,0:0:0:0:
64,192,59021,1,0,0:0:0:0:
448,192,59021,1,0,0:0:0:0:
64,192,59319,1,0,0:0:0:0:
192,192,59319,1,0,0:0:0:0:
320,192,59319,1,0,0:0:0:0:
448,192,59557,1,0,0:0:0:0:
320,192,59557,1,0,0:0:0:0:
64,192,59795,1,0,0:0:0:0:
448,192,59795,1,0,0:0:0:0:
192,192,59795,1,0,0:0:0:0:
192,192,60033,1,0,0:0:0:0:
320,192,60033,1,0,0:0:0:0:
64,192,60271,1,0,0:0:0:0:
192,192,60271,1,0,0:0:0:0:
64,192,60450,1,0,0:0:0:0:
192,192,60450,1,0,0:0:0:0:
64,192,60628,1,0,0:0:0:0:
192,192,60628,1,0,0:0:0:0:
64,192,60807,1,0,0:0:0:0:
192,192,60807,1,0,0:0:0:0:
192,192,61223,1,0,0:0:0:0:
320,192,61223,1,0,0:0:0:0:
448,192,61223,1,0,0:0:0:0:
448,192,61700,1,0,0:0:0:0:
192,192,61700,1,0,0:0:0:0:
64,192,61700,1,0,0:0:0:0:
320,192,61819,1,0,0:0:0:0:
192,192,61938,1,0,0:0:0:0:
448,192,61938,1,0,0:0:0:0:
320,192,62176,1,0,0:0:0:0:
64,192,62176,1,0,0:0:0:0:
448,192,62176,1,0,0:0:0:0:
192,192,62354,1,0,0:0:0:0:
320,192,62533,1,0,0:0:0:0:
64,192,62533,1,0,0:0:0:0:
192,192,62890,1,0,0:0:0:0:
64,192,62890,1,0,0:0:0:0:
320,192,63128,1,0,0:0:0:0:
448,192,63128,1,0,0:0:0:0:
320,192,63604,1,0,0:0:0:0:
448,192,63604,1,0,0:0:0:0:
320,192,64080,1,0,0:0:0:0:
448,192,64080,1,0,0:0:0:0:
320,192,64557,1,0,0:0:0:0:
448,192,64557,1,0,0:0:0:0:
64,192,65033,1,0,0:0:0:0:
192,192,65033,1,0,0:0:0:0:
320,192,65033,1,0,0:0:0:0:
448,192,65033,1,0,0:0:0:0:
64,192,65509,1,0,0:0:0:0:
320,192,65509,1,0,0:0:0:0:
192,192,65628,1,0,0:0:0:0:
448,192,65628,1,0,0:0:0:0:
320,192,65747,1,0,0:0:0:0:
64,192,65747,1,0,0:0:0:0:
320,192,65985,1,0,0:0:0:0:
448,192,65985,1,0,0:0:0:0:
192,192,66104,1,0,0:0:0:0:
64,192,66164,1,0,0:0:0:0:
320,192,66164,1,0,0:0:0:0:
448,192,66461,1,0,0:0:0:0:
192,192,66461,1,0,0:0:0:0:
320,192,66461,1,0,0:0:0:0:
192,192,66700,1,0,0:0:0:0:
64,192,66819,1,0,0:0:0:0:
448,192,66819,1,0,0:0:0:0:
320,192,66938,1,0,0:0:0:0:
448,192,67176,1,0,0:0:0:0:
192,192,67176,1,0,0:0:0:0:
64,192,67414,1,0,0:0:0:0:
320,192,67414,1,0,0:0:0:0:
448,192,67414,1,0,0:0:0:0:
192,192,67592,1,0,0:0:0:0:
320,192,67592,1,0,0:0:0:0:
64,192,67890,1,0,0:0:0:0:
320,192,67890,1,0,0:0:0:0:
192,192,68009,1,0,0:0:0:0:
320,192,68009,1,0,0:0:0:0:
448,192,68128,1,0,0:0:0:0:
192,192,68128,1,0,0:0:0:0:
64,192,68128,1,0,0:0:0:0:
192,192,68247,1,0,0:0:0:0:
448,192,68247,1,0,0:0:0:0:
320,192,68247,1,0,0:0:0:0:
64,192,68366,1,0,0:0:0:0:
320,192,68366,1,0,0:0:0:0:
192,192,68842,1,0,0:0:0:0:
64,192,68842,1,0,0:0:0:0:
320,192,68842,1,0,0:0:0:0:
448,192,69319,1,0,0:0:0:0:
320,192,69438,1,0,0:0:0:0:
192,192,69557,1,0,0:0:0:0:
64,192,69676,1,0,0:0:0:0:
192,192,69795,1,0,0:0:0:0:
320,192,69795,1,0,0:0:0:0:
448,192,69795,1,0,0:0:0:0:
64,192,69914,1,0,0:0:0:0:
192,192,69914,1,0,0:0:0:0:
320,192,69914,1,0,0:0:0:0:
192,192,70211,1,0,0:0:0:0:
320,192,70211,1,0,0:0:0:0:
64,192,70509,1,0,0:0:0:0:
192,192,70509,1,0,0:0:0:0:
448,192,70509,1,0,0:0:0:0:
64,192,70747,1,0,0:0:0:0:
192,192,70747,1,0,0:0:0:0:
320,192,70747,1,0,0:0:0:0:
192,192,70985,1,0,0:0:0:0:
320,192,70985,1,0,0:0:0:0:
320,192,71223,1,0,0:0:0:0:
64,192,71223,1,0,0:0:0:0:
448,192,71461,1,0,0:0:0:0:
192,192,71461,1,0,0:0:0:0:
320,192,71461,1,0,0:0:0:0:
64,192,71700,1,0,0:0:0:0:
192,192,71700,1,0,0:0:0:0:
64,192,71878,1,0,0:0:0:0:
192,192,71878,1,0,0:0:0:0:
64,192,72057,1,0,0:0:0:0:
192,192,72057,1,0,0:0:0:0:
64,192,72235,1,0,0:0:0:0:
192,192,72235,1,0,0:0:0:0:
64,192,72652,1,0,0:0:0:0:
192,192,72711,1,0,0:0:0:0:
320,192,72771,1,0,0:0:0:0:
448,192,72830,1,0,0:0:0:0:
448,192,73128,1,0,0:0:0:0:
320,192,73247,1,0,0:0:0:0:
192,192,73366,1,0,0:0:0:0:
64,192,73485,1,0,0:0:0:0:
192,192,73604,1,0,0:0:0:0:
320,192,73604,1,0,0:0:0:0:
448,192,73604,1,0,0:0:0:0:
448,192,73783,1,0,0:0:0:0:
64,192,73783,1,0,0:0:0:0:
320,192,73961,1,0,0:0:0:0:
448,192,73961,1,0,0:0:0:0:
320,192,74319,1,0,0:0:0:0:
192,192,74319,1,0,0:0:0:0:
64,192,74319,1,0,0:0:0:0:
448,192,74557,1,0,0:0:0:0:
320,192,74557,1,0,0:0:0:0:
192,192,74557,1,0,0:0:0:0:
64,192,74735,1,0,0:0:0:0:
320,192,74735,1,0,0:0:0:0:
192,192,74854,1,0,0:0:0:0:
320,192,74973,1,0,0:0:0:0:
64,192,74973,1,0,0:0:0:0:
448,192,74973,1,0,0:0:0:0:
320,192,75271,1,0,0:0:0:0:
320,192,75509,1,0,0:0:0:0:
448,192,75509,1,0,0:0:0:0:
192,192,75509,1,0,0:0:0:0:
64,192,75509,1,0,0:0:0:0:
64,192,75688,1,0,0:0:0:0:
192,192,75688,1,0,0:0:0:0:
320,192,75688,1,0,0:0:0:0:
448,192,75688,1,0,0:0:0:0:
448,192,75866,1,0,0:0:0:0:
320,192,75866,1,0,0:0:0:0:
192,192,75866,1,0,0:0:0:0:
64,192,75866,1,0,0:0:0:0:
64,192,76045,1,0,0:0:0:0:
320,192,76045,1,0,0:0:0:0:
192,192,76045,1,0,0:0:0:0:
448,192,76045,1,0,0:0:0:0:
64,192,76461,1,0,0:0:0:0:
192,192,76461,1,0,0:0:0:0:
320,192,76461,1,0,0:0:0:0:
448,192,76938,1,0,0:0:0:0:
192,192,77057,1,0,0:0:0:0:
64,192,77057,1,0,0:0:0:0:
448,192,77176,1,0,0:0:0:0:
320,192,77235,1,0,0:0:0:0:
64,192,77235,1,0,0:0:0:0:
320,192,77414,1,0,0:0:0:0:
192,192,77533,1,0,0:0:0:0:
64,192,77652,1,0,0:0:0:0:
320,192,77652,1,0,0:0:0:0:
448,192,77652,1,0,0:0:0:0:
192,192,77830,1,0,0:0:0:0:
320,192,77830,1,0,0:0:0:0:
448,192,77830,1,0,0:0:0:0:
448,192,78128,1,0,0:0:0:0:
64,192,78128,1,0,0:0:0:0:
192,192,78128,1,0,0:0:0:0:
448,192,78366,1,0,0:0:0:0:
320,192,78545,1,0,0:0:0:0:
192,192,78723,1,0,0:0:0:0:
64,192,78902,1,0,0:0:0:0:
320,192,79080,1,0,0:0:0:0:
64,192,79080,1,0,0:0:0:0:
192,192,79080,1,0,0:0:0:0:
192,192,79319,1,0,0:0:0:0:
320,192,79319,1,0,0:0:0:0:
448,192,79319,1,0,0:0:0:0:
192,192,79497,1,0,0:0:0:0:
320,192,79497,1,0,0:0:0:0:
448,192,79497,1,0,0:0:0:0:
192,192,79676,1,0,0:0:0:0:
320,192,79676,1,0,0:0:0:0:
448,192,79676,1,0,0:0:0:0:
192,192,79854,1,0,0:0:0:0:
448,192,79854,1,0,0:0:0:0:
320,192,79854,1,0,0:0:0:0:
448,192,80271,128,0,84021:0:0:0:0:
320,192,80271,128,0,84021:0:0:0:0:
192,192,80271,128,0,84021:0:0:0:0:
64,192,84557,1,0,0:0:0:0:
192,192,84557,1,0,0:0:0:0:
448,192,84557,1,0,0:0:0:0:
192,192,84735,1,0,0:0:0:0:
448,192,84735,1,0,0:0:0:0:
320,192,84735,1,0,0:0:0:0:
448,192,84914,1,0,0:0:0:0:
64,192,84914,1,0,0:0:0:0:
320,192,84914,1,0,0:0:0:0:
64,192,85509,1,0,0:0:0:0:
192,192,85509,1,0,0:0:0:0:
320,192,85747,128,0,85985:0:0:0:0:
448,192,85747,128,0,85985:0:0:0:0:
64,192,85985,1,0,0:0:0:0:
192,192,85985,1,0,0:0:0:0:
64,192,86461,128,0,86759:0:0:0:0:
192,192,86461,128,0,86759:0:0:0:0:
320,192,86759,128,0,87354:0:0:0:0:
448,192,86759,128,0,87354:0:0:0:0:
192,192,86938,1,0,0:0:0:0:
64,192,87116,1,0,0:0:0:0:
64,192,87354,1,0,0:0:0:0:
192,192,87354,1,0,0:0:0:0:
64,192,87890,1,0,0:0:0:0:
320,192,87890,1,0,0:0:0:0:
448,192,87950,1,0,0:0:0:0:
192,192,88009,1,0,0:0:0:0:
192,192,88366,1,0,0:0:0:0:
320,192,88366,1,0,0:0:0:0:
64,192,88842,1,0,0:0:0:0:
192,192,88842,1,0,0:0:0:0:
320,192,88842,1,0,0:0:0:0:
448,192,88961,1,0,0:0:0:0:
320,192,89080,1,0,0:0:0:0:
64,192,89140,1,0,0:0:0:0:
448,192,89259,1,0,0:0:0:0:
192,192,89259,1,0,0:0:0:0:
448,192,89438,1,0,0:0:0:0:
64,192,89497,1,0,0:0:0:0:
320,192,89497,1,0,0:0:0:0:
192,192,89497,1,0,0:0:0:0:
64,192,89795,128,0,90211:0:0:0:0:
192,192,90211,128,0,90688:0:0:0:0:
64,192,90688,1,0,0:0:0:0:
320,192,90688,128,0,91164:0:0:0:0:
192,192,90926,1,0,0:0:0:0:
192,192,91164,1,0,0:0:0:0:
448,192,91164,128,0,91640:0:0:0:0:
64,192,91164,1,0,0:0:0:0:
320,192,91402,1,0,0:0:0:0:
192,192,91402,1,0,0:0:0:0:
320,192,91640,1,0,0:0:0:0:
192,192,91640,1,0,0:0:0:0:
64,192,91640,1,0,0:0:0:0:
64,192,92176,1,0,0:0:0:0:
448,192,92295,1,0,0:0:0:0:
192,192,92473,1,0,0:0:0:0:
320,192,92652,1,0,0:0:0:0:
192,192,92771,128,0,93128:0:0:0:0:
448,192,92771,1,0,0:0:0:0:
448,192,93128,1,0,0:0:0:0:
320,192,93128,1,0,0:0:0:0:
64,192,93128,1,0,0:0:0:0:
192,192,93426,1,0,0:0:0:0:
64,192,93426,1,0,0:0:0:0:
320,192,93485,1,0,0:0:0:0:
448,192,93545,1,0,0:0:0:0:
64,192,93545,1,0,0:0:0:0:
192,192,93604,128,0,94080:0:0:0:0:
320,192,93604,128,0,94080:0:0:0:0:
64,192,94080,1,0,0:0:0:0:
448,192,94080,1,0,0:0:0:0:
64,192,94319,128,0,94497:0:0:0:0:
448,192,94319,128,0,94497:0:0:0:0:
192,192,94497,128,0,94973:0:0:0:0:
320,192,94497,128,0,94973:0:0:0:0:
64,192,94973,1,0,0:0:0:0:
448,192,94973,1,0,0:0:0:0:
192,192,95271,1,0,0:0:0:0:
320,192,95390,1,0,0:0:0:0:
448,192,95509,1,0,0:0:0:0:
192,192,95509,1,0,0:0:0:0:
64,192,95509,1,0,0:0:0:0:
320,192,95688,1,0,0:0:0:0:
448,192,95807,1,0,0:0:0:0:
64,192,95807,1,0,0:0:0:0:
192,192,95807,1,0,0:0:0:0:
320,192,95866,1,0,0:0:0:0:
448,192,95926,1,0,0:0:0:0:
320,192,95985,1,0,0:0:0:0:
192,192,96045,1,0,0:0:0:0:
320,192,96223,1,0,0:0:0:0:
64,192,96223,1,0,0:0:0:0:
448,192,96342,1,0,0:0:0:0:
192,192,96402,1,0,0:0:0:0:
320,192,96402,1,0,0:0:0:0:
64,192,96521,1,0,0:0:0:0:
192,192,96640,1,0,0:0:0:0:
320,192,96640,1,0,0:0:0:0:
448,192,96640,1,0,0:0:0:0:
320,192,96759,1,0,0:0:0:0:
64,192,96759,1,0,0:0:0:0:
64,192,96938,128,0,97354:0:0:0:0:
448,192,96938,128,0,97354:0:0:0:0:
320,192,96938,128,0,97354:0:0:0:0:
192,192,97354,128,0,97830:0:0:0:0:
320,192,97830,128,0,98307:0:0:0:0:
64,192,97830,128,0,98307:0:0:0:0:
192,192,98307,128,0,98961:0:0:0:0:
448,192,98307,128,0,98961:0:0:0:0:
320,192,98664,128,0,98961:0:0:0:0:
64,192,99319,1,0,0:0:0:0:
192,192,99319,1,0,0:0:0:0:
320,192,99319,1,0,0:0:0:0:
448,192,99795,1,0,0:0:0:0:
192,192,99795,1,0,0:0:0:0:
320,192,99854,1,0,0:0:0:0:
192,192,99914,1,0,0:0:0:0:
64,192,99973,1,0,0:0:0:0:
448,192,99973,1,0,0:0:0:0:
320,192,100092,1,0,0:0:0:0:
448,192,100271,1,0,0:0:0:0:
64,192,100271,1,0,0:0:0:0:
192,192,100330,1,0,0:0:0:0:
448,192,100390,1,0,0:0:0:0:
320,192,100390,1,0,0:0:0:0:
64,192,100747,1,0,0:0:0:0:
192,192,100747,1,0,0:0:0:0:
320,192,100747,1,0,0:0:0:0:
64,192,101223,1,0,0:0:0:0:
192,192,101223,1,0,0:0:0:0:
320,192,101283,1,0,0:0:0:0:
448,192,101342,1,0,0:0:0:0:
320,192,101402,1,0,0:0:0:0:
192,192,101461,1,0,0:0:0:0:
64,192,101521,1,0,0:0:0:0:
192,192,101580,1,0,0:0:0:0:
448,192,101640,1,0,0:0:0:0:
320,192,101700,1,0,0:0:0:0:
192,192,101759,1,0,0:0:0:0:
192,192,101938,1,0,0:0:0:0:
320,192,101938,1,0,0:0:0:0:
64,192,101938,1,0,0:0:0:0:
192,192,102473,1,0,0:0:0:0:
320,192,102473,1,0,0:0:0:0:
448,192,102473,1,0,0:0:0:0:
64,192,102652,1,0,0:0:0:0:
192,192,102652,1,0,0:0:0:0:
320,192,102652,1,0,0:0:0:0:
192,192,102950,1,0,0:0:0:0:
320,192,102950,1,0,0:0:0:0:
448,192,102950,1,0,0:0:0:0:
320,192,103069,1,0,0:0:0:0:
64,192,103069,1,0,0:0:0:0:
64,192,103604,1,0,0:0:0:0:
192,192,103604,1,0,0:0:0:0:
320,192,103604,1,0,0:0:0:0:
192,192,103783,1,0,0:0:0:0:
320,192,103783,1,0,0:0:0:0:
448,192,103783,1,0,0:0:0:0:
192,192,104557,1,0,0:0:0:0:
320,192,104557,1,0,0:0:0:0:
448,192,104557,1,0,0:0:0:0:
64,192,105033,1,0,0:0:0:0:
192,192,105033,1,0,0:0:0:0:
448,192,105033,1,0,0:0:0:0:
192,192,105509,1,0,0:0:0:0:
320,192,105509,1,0,0:0:0:0:
448,192,105509,1,0,0:0:0:0:
192,192,105747,1,0,0:0:0:0:
64,192,105747,1,0,0:0:0:0:
192,192,106342,1,0,0:0:0:0:
320,192,106342,1,0,0:0:0:0:
64,192,106461,1,0,0:0:0:0:
192,192,106461,1,0,0:0:0:0:
448,192,106461,1,0,0:0:0:0:
192,192,106700,1,0,0:0:0:0:
320,192,106700,1,0,0:0:0:0:
448,192,106700,1,0,0:0:0:0:
320,192,106938,1,0,0:0:0:0:
448,192,106938,1,0,0:0:0:0:
64,192,106938,128,0,108842:0:0:0:0:
192,192,107414,1,0,0:0:0:0:
320,192,107414,1,0,0:0:0:0:
448,192,107414,1,0,0:0:0:0:
192,192,107652,1,0,0:0:0:0:
320,192,107652,1,0,0:0:0:0:
320,192,108366,1,0,0:0:0:0:
448,192,108366,1,0,0:0:0:0:
192,192,108842,1,0,0:0:0:0:
320,192,108842,1,0,0:0:0:0:
448,192,108842,128,0,110152:0:0:0:0:
192,192,109319,1,0,0:0:0:0:
320,192,109319,1,0,0:0:0:0:
64,192,109557,1,0,0:0:0:0:
192,192,109557,1,0,0:0:0:0:
192,192,110152,1,0,0:0:0:0:
320,192,110152,1,0,0:0:0:0:
64,192,110271,1,0,0:0:0:0:
320,192,110271,1,0,0:0:0:0:
448,192,110271,1,0,0:0:0:0:
192,192,110518,1,0,0:0:0:0:
320,192,110518,1,0,0:0:0:0:
448,192,110518,1,0,0:0:0:0:
192,192,110756,1,0,0:0:0:0:
320,192,110756,1,0,0:0:0:0:
64,192,110756,1,0,0:0:0:0:
64,192,111232,1,0,0:0:0:0:
192,192,111232,1,0,0:0:0:0:
320,192,111232,1,0,0:0:0:0:
448,192,111232,1,0,0:0:0:0:
192,192,112184,1,0,0:0:0:0:
320,192,112184,1,0,0:0:0:0:
448,192,112184,1,0,0:0:0:0:
192,192,112660,1,0,0:0:0:0:
448,192,112660,1,0,0:0:0:0:
320,192,112660,1,0,0:0:0:0:
192,192,112660,128,0,113970:0:0:0:0:
320,192,112660,128,0,113970:0:0:0:0:
448,192,112660,128,0,113970:0:0:0:0:
192,192,114089,1,0,0:0:0:0:
320,192,114089,1,0,0:0:0:0:
448,192,114089,1,0,0:0:0:0:
64,192,114565,1,0,0:0:0:0:
320,192,114565,1,0,0:0:0:0:
192,192,114565,1,0,0:0:0:0:
448,192,114684,1,0,0:0:0:0:
320,192,114803,1,0,0:0:0:0:
192,192,114922,1,0,0:0:0:0:
64,192,115041,1,0,0:0:0:0:
320,192,115041,1,0,0:0:0:0:
448,192,115041,1,0,0:0:0:0:
192,192,115160,1,0,0:0:0:0:
320,192,115279,1,0,0:0:0:0:
448,192,115399,1,0,0:0:0:0:
192,192,115518,1,0,0:0:0:0:
320,192,115518,1,0,0:0:0:0:
64,192,115518,1,0,0:0:0:0:
448,192,115637,1,0,0:0:0:0:
320,192,115756,1,0,0:0:0:0:
192,192,115875,1,0,0:0:0:0:
448,192,115994,1,0,0:0:0:0:
320,192,115994,1,0,0:0:0:0:
64,192,115994,1,0,0:0:0:0:
192,192,116113,1,0,0:0:0:0:
320,192,116232,1,0,0:0:0:0:
448,192,116351,1,0,0:0:0:0:
64,192,116470,1,0,0:0:0:0:
320,192,116470,1,0,0:0:0:0:
192,192,116470,1,0,0:0:0:0:
448,192,116589,1,0,0:0:0:0:
320,192,116708,1,0,0:0:0:0:
192,192,116827,1,0,0:0:0:0:
64,192,116946,1,0,0:0:0:0:
320,192,116946,1,0,0:0:0:0:
448,192,116946,1,0,0:0:0:0:
192,192,117065,1,0,0:0:0:0:
320,192,117184,1,0,0:0:0:0:
448,192,117303,1,0,0:0:0:0:
192,192,117422,1,0,0:0:0:0:
320,192,117422,1,0,0:0:0:0:
64,192,117422,1,0,0:0:0:0:
448,192,117541,1,0,0:0:0:0:
320,192,117660,1,0,0:0:0:0:
192,192,117779,1,0,0:0:0:0:
448,192,117899,1,0,0:0:0:0:
320,192,117899,1,0,0:0:0:0:
64,192,117899,1,0,0:0:0:0:
192,192,118018,1,0,0:0:0:0:
320,192,118137,1,0,0:0:0:0:
448,192,118256,1,0,0:0:0:0:
64,192,118375,1,0,0:0:0:0:
320,192,118375,1,0,0:0:0:0:
192,192,118375,1,0,0:0:0:0:
448,192,118494,1,0,0:0:0:0:
320,192,118613,1,0,0:0:0:0:
192,192,118732,1,0,0:0:0:0:
64,192,118851,1,0,0:0:0:0:
320,192,118851,1,0,0:0:0:0:
448,192,118851,1,0,0:0:0:0:
192,192,118970,1,0,0:0:0:0:
320,192,119089,1,0,0:0:0:0:
448,192,119208,1,0,0:0:0:0:
192,192,119327,1,0,0:0:0:0:
320,192,119327,1,0,0:0:0:0:
64,192,119327,1,0,0:0:0:0:
448,192,119446,1,0,0:0:0:0:
320,192,119565,1,0,0:0:0:0:
192,192,119684,1,0,0:0:0:0:
448,192,119803,1,0,0:0:0:0:
320,192,119803,1,0,0:0:0:0:
64,192,119803,1,0,0:0:0:0:
192,192,119922,1,0,0:0:0:0:
320,192,120041,1,0,0:0:0:0:
448,192,120160,1,0,0:0:0:0:
64,192,120279,1,0,0:0:0:0:
320,192,120279,1,0,0:0:0:0:
192,192,120279,1,0,0:0:0:0:
448,192,120399,1,0,0:0:0:0:
320,192,120518,1,0,0:0:0:0:
192,192,120637,1,0,0:0:0:0:
64,192,120756,1,0,0:0:0:0:
320,192,120756,1,0,0:0:0:0:
448,192,120756,1,0,0:0:0:0:
192,192,120875,1,0,0:0:0:0:
320,192,120994,1,0,0:0:0:0:
448,192,121113,1,0,0:0:0:0:
192,192,121232,1,0,0:0:0:0:
320,192,121232,1,0,0:0:0:0:
64,192,121232,1,0,0:0:0:0:
448,192,121351,1,0,0:0:0:0:
320,192,121470,1,0,0:0:0:0:
192,192,121589,1,0,0:0:0:0:
448,192,121708,1,0,0:0:0:0:
320,192,121708,1,0,0:0:0:0:
64,192,121708,1,0,0:0:0:0:
192,192,121827,1,0,0:0:0:0:
320,192,121946,1,0,0:0:0:0:
448,192,122065,1,0,0:0:0:0:
320,192,122184,1,0,0:0:0:0:
192,192,122184,1,0,0:0:0:0:
64,192,122184,1,0,0:0:0:0:
448,192,122303,1,0,0:0:0:0:
64,192,122422,1,0,0:0:0:0:
320,192,122541,1,0,0:0:0:0:
192,192,122541,1,0,0:0:0:0:
448,192,122541,1,0,0:0:0:0:
64,192,122660,1,0,0:0:0:0:
448,192,122839,1,0,0:0:0:0:
320,192,122958,1,0,0:0:0:0:
192,192,122958,1,0,0:0:0:0:
64,192,122958,1,0,0:0:0:0:
448,192,123077,1,0,0:0:0:0:
64,192,123196,1,0,0:0:0:0:
192,192,123196,1,0,0:0:0:0:
320,192,123196,1,0,0:0:0:0:
448,192,123375,1,0,0:0:0:0:
320,192,123375,1,0,0:0:0:0:
192,192,123375,1,0,0:0:0:0:
64,192,123494,1,0,0:0:0:0:
192,192,123613,1,0,0:0:0:0:
320,192,123732,1,0,0:0:0:0:
448,192,123732,1,0,0:0:0:0:
64,192,123732,1,0,0:0:0:0:
192,192,123851,1,0,0:0:0:0:
320,192,123851,1,0,0:0:0:0:
192,192,124089,1,0,0:0:0:0:
320,192,124089,1,0,0:0:0:0:
448,192,124089,1,0,0:0:0:0:
320,192,124208,1,0,0:0:0:0:
192,192,124327,1,0,0:0:0:0:
64,192,124446,1,0,0:0:0:0:
192,192,124446,1,0,0:0:0:0:
320,192,124446,1,0,0:0:0:0:
192,192,124565,1,0,0:0:0:0:
320,192,124684,1,0,0:0:0:0:
192,192,124803,1,0,0:0:0:0:
320,192,124803,1,0,0:0:0:0:
448,192,124803,1,0,0:0:0:0:
192,192,124922,1,0,0:0:0:0:
320,192,125041,1,0,0:0:0:0:
64,192,125041,1,0,0:0:0:0:
192,192,125041,1,0,0:0:0:0:
192,192,125220,1,0,0:0:0:0:
320,192,125339,1,0,0:0:0:0:
192,192,125458,1,0,0:0:0:0:
320,192,125458,1,0,0:0:0:0:
448,192,125458,1,0,0:0:0:0:
320,192,125577,1,0,0:0:0:0:
192,192,125696,1,0,0:0:0:0:
192,192,125815,1,0,0:0:0:0:
320,192,125994,1,0,0:0:0:0:
448,192,126172,1,0,0:0:0:0:
320,192,126351,1,0,0:0:0:0:
192,192,126529,1,0,0:0:0:0:
192,192,126708,1,0,0:0:0:0:
64,192,126708,1,0,0:0:0:0:
448,192,126708,1,0,0:0:0:0:
192,192,126887,1,0,0:0:0:0:
448,192,126887,1,0,0:0:0:0:
320,192,126887,1,0,0:0:0:0:
192,192,127125,1,0,0:0:0:0:
320,192,127125,1,0,0:0:0:0:
64,192,127125,1,0,0:0:0:0:
192,192,127363,1,0,0:0:0:0:
320,192,127363,1,0,0:0:0:0:
448,192,127363,1,0,0:0:0:0:
64,192,127660,1,0,0:0:0:0:
192,192,127660,1,0,0:0:0:0:
320,192,127660,1,0,0:0:0:0:
192,192,128256,128,0,129029:0:0:0:0:
320,192,128256,128,0,129029:0:0:0:0:
448,192,128256,128,0,129029:0:0:0:0:
320,192,129744,1,0,0:0:0:0:
448,192,129744,1,0,0:0:0:0:
192,192,129744,1,0,0:0:0:0:
64,192,130220,1,0,0:0:0:0:
192,192,130339,1,0,0:0:0:0:
320,192,130458,1,0,0:0:0:0:
448,192,130577,1,0,0:0:0:0:
64,192,130696,1,0,0:0:0:0:
192,192,130815,1,0,0:0:0:0:
320,192,130934,1,0,0:0:0:0:
448,192,131053,1,0,0:0:0:0:
448,192,131172,1,0,0:0:0:0:
320,192,131291,1,0,0:0:0:0:
192,192,131470,1,0,0:0:0:0:
320,192,131649,1,0,0:0:0:0:
192,192,131649,1,0,0:0:0:0:
64,192,131649,1,0,0:0:0:0:
192,192,131887,1,0,0:0:0:0:
448,192,132125,1,0,0:0:0:0:
320,192,132125,1,0,0:0:0:0:
192,192,132125,1,0,0:0:0:0:
192,192,132363,1,0,0:0:0:0:
320,192,132363,1,0,0:0:0:0:
448,192,132601,1,0,0:0:0:0:
192,192,132601,1,0,0:0:0:0:
320,192,132779,1,0,0:0:0:0:
192,192,132779,1,0,0:0:0:0:
64,192,132779,1,0,0:0:0:0:
448,192,132958,1,0,0:0:0:0:
320,192,132958,1,0,0:0:0:0:
64,192,132958,1,0,0:0:0:0:
192,192,133137,1,0,0:0:0:0:
64,192,133137,1,0,0:0:0:0:
320,192,133553,1,0,0:0:0:0:
448,192,133553,1,0,0:0:0:0:
64,192,133553,1,0,0:0:0:0:
192,192,133553,1,0,0:0:0:0:
64,192,134029,1,0,0:0:0:0:
320,192,134149,1,0,0:0:0:0:
192,192,134268,1,0,0:0:0:0:
64,192,134387,1,0,0:0:0:0:
448,192,134387,1,0,0:0:0:0:
320,192,134565,1,0,0:0:0:0:
448,192,134684,1,0,0:0:0:0:
192,192,134803,1,0,0:0:0:0:
64,192,134922,1,0,0:0:0:0:
448,192,135101,1,0,0:0:0:0:
320,192,135101,1,0,0:0:0:0:
192,192,135279,1,0,0:0:0:0:
448,192,135279,1,0,0:0:0:0:
192,192,135518,1,0,0:0:0:0:
64,192,135518,1,0,0:0:0:0:
448,192,135756,1,0,0:0:0:0:
320,192,135756,1,0,0:0:0:0:
192,192,135756,1,0,0:0:0:0:
320,192,135934,1,0,0:0:0:0:
64,192,135934,1,0,0:0:0:0:
448,192,136172,1,0,0:0:0:0:
320,192,136172,1,0,0:0:0:0:
192,192,136172,1,0,0:0:0:0:
64,192,136351,1,0,0:0:0:0:
320,192,136351,1,0,0:0:0:0:
192,192,136529,1,0,0:0:0:0:
64,192,136529,1,0,0:0:0:0:
448,192,136529,1,0,0:0:0:0:
192,192,136708,1,0,0:0:0:0:
448,192,136708,1,0,0:0:0:0:
448,192,136887,1,0,0:0:0:0:
320,192,136887,1,0,0:0:0:0:
64,192,136887,1,0,0:0:0:0:
192,192,137363,1,0,0:0:0:0:
64,192,137363,1,0,0:0:0:0:
448,192,137363,1,0,0:0:0:0:
320,192,137363,1,0,0:0:0:0:
192,192,137839,1,0,0:0:0:0:
448,192,137839,1,0,0:0:0:0:
320,192,137958,1,0,0:0:0:0:
448,192,138077,1,0,0:0:0:0:
64,192,138077,1,0,0:0:0:0:
192,192,138077,1,0,0:0:0:0:
192,192,138196,1,0,0:0:0:0:
320,192,138315,1,0,0:0:0:0:
64,192,138434,1,0,0:0:0:0:
448,192,138434,1,0,0:0:0:0:
320,192,138553,1,0,0:0:0:0:
448,192,138672,1,0,0:0:0:0:
192,192,138672,1,0,0:0:0:0:
320,192,138791,1,0,0:0:0:0:
448,192,138970,1,0,0:0:0:0:
64,192,138970,1,0,0:0:0:0:
320,192,139268,1,0,0:0:0:0:
192,192,139268,1,0,0:0:0:0:
64,192,139268,1,0,0:0:0:0:
320,192,139506,1,0,0:0:0:0:
448,192,139506,1,0,0:0:0:0:
192,192,139744,1,0,0:0:0:0:
448,192,139744,1,0,0:0:0:0:
64,192,139744,1,0,0:0:0:0:
320,192,139982,1,0,0:0:0:0:
192,192,139982,1,0,0:0:0:0:
192,192,140220,1,0,0:0:0:0:
64,192,140220,1,0,0:0:0:0:
192,192,140399,1,0,0:0:0:0:
64,192,140399,1,0,0:0:0:0:
192,192,140577,1,0,0:0:0:0:
64,192,140577,1,0,0:0:0:0:
192,192,140756,1,0,0:0:0:0:
64,192,140756,1,0,0:0:0:0:
448,192,141172,1,0,0:0:0:0:
320,192,141172,1,0,0:0:0:0:
192,192,141172,1,0,0:0:0:0:
64,192,141649,1,0,0:0:0:0:
192,192,141649,1,0,0:0:0:0:
448,192,141649,1,0,0:0:0:0:
320,192,141768,1,0,0:0:0:0:
448,192,141887,1,0,0:0:0:0:
192,192,141887,1,0,0:0:0:0:
448,192,142125,1,0,0:0:0:0:
64,192,142125,1,0,0:0:0:0:
320,192,142125,1,0,0:0:0:0:
192,192,142303,1,0,0:0:0:0:
64,192,142482,1,0,0:0:0:0:
320,192,142482,1,0,0:0:0:0:
64,192,142839,1,0,0:0:0:0:
192,192,142839,1,0,0:0:0:0:
448,192,143077,1,0,0:0:0:0:
320,192,143077,1,0,0:0:0:0:
448,192,143553,1,0,0:0:0:0:
320,192,143553,1,0,0:0:0:0:
448,192,144029,1,0,0:0:0:0:
320,192,144029,1,0,0:0:0:0:
448,192,144506,1,0,0:0:0:0:
320,192,144506,1,0,0:0:0:0:
320,192,144982,1,0,0:0:0:0:
448,192,144982,1,0,0:0:0:0:
64,192,144982,1,0,0:0:0:0:
192,192,144982,1,0,0:0:0:0:
320,192,145458,1,0,0:0:0:0:
64,192,145458,1,0,0:0:0:0:
448,192,145577,1,0,0:0:0:0:
192,192,145577,1,0,0:0:0:0:
64,192,145696,1,0,0:0:0:0:
320,192,145696,1,0,0:0:0:0:
448,192,145934,1,0,0:0:0:0:
320,192,145934,1,0,0:0:0:0:
192,192,146053,1,0,0:0:0:0:
320,192,146113,1,0,0:0:0:0:
64,192,146113,1,0,0:0:0:0:
320,192,146410,1,0,0:0:0:0:
192,192,146410,1,0,0:0:0:0:
448,192,146410,1,0,0:0:0:0:
192,192,146649,1,0,0:0:0:0:
448,192,146768,1,0,0:0:0:0:
64,192,146768,1,0,0:0:0:0:
320,192,146887,1,0,0:0:0:0:
192,192,147125,1,0,0:0:0:0:
448,192,147125,1,0,0:0:0:0:
448,192,147363,1,0,0:0:0:0:
320,192,147363,1,0,0:0:0:0:
64,192,147363,1,0,0:0:0:0:
320,192,147541,1,0,0:0:0:0:
192,192,147541,1,0,0:0:0:0:
320,192,147839,1,0,0:0:0:0:
64,192,147839,1,0,0:0:0:0:
320,192,147958,1,0,0:0:0:0:
192,192,147958,1,0,0:0:0:0:
64,192,148077,1,0,0:0:0:0:
192,192,148077,1,0,0:0:0:0:
448,192,148077,1,0,0:0:0:0:
320,192,148196,1,0,0:0:0:0:
448,192,148196,1,0,0:0:0:0:
192,192,148196,1,0,0:0:0:0:
320,192,148315,1,0,0:0:0:0:
64,192,148315,1,0,0:0:0:0:
320,192,148791,1,0,0:0:0:0:
64,192,148791,1,0,0:0:0:0:
192,192,148791,1,0,0:0:0:0:
448,192,149268,1,0,0:0:0:0:
320,192,149387,1,0,0:0:0:0:
192,192,149506,1,0,0:0:0:0:
64,192,149625,1,0,0:0:0:0:
448,192,149744,1,0,0:0:0:0:
320,192,149744,1,0,0:0:0:0:
192,192,149744,1,0,0:0:0:0:
320,192,149863,1,0,0:0:0:0:
192,192,149863,1,0,0:0:0:0:
64,192,149863,1,0,0:0:0:0:
320,192,150160,1,0,0:0:0:0:
192,192,150160,1,0,0:0:0:0:
448,192,150458,1,0,0:0:0:0:
192,192,150458,1,0,0:0:0:0:
64,192,150458,1,0,0:0:0:0:
320,192,150696,1,0,0:0:0:0:
192,192,150696,1,0,0:0:0:0:
64,192,150696,1,0,0:0:0:0:
320,192,150934,1,0,0:0:0:0:
192,192,150934,1,0,0:0:0:0:
64,192,151172,1,0,0:0:0:0:
320,192,151172,1,0,0:0:0:0:
320,192,151410,1,0,0:0:0:0:
192,192,151410,1,0,0:0:0:0:
448,192,151410,1,0,0:0:0:0:
192,192,151649,1,0,0:0:0:0:
64,192,151649,1,0,0:0:0:0:
192,192,151827,1,0,0:0:0:0:
64,192,151827,1,0,0:0:0:0:
192,192,152006,1,0,0:0:0:0:
64,192,152006,1,0,0:0:0:0:
192,192,152184,1,0,0:0:0:0:
64,192,152184,1,0,0:0:0:0:
64,192,152601,1,0,0:0:0:0:
192,192,152660,1,0,0:0:0:0:
320,192,152720,1,0,0:0:0:0:
448,192,152779,1,0,0:0:0:0:
448,192,153077,1,0,0:0:0:0:
320,192,153196,1,0,0:0:0:0:
192,192,153315,1,0,0:0:0:0:
64,192,153434,1,0,0:0:0:0:
448,192,153553,1,0,0:0:0:0:
320,192,153553,1,0,0:0:0:0:
192,192,153553,1,0,0:0:0:0:
64,192,153732,1,0,0:0:0:0:
448,192,153732,1,0,0:0:0:0:
448,192,153910,1,0,0:0:0:0:
320,192,153910,1,0,0:0:0:0:
64,192,154268,1,0,0:0:0:0:
192,192,154268,1,0,0:0:0:0:
320,192,154268,1,0,0:0:0:0:
192,192,154506,1,0,0:0:0:0:
320,192,154506,1,0,0:0:0:0:
448,192,154506,1,0,0:0:0:0:
320,192,154684,1,0,0:0:0:0:
64,192,154684,1,0,0:0:0:0:
192,192,154803,1,0,0:0:0:0:
448,192,154922,1,0,0:0:0:0:
64,192,154922,1,0,0:0:0:0:
320,192,154922,1,0,0:0:0:0:
320,192,155220,1,0,0:0:0:0:
192,192,155458,1,0,0:0:0:0:
64,192,155458,1,0,0:0:0:0:
320,192,155458,1,0,0:0:0:0:
448,192,155458,1,0,0:0:0:0:
320,192,155637,1,0,0:0:0:0:
448,192,155637,1,0,0:0:0:0:
64,192,155637,1,0,0:0:0:0:
192,192,155637,1,0,0:0:0:0:
192,192,155815,1,0,0:0:0:0:
64,192,155815,1,0,0:0:0:0:
448,192,155815,1,0,0:0:0:0:
320,192,155815,1,0,0:0:0:0:
192,192,155994,1,0,0:0:0:0:
448,192,155994,1,0,0:0:0:0:
64,192,155994,1,0,0:0:0:0:
320,192,155994,1,0,0:0:0:0:
320,192,156410,1,0,0:0:0:0:
192,192,156410,1,0,0:0:0:0:
64,192,156410,1,0,0:0:0:0:
448,192,156887,1,0,0:0:0:0:
64,192,157006,1,0,0:0:0:0:
192,192,157006,1,0,0:0:0:0:
448,192,157125,1,0,0:0:0:0:
64,192,157184,1,0,0:0:0:0:
320,192,157184,1,0,0:0:0:0:
320,192,157363,1,0,0:0:0:0:
192,192,157482,1,0,0:0:0:0:
448,192,157601,1,0,0:0:0:0:
320,192,157601,1,0,0:0:0:0:
64,192,157601,1,0,0:0:0:0:
448,192,157779,1,0,0:0:0:0:
320,192,157779,1,0,0:0:0:0:
192,192,157779,1,0,0:0:0:0:
192,192,158077,1,0,0:0:0:0:
64,192,158077,1,0,0:0:0:0:
448,192,158077,1,0,0:0:0:0:
448,192,158315,1,0,0:0:0:0:
320,192,158494,1,0,0:0:0:0:
192,192,158672,1,0,0:0:0:0:
64,192,158851,1,0,0:0:0:0:
192,192,159029,1,0,0:0:0:0:
64,192,159029,1,0,0:0:0:0:
320,192,159029,1,0,0:0:0:0:
64,192,159387,1,0,0:0:0:0:
192,192,159387,1,0,0:0:0:0:
64,192,159506,1,0,0:0:0:0:
192,192,159506,1,0,0:0:0:0:
64,192,159625,1,0,0:0:0:0:
192,192,159625,1,0,0:0:0:0:
64,192,159744,1,0,0:0:0:0:
192,192,159744,1,0,0:0:0:0:
64,192,160279,1,0,0:0:0:0:
320,192,160279,1,0,0:0:0:0:
192,192,160518,1,0,0:0:0:0:
192,192,160756,1,0,0:0:0:0:
448,192,160756,1,0,0:0:0:0:
320,192,160756,1,0,0:0:0:0:
320,192,160994,1,0,0:0:0:0:
192,192,161232,1,0,0:0:0:0:
320,192,161232,1,0,0:0:0:0:
448,192,161470,1,0,0:0:0:0:
64,192,161708,1,0,0:0:0:0:
320,192,161708,1,0,0:0:0:0:
448,192,161708,1,0,0:0:0:0:
192,192,161946,1,0,0:0:0:0:
320,192,161946,1,0,0:0:0:0:
64,192,162184,1,0,0:0:0:0:
320,192,162184,1,0,0:0:0:0:
192,192,162184,1,0,0:0:0:0:
320,192,162422,1,0,0:0:0:0:
448,192,162660,1,0,0:0:0:0:
192,192,162660,1,0,0:0:0:0:
64,192,162660,1,0,0:0:0:0:
320,192,162899,1,0,0:0:0:0:
320,192,163137,1,0,0:0:0:0:
192,192,163137,1,0,0:0:0:0:
448,192,163137,1,0,0:0:0:0:
192,192,163375,1,0,0:0:0:0:
64,192,163375,1,0,0:0:0:0:
320,192,163613,1,0,0:0:0:0:
192,192,163613,1,0,0:0:0:0:
448,192,163613,1,0,0:0:0:0:
64,192,163851,1,0,0:0:0:0:
320,192,163851,1,0,0:0:0:0:
