osu file format v14

[General]
AudioFilename: audio.mp3
AudioLeadIn: 0
PreviewTime: -1
Countdown: 1
SampleSet: Normal
StackLeniency: 0.7
Mode: 0
LetterboxInBreaks: 0
WidescreenStoryboard: 0

[Editor]
DistanceSpacing: 1
BeatDivisor: 4
GridSize: 16
TimelineZoom: 2.799999

[Metadata]
Title:Yume no katachi (ft.Yuca)
TitleUnicode:夢のかたち(ft.Yuca)
Artist:Elliot Hsu
ArtistUnicode:Elliot Hsu
Creator:Listle
Version:Endless
Source:
Tags:flay remix
BeatmapID:1878764
BeatmapSetID:899426

[Difficulty]
HPDrainRate:5
CircleSize:4
OverallDifficulty:9
ApproachRate:9.2
SliderMultiplier:2
SliderTickRate:1

[Events]
//Background and Video events
0,0,"70977889_p0_master1200.jpg",0,0
//Break Periods
2,62655,77215
//Storyboard Layer 0 (Background)
//Storyboard Layer 1 (Fail)
//Storyboard Layer 2 (Pass)
//Storyboard Layer 3 (Foreground)
//Storyboard Sound Samples

[TimingPoints]
1015,480,4,1,0,100,1,0
1015,-100,4,1,0,50,0,0
2935,-200,4,1,0,50,0,0
7735,-133.333333333333,4,1,0,50,0,0
8695,-100,4,1,0,50,0,0
9175,-66.6666666666667,4,1,0,50,0,0
13075,-66.6666666666667,4,1,0,5,0,0
13135,-66.6666666666667,4,1,0,50,0,0
14635,-66.6666666666667,4,1,0,5,0,0
14695,-66.6666666666667,4,1,0,50,0,0
14875,-66.6666666666667,4,1,0,5,0,0
14935,-66.6666666666667,4,1,0,50,0,0
15115,-66.6666666666667,4,1,0,5,0,0
15175,-66.6666666666667,4,1,0,50,0,0
15595,-66.6666666666667,4,1,0,5,0,0
15655,-66.6666666666667,4,1,0,50,0,0
16375,-66.6666666666667,4,1,0,60,0,0
17815,-50,4,1,0,60,0,0
18295,-66.6666666666667,4,1,0,60,0,0
19735,-50,4,1,0,60,0,0
20695,-66.6666666666667,4,1,0,60,0,0
22135,-50,4,1,0,60,0,0
23335,-66.6666666666667,4,1,0,60,0,0
23575,-80,4,1,0,60,0,0
23815,-100,4,1,0,60,0,0
24055,-66.6666666666667,4,1,0,60,0,0
27895,-50,4,1,0,60,0,0
28135,-66.6666666666667,4,1,0,60,0,0
31735,-66.6666666666667,4,1,0,60,0,0
33415,-57.1428571428571,4,1,0,60,0,0
33595,-57.1428571428571,4,1,0,5,0,0
33655,-66.6666666666667,4,1,0,60,0,0
33835,-66.6666666666667,4,1,0,5,0,0
33895,-50,4,1,0,60,0,0
34135,-66.6666666666667,4,1,0,60,0,0
34795,-66.6666666666667,4,1,0,5,0,0
34855,-66.6666666666667,4,1,0,60,0,0
35035,-66.6666666666667,4,1,0,5,0,0
35095,-66.6666666666667,4,1,0,60,0,0
39295,-66.6666666666667,4,1,0,5,0,0
39415,-40,4,1,0,60,0,0
39415,-40,4,1,0,60,0,0
39595,-40,4,1,0,5,0,0
39655,-40,4,1,0,60,0,0
39835,-40,4,1,0,5,0,0
39895,-40,4,1,0,60,0,0
40075,-40,4,1,0,5,0,0
40135,-40,4,1,0,60,0,0
40315,-40,4,1,0,5,0,0
40375,-40,4,1,0,60,0,0
40555,-40,4,1,0,5,0,0
40615,-40,4,1,0,60,0,0
40795,-40,4,1,0,5,0,0
40855,-40,4,1,0,60,0,0
41095,-100,4,1,0,60,0,0
41335,-40,4,1,0,60,0,0
41515,-40,4,1,0,5,0,0
41575,-40,4,1,0,60,0,0
41755,-40,4,1,0,5,0,0
41815,-40,4,1,0,60,0,0
41995,-40,4,1,0,5,0,0
42055,-40,4,1,0,60,0,0
42235,-40,4,1,0,5,0,0
42295,-40,4,1,0,60,0,0
42475,-40,4,1,0,5,0,0
42535,-40,4,1,0,60,0,0
42715,-40,4,1,0,5,0,0
42775,-40,4,1,0,60,0,0
43015,-66.6666666666667,4,1,0,60,0,0
45175,-100,4,1,0,60,0,0
46615,-66.6666666666667,4,1,0,60,0,0
47095,-50,4,1,0,80,0,1
47935,-50,4,1,0,80,0,1
48055,-50,4,1,0,80,0,1
49015,-66.6666666666667,4,1,0,80,0,1
49195,-66.6666666666667,4,1,0,5,0,1
49255,-66.6666666666667,4,1,0,80,0,1
49435,-66.6666666666667,4,1,0,5,0,1
49495,-66.6666666666667,4,1,0,80,0,1
49735,-66.6666666666667,4,1,0,80,0,1
49855,-66.6666666666667,4,1,0,80,0,1
49975,-66.6666666666667,4,1,0,80,0,1
50095,-66.6666666666667,4,1,0,80,0,1
50215,-66.6666666666667,4,1,0,80,0,1
50935,-66.6666666666667,4,1,0,80,0,1
51115,-66.6666666666667,4,1,0,5,0,1
51175,-66.6666666666667,4,1,0,80,0,1
51415,-66.6666666666667,4,1,0,80,0,1
51535,-66.6666666666667,4,1,0,80,0,1
51715,-100,4,1,0,5,0,1
51775,-66.6666666666667,4,1,0,80,0,1
51895,-66.6666666666667,4,1,0,80,0,1
52015,-66.6666666666667,4,1,0,80,0,1
52135,-66.6666666666667,4,1,0,80,0,1
52615,-66.6666666666667,4,1,0,80,0,1
53035,-66.6666666666667,4,1,0,5,0,1
53095,-66.6666666666667,4,1,0,80,0,1
55555,-66.6666666666667,4,1,0,5,0,1
55615,-66.6666666666667,4,1,0,80,0,1
55675,-66.6666666666667,4,1,0,5,0,1
55735,-66.6666666666667,4,1,0,80,0,1
57475,-66.6666666666667,4,1,0,5,0,1
57535,-66.6666666666667,4,1,0,80,0,1
57595,-66.6666666666667,4,1,0,5,0,1
57655,-66.6666666666667,4,1,0,80,0,1
59515,-66.6666666666667,4,1,0,5,0,1
59575,-66.6666666666667,4,1,0,80,0,1
59635,-66.6666666666667,4,1,0,5,0,1
59695,-66.6666666666667,4,1,0,80,0,1
59755,-66.6666666666667,4,1,0,5,0,1
59815,-66.6666666666667,4,1,0,80,0,1
59875,-66.6666666666667,4,1,0,5,0,1
59935,-66.6666666666667,4,1,0,80,0,1
59995,-66.6666666666667,4,1,0,5,0,1
60055,-66.6666666666667,4,1,0,80,0,1
60115,-66.6666666666667,4,1,0,5,0,1
60175,-66.6666666666667,4,1,0,80,0,1
60475,-66.6666666666667,4,1,0,5,0,1
60535,-100,4,1,0,40,0,0
62455,-100,4,1,0,50,0,0
77815,-66.6666666666667,4,1,0,50,0,0
79495,-50,4,1,0,50,0,0
79615,-66.6666666666667,4,1,0,50,0,0
83575,-50,4,1,0,50,0,0
83875,-50,4,1,0,5,0,0
83935,-40,4,1,0,50,0,0
84235,-33.3333333333333,4,1,0,5,0,0
84295,-66.6666666666667,4,1,0,50,0,0
87415,-66.6666666666667,4,1,0,50,0,1
88015,-66.6666666666667,4,1,0,50,0,0
91255,-66.6666666666667,4,1,0,50,0,1
92095,-66.6666666666667,4,1,0,50,0,0
93175,-66.6666666666667,4,1,0,50,0,0
97015,-50,4,1,0,50,0,0
97135,-66.6666666666667,4,1,0,50,0,0
97495,-50,4,1,0,50,0,0
97615,-66.6666666666667,4,1,0,50,0,0
100855,-40,4,1,0,70,0,0
101035,-40,4,1,0,5,0,0
101095,-40,4,1,0,70,0,0
101275,-40,4,1,0,5,0,0
101335,-40,4,1,0,70,0,0
101515,-40,4,1,0,5,0,0
101575,-40,4,1,0,70,0,0
101755,-40,4,1,0,5,0,0
101815,-40,4,1,0,70,0,0
101995,-40,4,1,0,5,0,0
102055,-40,4,1,0,70,0,0
102235,-40,4,1,0,5,0,0
102295,-40,4,1,0,70,0,0
102475,-40,4,1,0,5,0,0
102535,-100,4,1,0,70,0,0
102775,-40,4,1,0,70,0,0
102955,-40,4,1,0,5,0,0
103015,-40,4,1,0,70,0,0
103195,-40,4,1,0,5,0,0
103255,-40,4,1,0,80,0,0
103435,-40,4,1,0,5,0,0
103495,-40,4,1,0,80,0,0
103675,-40,4,1,0,5,0,0
103735,-40,4,1,0,70,0,0
103915,-40,4,1,0,5,0,0
103975,-40,4,1,0,70,0,0
104155,-40,4,1,0,5,0,0
104215,-100,4,1,0,70,0,0
104695,-66.6666666666667,4,1,0,50,0,0
106615,-100,4,1,0,50,0,0
108055,-100,4,1,0,50,0,0
108535,-66.6666666666667,4,1,0,80,0,1
115255,-50,4,1,0,80,0,1
116215,-66.6666666666667,4,1,0,80,0,1
119815,-50,4,1,0,80,0,1
119935,-66.6666666666667,4,1,0,80,0,1
121975,-66.6666666666667,4,1,0,40,0,0
123895,-66.6666666666667,4,1,0,60,0,0
139255,-66.6666666666667,4,1,0,60,0,0

[HitObjects]
37,319,1015,5,0,0:0:0:0:
77,274,1495,1,0,0:0:0:0:
212,357,1975,1,0,0:0:0:0:
168,298,2455,1,0,0:0:0:0:
73,198,2935,2,0,P|127:218|154:244,2,75
77,274,3895,2,0,P|125:301|187:290,1,100
476,36,4855,5,0,0:0:0:0:
442,85,5335,1,0,0:0:0:0:
282,95,5815,1,0,0:0:0:0:
331,144,6295,1,0,0:0:0:0:
336,220,6775,2,0,P|380:200|403:172,2,75
262,225,7735,2,0,P|300:282|392:270,1,150.000005722046
256,35,8695,5,0,0:0:0:0:
203,88,8815,2,0,B|249:105|249:105|249:143|278:179,1,100
331,188,9175,2,0,P|327:127|314:99,1,75.0000028610231
262,231,9415,2,0,P|326:263|345:261,1,75.0000028610231
402,261,9655,1,0,0:0:0:0:
447,201,9775,1,0,0:0:0:0:
439,126,9895,1,0,0:0:0:0:
136,161,10135,6,0,B|198:198|198:198|162:256|221:312|282:345|363:236,1,300.000011444092
264,230,10735,2,0,B|271:200|268:165|268:165|233:133|182:110,1,150.000005722046
136,161,11095,2,0,P|113:217|113:263,1,75.0000028610231
291,331,11335,2,0,P|333:262|329:229,1,75.0000028610231
381,128,11575,2,0,P|359:53|276:98,2,150.000005722046
291,331,12295,5,0,0:0:0:0:
484,357,12535,1,0,0:0:0:0:
400,86,13015,6,0,L|353:117,1,37.5000014305115
302,145,13135,2,0,P|346:187|438:151,1,150.000005722046
328,60,13495,2,0,L|239:48,1,75.0000028610231
25,122,13735,2,0,L|111:96,1,75.0000028610231
254,50,13975,1,0,0:0:0:0:
86,353,14455,6,0,P|124:310|109:244,1,112.500004291535
28,243,14695,2,0,P|58:188|132:159,1,112.500004291535
195,218,14935,2,0,P|197:147|166:108,1,112.500004291535
22,49,15175,2,0,B|77:23|77:23|103:101|103:101|140:18|227:58,1,262.500010013581
272,59,15655,1,0,0:0:0:0:
486,268,15895,1,0,0:0:0:0:
414,336,16375,6,0,P|392:352|314:324,1,75.0000028610231
205,194,16615,2,0,P|248:163|285:177,1,75.0000028610231
205,368,16855,2,0,L|141:277,1,75.0000028610231
362,240,17095,2,0,L|299:297,1,75.0000028610231
121,272,17335,5,0,0:0:0:0:
53,238,17455,1,0,0:0:0:0:
28,167,17575,1,0,0:0:0:0:
102,179,17695,1,0,0:0:0:0:
184,184,17815,2,0,L|121:58,1,100
223,275,18055,2,0,L|304:168,1,100
432,61,18295,6,0,P|461:131|464:156,1,75.0000028610231
466,205,18535,1,0,0:0:0:0:
440,274,18655,1,0,0:0:0:0:
378,232,18775,2,0,L|347:133,1,75.0000028610231
332,88,19015,1,0,0:0:0:0:
288,26,19135,1,0,0:0:0:0:
213,24,19255,2,0,L|114:24,1,75.0000028610231
35,106,19495,2,0,L|139:87,1,75.0000028610231
123,192,19735,6,0,L|52:293,1,100
217,93,19975,2,0,L|281:193,1,100
335,269,20215,1,0,0:0:0:0:
463,190,20335,1,0,0:0:0:0:
342,101,20455,1,0,0:0:0:0:
383,192,20575,1,0,0:0:0:0:
415,104,20695,6,0,P|395:50|365:31,1,75.0000028610231
270,234,20935,2,0,P|262:294|317:340,1,75.0000028610231
414,333,21175,2,0,L|459:261,1,75.0000028610231
327,186,21415,2,0,P|250:162|237:166,1,75.0000028610231
41,51,21655,2,0,P|128:45|149:52,1,75.0000028610231
72,188,21895,2,0,L|92:105,1,75.0000028610231
156,213,22135,2,0,B|221:259|221:259|130:260|130:260|125:311|38:356,3,300
21,94,23335,6,0,P|58:66|61:41,1,75.0000028610231
47,167,23575,2,0,P|100:134|99:106,1,62.5
53,248,23815,2,0,P|107:235|119:217,1,50
223,153,24055,5,0,0:0:0:0:
232,78,24175,1,0,0:0:0:0:
288,28,24295,2,0,P|323:20|382:30,1,75.0000028610231
483,106,24535,1,0,0:0:0:0:
474,180,24655,1,0,0:0:0:0:
471,254,24775,2,0,P|478:341|481:353,1,75.0000028610231
326,304,25015,5,0,0:0:0:0:
199,223,25135,1,0,0:0:0:0:
252,170,25255,1,0,0:0:0:0:
251,319,25375,1,0,0:0:0:0:
102,338,25495,2,0,L|43:265,1,75.0000028610231
159,155,25735,2,0,P|128:202|123:240,1,75.0000028610231
251,319,25975,6,0,P|332:360|346:363,1,75.0000028610231
483,290,26215,2,0,P|421:338|411:343,1,75.0000028610231
300,205,26455,2,0,P|339:276|352:285,1,75.0000028610231
464,145,26695,2,0,P|421:69|399:51,1,75.0000028610231
368,34,26935,1,0,0:0:0:0:
301,68,27055,1,0,0:0:0:0:
236,29,27175,1,0,0:0:0:0:
178,77,27295,1,0,0:0:0:0:
34,34,27415,6,0,P|23:119|32:135,1,75.0000028610231
35,177,27655,1,0,0:0:0:0:
26,251,27775,1,0,0:0:0:0:
203,342,27895,6,0,B|293:287|293:287|178:297|177:192,1,200
163,70,28255,1,0,0:0:0:0:
163,70,28375,2,0,P|115:148|127:172,1,75.0000028610231
262,218,28615,2,0,P|316:221|372:250,1,75.0000028610231
468,343,28855,2,0,P|445:270|426:252,1,75.0000028610231
364,178,29095,1,0,0:0:0:0:
388,245,29215,1,0,0:0:0:0:
453,202,29335,1,0,0:0:0:0:
308,131,29455,1,0,0:0:0:0:
322,280,29575,6,0,P|400:240|437:232,1,75.0000028610231
365,347,29815,2,0,P|281:362|268:360,1,75.0000028610231
364,178,30055,2,0,B|396:151|396:151|389:198,1,75.0000028610231
445,52,30295,2,0,B|474:81|474:81|479:13,1,75.0000028610231
357,64,30535,2,0,P|294:51|251:34,1,75.0000028610231
92,35,30775,2,0,P|157:85|165:102,1,75.0000028610231
66,186,31015,2,0,P|79:101|97:78,1,75.0000028610231
134,150,31255,5,0,0:0:0:0:
253,240,31375,1,0,0:0:0:0:
114,342,31495,1,0,0:0:0:0:
356,305,31735,6,0,P|339:354|299:337,2,75.0000028610231
252,344,32215,2,0,P|335:353|348:348,1,75.0000028610231
210,257,32455,2,0,L|142:325,1,75.0000028610231
288,259,32695,2,0,P|246:190|163:200,1,150.000005722046
118,227,33055,5,0,0:0:0:0:
43,220,33175,1,0,0:0:0:0:
17,149,33295,1,0,0:0:0:0:
70,96,33415,2,0,B|133:137|133:137|118:88|157:41,1,175.00000166893
219,142,33775,2,0,P|211:97|211:88,1,37.5000014305115
231,28,33895,2,0,B|283:60|282:107|282:107|396:38,1,200
439,31,34255,5,0,0:0:0:0:
488,87,34375,1,0,0:0:0:0:
491,161,34495,1,0,0:0:0:0:
377,259,34615,2,0,P|366:182|415:153,1,112.500004291535
484,278,34855,2,0,P|456:339|410:350,1,112.500004291535
270,313,35095,6,0,B|166:302|216:357|106:347,1,150.000005722046
53,347,35455,1,0,0:0:0:0:
59,272,35575,2,0,B|58:212|58:212|148:288|235:169,1,225.000008583069
260,161,36055,2,0,P|274:206|253:255,1,75.0000028610231
46,28,36295,2,0,P|30:113|26:126,1,75.0000028610231
0,169,36535,5,0,0:0:0:0:
139,224,36655,1,0,0:0:0:0:
119,113,36775,1,0,0:0:0:0:
30,278,36895,1,0,0:0:0:0:
182,160,37015,2,0,P|174:66|125:38,1,150.000005722046
119,113,37375,1,0,0:0:0:0:
267,94,37495,6,0,L|344:25,1,75.0000028610231
437,142,37735,2,0,L|351:114,1,75.0000028610231
268,232,37975,2,0,L|327:163,1,75.0000028610231
450,31,38215,2,0,P|500:101|508:149,1,75.0000028610231
491,239,38455,6,0,P|427:213|382:222,1,75.0000028610231
302,331,38695,2,0,P|381:342|399:349,1,75.0000028610231
266,231,38935,2,0,L|227:297,1,75.0000028610231
481,349,39175,2,0,L|428:284,1,75.0000028610231
97,158,39415,6,0,B|115:214|115:214|137:186|237:152,1,187.5
240,81,39655,2,0,P|293:128|254:237,1,187.5
237,322,39895,2,0,B|236:350|236:350|149:357|149:357|175:259,1,187.5
166,166,40135,2,0,B|120:217|120:217|82:176|82:176|18:245,1,187.5
40,223,40375,2,0,B|109:94|38:157|87:39,1,187.5
240,81,40615,2,0,P|281:150|184:194,1,187.5
207,203,40855,2,0,P|246:138|368:139,1,187.5
410,145,41095,2,0,L|387:200,1,50
388,353,41335,6,0,B|354:330|354:330|398:307|473:313|473:313|451:279,1,187.5
486,158,41575,2,0,P|474:107|356:92,1,187.5
195,330,41815,2,0,P|243:237|344:214,1,187.5
316,211,42055,2,0,P|260:261|184:171,1,187.5
164,62,42295,2,0,B|102:138|102:138|96:85|55:57,1,187.5
60,61,42535,2,0,P|26:127|94:217,1,187.5
193,354,42775,2,0,B|217:320|217:320|135:275|135:275|166:212|166:212|199:227,1,187.5
164,62,43015,6,0,L|176:152,1,75.0000028610231
241,176,43255,2,0,L|279:115,7,37.5000014305115
329,199,43735,6,0,L|376:113,1,75.0000028610231
453,277,43975,2,0,L|412:194,1,75.0000028610231
328,86,44215,1,0,0:0:0:0:
472,127,44335,1,0,0:0:0:0:
371,299,44455,2,0,B|341:350|341:350|338:300,1,75.0000028610231
384,136,44695,2,0,P|402:79|387:40,1,75.0000028610231
252,30,44935,2,0,P|154:28|140:22,1,75.0000028610231
77,29,45175,6,0,L|37:48,7,25
117,206,45655,2,0,L|108:253,7,25
326,212,46135,2,0,L|361:205,7,25
368,296,46615,5,0,0:0:0:0:
446,168,46735,1,0,0:0:0:0:
489,306,46855,1,0,0:0:0:0:
248,341,46975,1,0,0:0:0:0:
248,341,47095,6,0,B|205:353|205:353|199:313|254:291|238:203,1,200
268,61,47575,2,0,P|310:31|367:29,1,100
343,124,47815,2,0,B|289:190|289:190|302:128,1,100
479,34,48055,2,0,B|446:41|446:41|453:84|431:134,1,100
479,192,48295,2,0,P|436:229|410:208,1,100
343,124,48535,1,0,0:0:0:0:
268,254,48655,1,0,0:0:0:0:
410,208,48775,1,0,0:0:0:0:
267,161,48895,1,0,0:0:0:0:
344,271,49015,6,0,P|320:311|270:344,1,75.0000028610231
153,358,49255,2,0,B|194:334|194:334|222:256|249:304,1,75.0000028610231
105,282,49495,2,0,L|34:343,1,75.0000028610231
38,202,49735,2,0,P|34:142|24:95,1,75.0000028610231
167,194,49975,6,0,B|200:246|200:246|222:223,1,75.0000028610231
183,29,50215,2,0,B|158:54|158:54|180:106,1,75.0000028610231
219,142,50455,1,0,0:0:0:0:
276,93,50575,1,0,0:0:0:0:
333,140,50695,1,0,0:0:0:0:
398,103,50815,1,0,0:0:0:0:
460,182,50935,6,0,B|476:110|463:49,1,75.0000028610231
384,234,51175,2,0,B|335:242|335:242|367:283|393:370,1,150.000005722046
455,329,51535,1,0,0:0:0:0:
468,255,51655,1,0,0:0:0:0:
462,181,51775,1,0,0:0:0:0:
365,66,51895,5,0,0:0:0:0:
290,78,52015,1,0,0:0:0:0:
335,137,52135,2,0,B|362:140|362:140|339:177|339:177|355:225,1,75.0000028610231
348,298,52375,2,0,B|334:268|334:268|403:255|400:217,1,75.0000028610231
198,325,52615,2,0,P|225:284|286:269,1,75.0000028610231
123,288,52855,6,0,B|109:237|109:237|81:261|29:256,1,75.0000028610231
217,116,53095,2,0,P|225:191|250:215,1,75.0000028610231
286,146,53335,1,0,0:0:0:0:
316,77,53455,1,0,0:0:0:0:
390,77,53575,1,0,0:0:0:0:
424,143,53695,1,0,0:0:0:0:
439,216,53815,6,0,P|403:291|331:269,1,150.000005722046
324,351,54295,2,0,P|289:247|354:221,1,150.000005722046
495,127,54775,6,0,L|449:4,1,75.0000028610231
325,178,55015,2,0,L|420:146,1,75.0000028610231
246,130,55255,2,0,L|302:36,1,75.0000028610231
133,54,55495,2,0,L|52:141,1,75.0000028610231
63,259,55735,2,0,B|120:237|120:237|91:292,1,75.0000028610231
250,312,55975,2,0,B|234:366|234:366|288:336,1,75.0000028610231
383,276,56215,5,0,0:0:0:0:
261,183,56335,1,0,0:0:0:0:
319,320,56455,1,0,0:0:0:0:
360,176,56575,1,0,0:0:0:0:
443,166,56695,2,0,B|451:212|451:212|473:110|473:110|512:150,1,150.000005722046
354,73,57175,6,0,B|289:59|289:59|263:26|236:-2,1,75.0000028610231
207,47,57415,2,0,P|170:142|149:146,1,75.0000028610231
273,205,57655,2,0,B|293:143|293:143|327:183,1,75.0000028610231
443,166,57895,2,0,B|495:237|495:237|446:234,1,75.0000028610231
319,327,58135,6,0,P|387:316|420:305,1,75.0000028610231
207,350,58375,2,0,P|222:294|231:269,1,75.0000028610231
377,246,58615,2,0,P|383:244|451:344,2,150.000005722046
238,189,59215,2,0,B|265:181|265:181|301:210|301:210|360:191,2,75.0000028610231
463,176,59575,6,0,P|409:134|338:106,1,75.0000028610231
318,69,59815,2,0,L|440:39,1,75.0000028610231
171,145,60055,2,0,B|226:98|226:98|102:103|103:52,1,150.000005722046
35,259,60535,6,0,P|130:303|157:358,1,150
167,339,61255,2,0,P|225:280|306:274,1,150
362,283,61975,2,0,P|350:226|325:207,2,50
362,283,62455,1,0,0:0:0:0:
28,349,77815,6,0,L|124:323,1,75.0000028610231
149,186,78055,2,0,P|70:168|38:176,1,75.0000028610231
191,250,78295,2,0,P|223:162|215:142,1,75.0000028610231
193,38,78535,2,0,L|105:56,1,75.0000028610231
52,87,78775,1,0,0:0:0:0:
23,156,78895,1,0,0:0:0:0:
58,221,79015,1,0,0:0:0:0:
126,251,79135,1,0,0:0:0:0:
211,127,79255,6,0,P|270:63|295:42,1,75.0000028610231
467,59,79495,2,0,P|381:131|354:145,1,100
255,189,79735,2,0,P|183:198|163:183,1,75.0000028610231
358,62,79975,2,0,P|322:133|325:154,1,75.0000028610231
348,195,80215,1,0,0:0:0:0:
391,256,80335,1,0,0:0:0:0:
458,289,80455,1,0,0:0:0:0:
504,347,80575,1,0,0:0:0:0:
429,358,80695,6,0,L|321:345,1,75.0000028610231
213,294,80935,2,0,L|310:261,1,75.0000028610231
100,302,81175,2,0,L|155:205,1,75.0000028610231
34,359,81415,2,0,P|22:311|39:202,1,150.000005722046
56,139,81775,5,0,0:0:0:0:
83,69,81895,1,0,0:0:0:0:
144,25,82015,1,0,0:0:0:0:
218,25,82135,2,0,B|274:22|274:22|233:65,1,75.0000028610231
166,169,82375,2,0,B|156:223|156:223|199:183,1,75.0000028610231
204,103,82615,6,0,P|243:175|236:226,1,75.0000028610231
200,311,82855,1,0,0:0:0:0:
349,312,82975,1,0,0:0:0:0:
277,180,83095,2,0,L|267:270,1,75.0000028610231
419,336,83335,2,0,L|329:305,1,75.0000028610231
81,153,83575,6,0,B|114:97|114:97|179:129|179:129|200:65|272:43,1,250
264,127,83935,2,0,B|220:223|139:204|139:204|88:257|88:257|185:315,1,312.5
267,336,84295,6,0,L|368:342,1,75.0000028610231
447,232,84535,2,0,L|367:273,1,75.0000028610231
231,251,84775,1,0,0:0:0:0:
329,138,84895,1,0,0:0:0:0:
380,266,85015,2,0,P|328:210|302:202,1,75.0000028610231
264,175,85255,1,0,0:0:0:0:
190,189,85375,1,0,0:0:0:0:
26,326,85495,6,0,P|56:349|97:346,1,75.0000028610231
231,251,85735,2,0,P|294:300|276:322,1,75.0000028610231
485,314,85975,2,0,P|417:358|403:352,1,75.0000028610231
414,210,86215,2,0,P|411:125|423:118,1,75.0000028610231
281,45,86455,2,0,P|356:43|353:24,1,75.0000028610231
294,271,86695,2,0,P|330:311|331:329,1,75.0000028610231
218,278,86935,2,0,P|266:195|281:186,3,75.0000028610231
168,339,87415,5,0,0:0:0:0:
85,213,87535,1,0,0:0:0:0:
233,195,87655,1,0,0:0:0:0:
114,287,87775,1,0,0:0:0:0:
153,142,87895,1,0,0:0:0:0:
231,269,88015,1,0,0:0:0:0:
85,213,88135,2,0,L|50:116,1,75.0000028610231
233,195,88375,6,0,L|306:223,1,75.0000028610231
243,363,88615,2,0,L|321:340,1,75.0000028610231
22,199,88855,2,0,L|91:248,1,75.0000028610231
31,360,89095,2,0,L|102:310,1,75.0000028610231
151,271,89335,5,0,0:0:0:0:
144,196,89455,1,0,0:0:0:0:
102,133,89575,1,0,0:0:0:0:
35,97,89695,1,0,0:0:0:0:
169,35,89815,2,0,L|249:98,1,75.0000028610231
236,230,90055,2,0,L|219:145,1,75.0000028610231
228,82,90295,5,0,0:0:0:0:
293,45,90415,1,0,0:0:0:0:
367,38,90535,1,0,0:0:0:0:
424,85,90655,1,0,0:0:0:0:
408,234,90775,2,0,L|372:156,1,75.0000028610231
293,292,91015,2,0,L|252:376,1,75.0000028610231
357,357,91255,5,0,0:0:0:0:
493,293,91375,1,0,0:0:0:0:
318,228,91495,1,0,0:0:0:0:
421,315,91615,1,0,0:0:0:0:
424,142,91735,1,0,0:0:0:0:
363,279,91855,1,0,0:0:0:0:
487,195,91975,1,0,0:0:0:0:
348,136,92095,1,0,0:0:0:0:
393,211,92215,6,0,L|432:127,1,75.0000028610231
348,136,92455,2,0,L|279:196,1,75.0000028610231
153,249,92695,2,0,P|77:223|123:178,1,150.000005722046
232,114,93055,1,0,0:0:0:0:
329,208,93175,2,0,P|338:174|353:111,2,75.0000028610231
329,312,93655,6,0,P|256:361|244:361,2,75.0000028610231
185,356,94015,1,0,0:0:0:0:
122,314,94135,2,0,L|43:250,1,75.0000028610231
144,235,94375,2,0,L|207:292,1,75.0000028610231
233,137,94615,2,0,L|125:119,1,75.0000028610231
244,216,94855,2,0,P|302:175|300:94,1,150.000005722046
122,48,95215,5,0,0:0:0:0:
122,48,95335,2,0,P|82:129|100:197,1,150.000005722046
159,320,95695,1,0,0:0:0:0:
159,320,95815,1,0,0:0:0:0:
159,320,95935,2,0,P|187:246|81:276,1,225.000008583069
293,345,96535,6,0,P|377:317|400:331,1,75.0000028610231
494,254,96775,2,0,P|423:189|407:194,1,75.0000028610231
457,193,97015,2,0,P|417:291|433:310,1,100
405,120,97255,2,0,L|337:175,1,75.0000028610231
480,105,97495,6,0,P|446:59|375:44,1,100
332,36,97735,1,0,0:0:0:0:
260,58,97855,1,0,0:0:0:0:
112,32,97975,2,0,L|38:84,1,75.0000028610231
34,148,98215,1,0,0:0:0:0:
58,219,98335,1,0,0:0:0:0:
184,246,98455,2,0,L|152:165,1,75.0000028610231
137,103,98695,1,0,0:0:0:0:
159,31,98815,1,0,0:0:0:0:
260,58,98935,6,0,L|210:133,1,75.0000028610231
322,230,99175,2,0,L|280:148,1,75.0000028610231
406,69,99415,2,0,P|387:106|384:159,1,75.0000028610231
481,252,99655,2,0,P|430:247|387:299,1,75.0000028610231
311,367,99895,5,0,0:0:0:0:
244,332,100015,1,0,0:0:0:0:
172,355,100135,1,0,0:0:0:0:
103,323,100255,1,0,0:0:0:0:
19,198,100375,2,0,L|82:125,1,75.0000028610231
207,244,100615,2,0,P|185:154|171:131,1,75.0000028610231
312,108,100855,6,0,B|254:135|254:135|306:228|256:309,1,187.5
420,347,101095,2,0,B|397:267|397:267|464:262|464:262|488:172,1,187.5
457,102,101335,2,0,B|416:167|416:167|414:76|365:43,1,187.5
260,43,101575,2,0,P|164:83|195:149,1,187.5
184,141,101815,2,0,B|194:51|194:51|87:100,1,187.5
76,225,102055,2,0,B|99:331|99:331|103:246|167:229,1,187.5
122,256,102295,2,0,P|221:273|183:324,1,187.5
203,313,102535,2,0,L|261:334,1,50
486,347,102775,6,0,P|380:305|428:230,1,187.5
455,284,103015,2,0,B|493:218|493:218|405:222|435:131,1,187.5
503,150,103255,2,0,P|466:86|362:124,1,187.5
369,109,103495,2,0,B|324:37|324:37|327:107|304:157,1,187.5
319,224,103735,2,0,P|231:290|183:202,1,187.5
186,251,103975,2,0,P|267:251|297:351,1,187.5
301,339,104215,2,0,L|231:327,1,50
49,347,104455,2,0,L|100:290,1,50
32,166,104695,6,0,L|125:237,1,75.0000028610231
147,70,104935,2,0,L|117:150,1,75.0000028610231
223,29,105175,2,0,L|293:102,1,75.0000028610231
330,134,105415,1,0,0:0:0:0:
373,195,105535,1,0,0:0:0:0:
450,304,105655,2,0,L|474:207,1,75.0000028610231
484,157,105895,1,0,0:0:0:0:
443,93,106015,1,0,0:0:0:0:
330,134,106135,6,0,L|286:208,1,75.0000028610231
374,325,106375,2,0,L|368:232,1,75.0000028610231
257,42,106615,2,0,L|220:63,7,25
87,170,107095,2,0,L|124:195,7,25
296,299,107575,2,0,L|292:261,7,25
292,82,108055,6,0,L|257:153,1,50
175,90,108295,2,0,L|226:60,1,50
48,330,108535,6,0,P|124:354|142:276,1,150.000005722046
89,265,109015,2,0,P|195:247|224:300,1,150.000005722046
256,331,109375,1,0,0:0:0:0:
323,363,109495,1,0,0:0:0:0:
378,312,109615,1,0,0:0:0:0:
465,189,109735,2,0,L|381:218,1,75.0000028610231
446,65,109975,6,0,B|433:115|433:115|408:139,1,75.0000028610231
346,159,110215,1,0,0:0:0:0:
302,97,110335,1,0,0:0:0:0:
363,53,110455,2,0,P|292:21|231:81,1,150.000005722046
202,124,110815,1,0,0:0:0:0:
169,191,110935,1,0,0:0:0:0:
127,128,111055,1,0,0:0:0:0:
104,56,111175,6,0,L|27:26,1,75.0000028610231
32,216,111415,2,0,L|70:293,1,75.0000028610231
212,265,111655,1,0,0:0:0:0:
309,209,111775,1,0,0:0:0:0:
169,191,111895,1,0,0:0:0:0:
320,301,112015,1,0,0:0:0:0:
287,116,112135,1,0,0:0:0:0:
212,265,112255,1,0,0:0:0:0:
241,339,112375,6,0,B|287:298|287:298|319:351|379:361,1,150.000005722046
426,369,112735,1,0,0:0:0:0:
481,318,112855,1,0,0:0:0:0:
410,293,112975,1,0,0:0:0:0:
438,223,113095,2,0,L|499:148,1,75.0000028610231
262,191,113335,2,0,L|350:164,1,75.0000028610231
300,82,113575,2,0,L|381:104,1,75.0000028610231
494,117,113815,5,0,0:0:0:0:
334,170,113935,1,0,0:0:0:0:
414,43,114055,1,0,0:0:0:0:
438,223,114175,1,0,0:0:0:0:
301,234,114295,2,0,P|262:168|284:132,1,75.0000028610231
417,117,114535,2,0,P|407:17|397:-11,1,75.0000028610231
267,81,114775,2,0,L|361:56,1,75.0000028610231
150,92,115015,2,0,L|212:171,1,75.0000028610231
156,222,115255,6,0,P|61:189|37:79,1,200
156,222,115735,2,0,P|139:314|37:340,1,200
285,335,116215,6,0,P|210:357|204:353,1,75.0000028610231
348,279,116455,2,0,P|389:347|384:356,1,75.0000028610231
434,184,116695,2,0,P|481:255|480:268,1,75.0000028610231
353,175,116935,2,0,P|396:113|445:88,1,75.0000028610231
461,77,117175,5,0,0:0:0:0:
409,22,117295,1,0,0:0:0:0:
340,51,117415,1,0,0:0:0:0:
267,30,117535,1,0,0:0:0:0:
217,85,117655,2,0,L|232:192,1,75.0000028610231
95,23,117895,2,0,L|56:107,1,75.0000028610231
81,248,118135,6,0,L|28:158,1,75.0000028610231
193,298,118375,2,0,L|120:366,1,75.0000028610231
327,353,118615,2,0,L|289:266,1,75.0000028610231
239,202,118855,1,0,0:0:0:0:
193,142,118975,1,0,0:0:0:0:
131,184,119095,1,0,0:0:0:0:
76,132,119215,1,0,0:0:0:0:
74,58,119335,6,0,L|172:52,1,75.0000028610231
343,180,119575,2,0,P|297:113|291:110,1,75.0000028610231
246,79,119815,2,0,P|353:64|372:104,1,100
447,147,120055,6,0,L|427:66,1,75.0000028610231
433,263,120295,2,0,L|524:219,1,75.0000028610231
325,297,120535,2,0,L|387:366,1,75.0000028610231
256,266,120775,2,0,L|333:300,1,75.0000028610231
483,357,121015,1,0,0:0:0:0:
324,296,121135,1,0,0:0:0:0:
490,194,121255,1,0,0:0:0:0:
418,325,121375,1,0,0:0:0:0:
418,176,121495,6,0,P|440:252|451:261,1,75.0000028610231
473,100,121735,2,0,L|428:19,1,75.0000028610231
335,31,121975,6,0,B|306:100|306:100|260:40|139:17,1,225.000008583069
89,195,122695,2,0,P|33:121|135:142,1,225.000008583069
128,284,123415,2,0,B|58:295|58:295|104:317|126:358,2,150.000005722046
253,361,124375,6,0,L|333:335,1,75.0000028610231
472,309,124615,2,0,L|404:244,1,75.0000028610231
472,117,124855,2,0,L|475:202,1,75.0000028610231
402,19,125095,2,0,L|349:93,1,75.0000028610231
290,26,125335,2,0,L|218:63,1,75.0000028610231
153,87,125575,1,0,0:0:0:0:
109,25,125695,1,0,0:0:0:0:
52,74,125815,6,0,L|4:160,1,75.0000028610231
121,296,126055,2,0,L|105:196,1,75.0000028610231
153,87,126295,2,0,P|205:77|242:87,1,75.0000028610231
413,101,126535,2,0,L|319:138,1,75.0000028610231
450,284,126775,2,0,L|383:241,1,75.0000028610231
338,300,127015,2,0,L|396:232,1,75.0000028610231
509,153,127255,5,0,0:0:0:0:
495,79,127375,1,0,0:0:0:0:
442,25,127495,1,0,0:0:0:0:
367,18,127615,1,0,0:0:0:0:
340,92,127735,6,0,L|401:157,1,75.0000028610231
235,200,127975,2,0,L|320:193,1,75.0000028610231
250,48,128215,2,0,L|196:119,1,75.0000028610231
43,9,128455,2,0,L|114:41,1,75.0000028610231
21,206,128695,2,0,L|77:151,1,75.0000028610231
188,304,128935,2,0,L|154:234,1,75.0000028610231
20,369,129175,2,0,L|46:292,1,75.0000028610231
173,375,129415,2,0,P|133:352|118:322,1,75.0000028610231
334,346,129655,6,0,P|334:255|252:233,1,150.000005722046
275,302,130015,1,0,0:0:0:0:
200,299,130135,1,0,0:0:0:0:
211,224,130255,1,0,0:0:0:0:
174,158,130375,1,0,0:0:0:0:
99,162,130495,1,0,0:0:0:0:
27,136,130615,2,0,P|92:87|121:95,1,75.0000028610231
265,171,130855,2,0,P|282:249|277:259,1,75.0000028610231
264,312,131095,5,0,0:0:0:0:
118,284,131215,1,0,0:0:0:0:
211,224,131335,1,0,0:0:0:0:
184,333,131455,1,0,0:0:0:0:
124,195,131575,6,0,P|39:192|132:73,1,300.000011444092
176,77,132175,1,0,0:0:0:0:
120,127,132295,1,0,0:0:0:0:
179,172,132415,1,0,0:0:0:0:
249,147,132535,2,0,L|254:50,1,75.0000028610231
440,93,132775,2,0,L|393:15,1,75.0000028610231
479,36,133015,6,0,L|434:101,1,75.0000028610231
388,156,133255,1,0,0:0:0:0:
350,220,133375,1,0,0:0:0:0:
420,246,133495,2,0,L|379:314,1,75.0000028610231
310,337,133735,1,0,0:0:0:0:
165,295,133855,1,0,0:0:0:0:
277,196,133975,1,0,0:0:0:0:
232,339,134095,1,0,0:0:0:0:
205,168,134215,6,0,P|273:121|285:121,1,75.0000028610231
381,310,134455,2,0,P|322:260|311:260,1,75.0000028610231
253,264,134695,1,0,0:0:0:0:
232,339,134815,1,0,0:0:0:0:
157,332,134935,2,0,L|78:355,1,75.0000028610231
152,176,135175,2,0,L|98:239,1,75.0000028610231
49,51,135415,2,0,L|60:136,1,75.0000028610231
253,137,135655,2,0,L|154:70,1,75.0000028610231
121,37,135895,5,0,0:0:0:0:
210,35,136015,1,0,0:0:0:0:
293,68,136135,2,0,L|384:45,1,75.0000028610231
455,36,136375,1,0,0:0:0:0:
390,171,136495,1,0,0:0:0:0:
293,68,136615,1,0,0:0:0:0:
436,110,136735,1,0,0:0:0:0:
508,241,136855,6,0,L|492:320,1,75.0000028610231
279,333,137095,2,0,L|348:283,1,75.0000028610231
485,188,137335,1,0,0:0:0:0:
271,116,137695,1,0,0:0:0:0:
111,274,138055,1,0,0:0:0:0:
328,330,138415,1,0,0:0:0:0:
265,237,138775,2,0,B|226:216|226:216|219:253,2,75.0000028610231
265,237,139255,1,0,0:0:0:0:
