osu file format v14

[General]
AudioFilename: audio.mp3
AudioLeadIn: 0
PreviewTime: 80081
Countdown: 1
SampleSet: Normal
StackLeniency: 0.7
Mode: 1
LetterboxInBreaks: 0
WidescreenStoryboard: 0

[Editor]
DistanceSpacing: 1.1
BeatDivisor: 4
GridSize: 32
TimelineZoom: 2.4

[Metadata]
Title:Khionos TiARA
TitleUnicode:Khionos TiARA
Artist:Ellim Gnirps vs Yomii
ArtistUnicode:Ellim Gnirps vs よみぃ
Creator:L y s
Version:Oni
Source:SOUND VOLTEX IV HEAVENLY HAVEN
Tags:
BeatmapID:1484979
BeatmapSetID:701689

[Difficulty]
HPDrainRate:5
CircleSize:6
OverallDifficulty:5.5
ApproachRate:7
SliderMultiplier:1.4
SliderTickRate:1

[Events]
//Background and Video events
0,0,"bg.jpg",0,0
//Break Periods
//Storyboard Layer 0 (Background)
//Storyboard Layer 1 (Fail)
//Storyboard Layer 2 (Pass)
//Storyboard Layer 3 (Foreground)
//Storyboard Sound Samples

[TimingPoints]
881,300,4,1,0,75,1,0
881,-133.333333333333,4,1,0,75,0,0
12881,-100,4,1,0,100,0,0
32081,-100,4,1,0,100,0,1
44081,-100,4,1,0,100,0,0
44231,-133.333333333333,4,1,0,100,0,0
48881,-100,4,1,0,100,0,0
51281,-100,4,1,0,100,0,0
60881,-133.333333333333,4,1,0,75,0,0
69881,-100,4,1,0,100,0,0
80081,-100,4,1,0,100,0,1
96881,-100,4,1,0,75,0,0
97331,-133.333333333333,4,1,0,75,0,0
98531,-100,4,1,0,100,0,0
99281,-100,4,1,0,100,0,1
108881,300,3,1,0,100,1,0
110681,300,4,1,0,100,1,0

[HitObjects]
256,192,881,5,8,0:0:0:0:
256,192,1331,1,0,0:0:0:0:
256,192,1481,1,8,0:0:0:0:
256,192,1631,1,0,0:0:0:0:
256,192,1781,1,0,0:0:0:0:
256,192,1931,1,8,0:0:0:0:
256,192,2081,1,0,0:0:0:0:
256,192,2381,1,0,0:0:0:0:
256,192,2531,1,0,0:0:0:0:
256,192,2981,1,8,0:0:0:0:
256,192,3281,1,8,0:0:0:0:
256,192,3581,1,0,0:0:0:0:
256,192,3731,1,8,0:0:0:0:
256,192,4181,1,8,0:0:0:0:
256,192,4331,1,8,0:0:0:0:
256,192,4406,1,8,0:0:0:0:
256,192,4481,1,8,0:0:0:0:
256,192,5081,1,8,0:0:0:0:
256,192,5531,1,8,0:0:0:0:
256,192,5606,1,8,0:0:0:0:
256,192,5681,1,8,0:0:0:0:
256,192,6131,1,0,0:0:0:0:
256,192,6281,1,8,0:0:0:0:
256,192,6431,1,0,0:0:0:0:
256,192,6581,1,0,0:0:0:0:
256,192,6731,1,8,0:0:0:0:
256,192,6881,1,0,0:0:0:0:
256,192,7331,1,0,0:0:0:0:
256,192,7781,1,8,0:0:0:0:
256,192,8081,1,0,0:0:0:0:
256,192,8231,1,0,0:0:0:0:
256,192,8306,1,0,0:0:0:0:
256,192,8381,1,0,0:0:0:0:
256,192,8531,1,0,0:0:0:0:
256,192,8606,1,0,0:0:0:0:
256,192,8681,1,0,0:0:0:0:
256,192,8831,1,0,0:0:0:0:
256,192,8981,1,8,0:0:0:0:
256,192,9281,1,8,0:0:0:0:
256,192,9381,1,8,0:0:0:0:
256,192,9481,1,8,0:0:0:0:
256,192,9581,1,8,0:0:0:0:
256,192,9881,1,8,0:0:0:0:
256,192,9981,1,8,0:0:0:0:
256,192,10081,1,8,0:0:0:0:
256,192,10181,1,8,0:0:0:0:
256,192,10481,1,0,0:0:0:0:
256,192,10631,1,8,0:0:0:0:
256,192,10706,1,8,0:0:0:0:
256,192,10781,1,0,0:0:0:0:
256,192,10931,1,8,0:0:0:0:
256,192,11006,1,8,0:0:0:0:
256,192,11081,1,0,0:0:0:0:
256,192,11231,1,8,0:0:0:0:
256,192,11306,1,8,0:0:0:0:
256,192,11381,1,0,0:0:0:0:
256,192,11531,1,8,0:0:0:0:
256,192,11681,1,0,0:0:0:0:
256,192,11831,1,0,0:0:0:0:
256,192,11981,1,0,0:0:0:0:
256,192,12056,1,0,0:0:0:0:
256,192,12131,1,0,0:0:0:0:
256,192,12281,1,0,0:0:0:0:
256,192,12356,1,0,0:0:0:0:
256,192,12431,1,0,0:0:0:0:
256,192,12506,1,0,0:0:0:0:
256,192,12581,1,8,0:0:0:0:
256,192,12731,1,8,0:0:0:0:
256,192,12881,1,4,0:0:0:0:
256,192,13181,1,0,0:0:0:0:
256,192,13481,1,8,0:0:0:0:
256,192,13781,1,8,0:0:0:0:
256,192,13931,1,0,0:0:0:0:
256,192,14081,1,0,0:0:0:0:
256,192,14156,1,0,0:0:0:0:
256,192,14231,1,0,0:0:0:0:
256,192,14306,1,0,0:0:0:0:
256,192,14381,1,8,0:0:0:0:
256,192,14531,1,8,0:0:0:0:
256,192,14681,1,0,0:0:0:0:
256,192,14781,1,0,0:0:0:0:
256,192,14881,1,0,0:0:0:0:
256,192,14981,1,8,0:0:0:0:
256,192,15281,1,8,0:0:0:0:
256,192,15356,1,8,0:0:0:0:
256,192,15506,1,8,0:0:0:0:
256,192,15581,1,0,0:0:0:0:
256,192,15881,1,8,0:0:0:0:
256,192,15981,1,8,0:0:0:0:
256,192,16081,1,8,0:0:0:0:
256,192,16181,1,0,0:0:0:0:
256,192,16281,1,0,0:0:0:0:
256,192,16381,1,0,0:0:0:0:
256,192,16481,1,0,0:0:0:0:
256,192,16781,1,0,0:0:0:0:
256,192,16931,1,8,0:0:0:0:
256,192,17006,1,8,0:0:0:0:
256,192,17081,1,8,0:0:0:0:
256,192,17231,1,0,0:0:0:0:
256,192,17381,1,8,0:0:0:0:
256,192,17681,1,4,0:0:0:0:
256,192,17981,1,0,0:0:0:0:
256,192,18131,1,0,0:0:0:0:
256,192,18281,1,12,0:0:0:0:
256,192,18581,1,12,0:0:0:0:
256,192,18881,1,12,0:0:0:0:
256,192,19181,1,0,0:0:0:0:
256,192,19331,1,8,0:0:0:0:
256,192,19481,1,12,0:0:0:0:
256,192,19781,1,8,0:0:0:0:
256,192,19931,1,0,0:0:0:0:
256,192,20081,1,8,0:0:0:0:
256,192,20156,1,8,0:0:0:0:
256,192,20231,1,8,0:0:0:0:
256,192,20306,1,8,0:0:0:0:
256,192,20381,1,0,0:0:0:0:
256,192,20456,1,0,0:0:0:0:
256,192,20531,1,0,0:0:0:0:
256,192,20681,1,0,0:0:0:0:
256,192,20756,1,0,0:0:0:0:
256,192,20906,1,0,0:0:0:0:
256,192,20981,1,8,0:0:0:0:
256,192,21281,1,8,0:0:0:0:
256,192,21356,1,8,0:0:0:0:
256,192,21431,1,8,0:0:0:0:
256,192,21581,1,0,0:0:0:0:
256,192,21731,1,8,0:0:0:0:
256,192,21806,1,8,0:0:0:0:
256,192,21881,1,0,0:0:0:0:
256,192,22031,1,0,0:0:0:0:
256,192,22181,1,8,0:0:0:0:
256,192,22331,1,8,0:0:0:0:
256,192,22781,1,4,0:0:0:0:
256,192,23081,1,0,0:0:0:0:
256,192,23156,1,0,0:0:0:0:
256,192,23231,1,8,0:0:0:0:
256,192,23306,1,8,0:0:0:0:
256,192,23531,1,8,0:0:0:0:
256,192,23606,1,8,0:0:0:0:
256,192,23681,1,0,0:0:0:0:
256,192,23831,1,0,0:0:0:0:
256,192,23981,1,0,0:0:0:0:
256,192,24056,1,0,0:0:0:0:
256,192,24131,1,0,0:0:0:0:
256,192,24206,1,0,0:0:0:0:
256,192,24281,1,8,0:0:0:0:
256,192,24431,1,0,0:0:0:0:
256,192,24581,1,8,0:0:0:0:
256,192,24731,1,0,0:0:0:0:
256,192,25031,1,8,0:0:0:0:
256,192,25181,1,8,0:0:0:0:
256,192,25331,1,0,0:0:0:0:
256,192,25481,1,8,0:0:0:0:
256,192,25631,1,0,0:0:0:0:
256,192,25781,1,0,0:0:0:0:
256,192,25931,1,8,0:0:0:0:
256,192,26081,1,0,0:0:0:0:
256,192,26231,1,0,0:0:0:0:
256,192,26381,1,0,0:0:0:0:
256,192,26456,1,0,0:0:0:0:
256,192,26531,1,0,0:0:0:0:
256,192,26681,1,0,0:0:0:0:
256,192,26831,1,0,0:0:0:0:
256,192,26981,1,8,0:0:0:0:
256,192,27056,1,0,0:0:0:0:
256,192,27131,1,0,0:0:0:0:
256,192,27206,1,8,0:0:0:0:
256,192,27281,1,8,0:0:0:0:
256,192,27431,1,8,0:0:0:0:
256,192,27581,1,0,0:0:0:0:
256,192,27881,1,0,0:0:0:0:
256,192,28031,1,8,0:0:0:0:
256,192,28181,1,8,0:0:0:0:
256,192,28256,1,8,0:0:0:0:
256,192,28406,1,8,0:0:0:0:
256,192,28556,1,8,0:0:0:0:
256,192,28706,1,8,0:0:0:0:
256,192,28856,1,8,0:0:0:0:
256,192,29081,1,0,0:0:0:0:
256,192,29156,1,0,0:0:0:0:
256,192,29231,1,0,0:0:0:0:
256,192,29381,1,8,0:0:0:0:
256,192,29456,1,8,0:0:0:0:
256,192,29531,1,8,0:0:0:0:
256,192,29681,1,8,0:0:0:0:
256,192,29756,1,8,0:0:0:0:
256,192,29831,1,8,0:0:0:0:
256,192,29981,1,0,0:0:0:0:
256,192,30056,1,0,0:0:0:0:
256,192,30131,1,0,0:0:0:0:
256,192,30281,1,8,0:0:0:0:
256,192,30356,1,8,0:0:0:0:
256,192,30431,1,8,0:0:0:0:
256,192,30506,1,8,0:0:0:0:
256,192,30581,1,8,0:0:0:0:
256,192,30656,1,8,0:0:0:0:
256,192,30731,1,8,0:0:0:0:
256,192,30881,1,8,0:0:0:0:
256,192,31031,1,8,0:0:0:0:
256,192,31181,1,0,0:0:0:0:
256,192,31331,1,0,0:0:0:0:
256,192,31481,1,8,0:0:0:0:
256,192,31556,1,8,0:0:0:0:
256,192,31631,1,8,0:0:0:0:
256,192,31706,1,8,0:0:0:0:
256,192,31781,1,8,0:0:0:0:
256,192,31931,1,0,0:0:0:0:
256,192,32006,1,0,0:0:0:0:
256,192,32081,1,0,0:0:0:0:
256,192,32231,1,8,0:0:0:0:
256,192,32531,1,0,0:0:0:0:
256,192,32681,1,8,0:0:0:0:
256,192,32981,1,8,0:0:0:0:
256,192,33131,1,0,0:0:0:0:
256,192,33431,1,8,0:0:0:0:
256,192,33581,1,8,0:0:0:0:
256,192,33881,1,8,0:0:0:0:
256,192,34031,1,0,0:0:0:0:
256,192,34331,1,8,0:0:0:0:
256,192,34406,1,8,0:0:0:0:
256,192,34481,1,0,0:0:0:0:
256,192,34781,1,8,0:0:0:0:
256,192,34931,1,0,0:0:0:0:
256,192,35231,1,8,0:0:0:0:
256,192,35381,1,8,0:0:0:0:
256,192,35681,1,8,0:0:0:0:
256,192,35831,1,0,0:0:0:0:
256,192,36131,1,8,0:0:0:0:
256,192,36281,1,0,0:0:0:0:
256,192,36581,1,0,0:0:0:0:
256,192,36731,1,0,0:0:0:0:
256,192,36806,1,0,0:0:0:0:
256,192,36881,1,0,0:0:0:0:
256,192,37031,1,8,0:0:0:0:
256,192,37331,1,0,0:0:0:0:
256,192,37406,1,0,0:0:0:0:
256,192,37481,1,8,0:0:0:0:
256,192,37781,1,8,0:0:0:0:
256,192,37931,1,0,0:0:0:0:
256,192,38231,1,8,0:0:0:0:
256,192,38306,1,8,0:0:0:0:
256,192,38381,1,0,0:0:0:0:
256,192,38681,1,8,0:0:0:0:
256,192,38831,1,0,0:0:0:0:
256,192,39131,1,8,0:0:0:0:
256,192,39206,1,0,0:0:0:0:
256,192,39281,1,8,0:0:0:0:
256,192,39431,1,8,0:0:0:0:
256,192,39581,1,0,0:0:0:0:
256,192,39731,1,0,0:0:0:0:
256,192,40031,1,0,0:0:0:0:
256,192,40106,1,0,0:0:0:0:
256,192,40181,1,8,0:0:0:0:
256,192,40331,1,8,0:0:0:0:
256,192,40481,1,8,0:0:0:0:
256,192,40631,1,8,0:0:0:0:
256,192,40781,1,0,0:0:0:0:
256,192,40931,1,0,0:0:0:0:
256,192,41381,1,8,0:0:0:0:
256,192,41456,1,8,0:0:0:0:
256,192,41531,1,8,0:0:0:0:
256,192,41606,1,8,0:0:0:0:
256,192,41681,1,8,0:0:0:0:
256,192,41831,1,0,0:0:0:0:
256,192,41981,1,8,0:0:0:0:
256,192,42131,1,8,0:0:0:0:
256,192,42281,1,0,0:0:0:0:
256,192,42356,1,0,0:0:0:0:
256,192,42431,1,0,0:0:0:0:
256,192,42581,1,8,0:0:0:0:
256,192,42731,1,0,0:0:0:0:
256,192,42881,1,0,0:0:0:0:
256,192,42956,1,0,0:0:0:0:
256,192,43031,1,0,0:0:0:0:
256,192,43106,1,0,0:0:0:0:
256,192,43181,1,8,0:0:0:0:
256,192,43256,1,8,0:0:0:0:
256,192,43331,1,8,0:0:0:0:
256,192,43481,12,0,43631,0:0:0:0:
256,192,43781,5,8,0:0:0:0:
256,192,44081,1,12,0:0:0:0:
256,192,44231,1,0,0:0:0:0:
256,192,44531,1,8,0:0:0:0:
256,192,44606,1,8,0:0:0:0:
256,192,44681,1,0,0:0:0:0:
256,192,44981,1,8,0:0:0:0:
256,192,45131,1,0,0:0:0:0:
256,192,45431,1,8,0:0:0:0:
256,192,45581,1,0,0:0:0:0:
256,192,45881,1,0,0:0:0:0:
256,192,45981,1,0,0:0:0:0:
256,192,46081,1,0,0:0:0:0:
256,192,46181,1,8,0:0:0:0:
256,192,46281,1,8,0:0:0:0:
256,192,46381,1,0,0:0:0:0:
256,192,46481,1,8,0:0:0:0:
256,192,46631,1,0,0:0:0:0:
256,192,46931,1,8,0:0:0:0:
256,192,47006,1,8,0:0:0:0:
256,192,47081,1,0,0:0:0:0:
256,192,47381,1,8,0:0:0:0:
256,192,47531,1,0,0:0:0:0:
256,192,47831,1,8,0:0:0:0:
256,192,47981,1,0,0:0:0:0:
256,192,48281,1,0,0:0:0:0:
256,192,48381,1,0,0:0:0:0:
256,192,48481,1,0,0:0:0:0:
256,192,48581,1,8,0:0:0:0:
256,192,48881,1,0,0:0:0:0:
256,192,48956,1,0,0:0:0:0:
256,192,49031,1,0,0:0:0:0:
256,192,49106,1,0,0:0:0:0:
256,192,49181,1,0,0:0:0:0:
256,192,49331,1,8,0:0:0:0:
256,192,49481,1,0,0:0:0:0:
256,192,49556,1,0,0:0:0:0:
256,192,49631,1,8,0:0:0:0:
256,192,49706,1,8,0:0:0:0:
256,192,49781,1,0,0:0:0:0:
256,192,49931,1,8,0:0:0:0:
256,192,50081,1,0,0:0:0:0:
256,192,50681,1,8,0:0:0:0:
256,192,51281,1,4,0:0:0:0:
256,192,51581,1,0,0:0:0:0:
256,192,51731,1,8,0:0:0:0:
256,192,51881,1,0,0:0:0:0:
256,192,52031,1,0,0:0:0:0:
256,192,52181,1,8,0:0:0:0:
256,192,52256,1,8,0:0:0:0:
256,192,52331,1,0,0:0:0:0:
256,192,52481,1,0,0:0:0:0:
256,192,52581,1,0,0:0:0:0:
256,192,52681,1,0,0:0:0:0:
256,192,52781,1,8,0:0:0:0:
256,192,52881,1,8,0:0:0:0:
256,192,52981,1,8,0:0:0:0:
256,192,53081,1,0,0:0:0:0:
256,192,53231,1,8,0:0:0:0:
256,192,53306,1,8,0:0:0:0:
256,192,53381,1,0,0:0:0:0:
256,192,53831,1,8,0:0:0:0:
256,192,54131,1,8,0:0:0:0:
256,192,54431,1,8,0:0:0:0:
256,192,54731,1,8,0:0:0:0:
256,192,54881,1,0,0:0:0:0:
256,192,55031,1,8,0:0:0:0:
256,192,55106,1,8,0:0:0:0:
256,192,55181,1,8,0:0:0:0:
256,192,55331,1,0,0:0:0:0:
256,192,55481,1,0,0:0:0:0:
256,192,55631,1,8,0:0:0:0:
256,192,55706,1,8,0:0:0:0:
256,192,55781,1,8,0:0:0:0:
256,192,55931,1,0,0:0:0:0:
256,192,56081,1,12,0:0:0:0:
256,192,56381,1,0,0:0:0:0:
256,192,56531,1,8,0:0:0:0:
256,192,56681,1,0,0:0:0:0:
256,192,56756,1,0,0:0:0:0:
256,192,56831,1,8,0:0:0:0:
256,192,56906,1,8,0:0:0:0:
256,192,56981,1,0,0:0:0:0:
256,192,57131,1,8,0:0:0:0:
256,192,57281,1,8,0:0:0:0:
256,192,57431,1,8,0:0:0:0:
256,192,57581,1,0,0:0:0:0:
256,192,57731,1,8,0:0:0:0:
256,192,57881,1,0,0:0:0:0:
256,192,57956,1,0,0:0:0:0:
256,192,58031,1,0,0:0:0:0:
256,192,58181,1,8,0:0:0:0:
256,192,58331,1,8,0:0:0:0:
256,192,58406,1,8,0:0:0:0:
256,192,58481,1,0,0:0:0:0:
256,192,58631,1,8,0:0:0:0:
256,192,58781,1,0,0:0:0:0:
256,192,58931,1,8,0:0:0:0:
256,192,59081,1,0,0:0:0:0:
256,192,59231,1,8,0:0:0:0:
256,192,59381,1,0,0:0:0:0:
256,192,59531,1,8,0:0:0:0:
256,192,59681,1,0,0:0:0:0:
256,192,59756,1,8,0:0:0:0:
256,192,59831,1,0,0:0:0:0:
256,192,59906,1,8,0:0:0:0:
256,192,59981,1,0,0:0:0:0:
256,192,60131,1,8,0:0:0:0:
256,192,60281,1,0,0:0:0:0:
256,192,60431,1,0,0:0:0:0:
256,192,60506,1,0,0:0:0:0:
256,192,60581,1,8,0:0:0:0:
256,192,60881,1,4,0:0:0:0:
256,192,61331,1,0,0:0:0:0:
256,192,61781,1,8,0:0:0:0:
256,192,62081,1,8,0:0:0:0:
256,192,62381,1,8,0:0:0:0:
256,192,62681,1,8,0:0:0:0:
256,192,62781,1,0,0:0:0:0:
256,192,62881,1,0,0:0:0:0:
256,192,62981,1,8,0:0:0:0:
256,192,63131,1,0,0:0:0:0:
256,192,63281,1,8,0:0:0:0:
256,192,63881,1,0,0:0:0:0:
256,192,64081,1,8,0:0:0:0:
256,192,64281,1,8,0:0:0:0:
256,192,64481,1,8,0:0:0:0:
256,192,64681,1,8,0:0:0:0:
256,192,64881,1,0,0:0:0:0:
256,192,65081,1,8,0:0:0:0:
256,192,65231,1,8,0:0:0:0:
256,192,65306,1,8,0:0:0:0:
256,192,65381,1,0,0:0:0:0:
256,192,65681,1,8,0:0:0:0:
256,192,66131,1,8,0:0:0:0:
256,192,66581,1,8,0:0:0:0:
256,192,66881,1,8,0:0:0:0:
256,192,67181,1,8,0:0:0:0:
256,192,67481,1,8,0:0:0:0:
256,192,67581,1,0,0:0:0:0:
256,192,67681,1,0,0:0:0:0:
256,192,67781,1,8,0:0:0:0:
256,192,67931,1,0,0:0:0:0:
256,192,68081,1,8,0:0:0:0:
256,192,68531,1,8,0:0:0:0:
256,192,68831,1,8,0:0:0:0:
256,192,68981,1,8,0:0:0:0:
256,192,69131,1,0,0:0:0:0:
256,192,69281,1,8,0:0:0:0:
256,192,69356,1,8,0:0:0:0:
256,192,69431,1,8,0:0:0:0:
256,192,69881,1,0,0:0:0:0:
256,192,69956,1,0,0:0:0:0:
256,192,70031,1,0,0:0:0:0:
256,192,70106,1,0,0:0:0:0:
256,192,70181,1,8,0:0:0:0:
256,192,70256,1,8,0:0:0:0:
256,192,70331,1,8,0:0:0:0:
256,192,70406,1,8,0:0:0:0:
256,192,70481,1,0,0:0:0:0:
256,192,70781,1,0,0:0:0:0:
256,192,70931,1,0,0:0:0:0:
256,192,71381,1,8,0:0:0:0:
256,192,71681,1,8,0:0:0:0:
256,192,71781,1,8,0:0:0:0:
256,192,71881,1,8,0:0:0:0:
256,192,71981,1,8,0:0:0:0:
256,192,72131,1,0,0:0:0:0:
256,192,72281,1,8,0:0:0:0:
256,192,72381,1,0,0:0:0:0:
256,192,72481,1,0,0:0:0:0:
256,192,72581,1,8,0:0:0:0:
256,192,72731,1,0,0:0:0:0:
256,192,72881,1,12,0:0:0:0:
256,192,73181,1,0,0:0:0:0:
256,192,73331,1,8,0:0:0:0:
256,192,73631,1,0,0:0:0:0:
256,192,73781,1,8,0:0:0:0:
256,192,73931,1,8,0:0:0:0:
256,192,74081,1,8,0:0:0:0:
256,192,74231,1,0,0:0:0:0:
256,192,74306,1,0,0:0:0:0:
256,192,74381,1,0,0:0:0:0:
256,192,74531,1,8,0:0:0:0:
256,192,74831,1,8,0:0:0:0:
256,192,74906,1,8,0:0:0:0:
256,192,74981,1,0,0:0:0:0:
256,192,75281,8,0,75581,0:0:0:0:
256,192,75881,5,8,0:0:0:0:
256,192,75956,1,8,0:0:0:0:
256,192,76031,1,8,0:0:0:0:
256,192,76106,1,8,0:0:0:0:
256,192,76181,1,0,0:0:0:0:
256,192,76331,1,8,0:0:0:0:
256,192,76481,8,0,76781,0:0:0:0:
256,192,77081,5,0,0:0:0:0:
256,192,77156,1,0,0:0:0:0:
256,192,77231,1,8,0:0:0:0:
256,192,77306,1,8,0:0:0:0:
256,192,77381,1,0,0:0:0:0:
256,192,77681,1,0,0:0:0:0:
256,192,77981,1,0,0:0:0:0:
256,192,78131,1,8,0:0:0:0:
256,192,78281,1,8,0:0:0:0:
256,192,78581,1,0,0:0:0:0:
256,192,78881,1,8,0:0:0:0:
256,192,78956,1,0,0:0:0:0:
256,192,79031,1,0,0:0:0:0:
256,192,79106,1,8,0:0:0:0:
256,192,79181,1,0,0:0:0:0:
256,192,79331,1,8,0:0:0:0:
256,192,79406,1,8,0:0:0:0:
256,192,79481,1,0,0:0:0:0:
256,192,79556,1,8,0:0:0:0:
256,192,79631,1,0,0:0:0:0:
256,192,79781,1,8,0:0:0:0:
256,192,79856,1,8,0:0:0:0:
256,192,79931,1,0,0:0:0:0:
256,192,80081,1,12,0:0:0:0:
256,192,80381,1,0,0:0:0:0:
256,192,80681,1,0,0:0:0:0:
256,192,80831,1,0,0:0:0:0:
256,192,80981,1,8,0:0:0:0:
256,192,81131,1,8,0:0:0:0:
256,192,81281,1,0,0:0:0:0:
256,192,81581,1,0,0:0:0:0:
256,192,81731,1,8,0:0:0:0:
256,192,81881,1,0,0:0:0:0:
256,192,81956,1,0,0:0:0:0:
256,192,82031,1,0,0:0:0:0:
256,192,82181,1,8,0:0:0:0:
256,192,82481,1,8,0:0:0:0:
256,192,82556,1,8,0:0:0:0:
256,192,82631,1,0,0:0:0:0:
256,192,82706,1,0,0:0:0:0:
256,192,82781,1,0,0:0:0:0:
256,192,82931,1,8,0:0:0:0:
256,192,83006,1,8,0:0:0:0:
256,192,83081,1,0,0:0:0:0:
256,192,83156,1,0,0:0:0:0:
256,192,83231,1,0,0:0:0:0:
256,192,83381,1,8,0:0:0:0:
256,192,83456,1,8,0:0:0:0:
256,192,83531,1,0,0:0:0:0:
256,192,83681,1,8,0:0:0:0:
256,192,83981,1,0,0:0:0:0:
256,192,84131,1,8,0:0:0:0:
256,192,84281,1,0,0:0:0:0:
256,192,84356,1,0,0:0:0:0:
256,192,84431,1,8,0:0:0:0:
256,192,84581,1,0,0:0:0:0:
256,192,84656,1,8,0:0:0:0:
256,192,84731,1,8,0:0:0:0:
256,192,84881,1,8,0:0:0:0:
256,192,85181,1,0,0:0:0:0:
256,192,85331,1,0,0:0:0:0:
256,192,85481,1,8,0:0:0:0:
256,192,85556,1,0,0:0:0:0:
256,192,85631,1,0,0:0:0:0:
256,192,85706,1,8,0:0:0:0:
256,192,85781,1,0,0:0:0:0:
256,192,85931,1,8,0:0:0:0:
256,192,86081,12,0,86381,0:0:0:0:
256,192,86681,5,8,0:0:0:0:
256,192,86781,1,8,0:0:0:0:
256,192,86881,1,8,0:0:0:0:
256,192,86981,1,8,0:0:0:0:
256,192,87281,1,8,0:0:0:0:
256,192,87581,1,8,0:0:0:0:
256,192,87731,1,0,0:0:0:0:
256,192,88031,1,0,0:0:0:0:
256,192,88181,1,8,0:0:0:0:
256,192,88481,1,8,0:0:0:0:
256,192,88556,1,8,0:0:0:0:
256,192,88631,1,8,0:0:0:0:
256,192,88706,1,8,0:0:0:0:
256,192,88781,1,0,0:0:0:0:
256,192,88931,1,0,0:0:0:0:
256,192,89081,1,8,0:0:0:0:
256,192,89156,1,8,0:0:0:0:
256,192,89231,1,0,0:0:0:0:
256,192,89306,1,0,0:0:0:0:
256,192,89381,1,0,0:0:0:0:
256,192,89531,1,0,0:0:0:0:
256,192,89681,1,12,0:0:0:0:
256,192,89981,1,0,0:0:0:0:
256,192,90281,1,0,0:0:0:0:
256,192,90431,1,0,0:0:0:0:
256,192,90581,1,8,0:0:0:0:
256,192,90731,1,0,0:0:0:0:
256,192,90881,1,8,0:0:0:0:
256,192,91181,1,0,0:0:0:0:
256,192,91331,1,8,0:0:0:0:
256,192,91631,1,0,0:0:0:0:
256,192,91781,1,8,0:0:0:0:
256,192,91931,1,0,0:0:0:0:
256,192,92081,1,8,0:0:0:0:
256,192,92156,1,8,0:0:0:0:
256,192,92231,1,0,0:0:0:0:
256,192,92306,1,0,0:0:0:0:
256,192,92381,1,0,0:0:0:0:
256,192,92531,1,8,0:0:0:0:
256,192,92606,1,8,0:0:0:0:
256,192,92681,1,0,0:0:0:0:
256,192,92831,1,0,0:0:0:0:
256,192,92981,1,8,0:0:0:0:
256,192,93131,1,8,0:0:0:0:
256,192,93281,1,0,0:0:0:0:
256,192,93356,1,0,0:0:0:0:
256,192,93431,1,0,0:0:0:0:
256,192,93506,1,0,0:0:0:0:
256,192,93581,1,0,0:0:0:0:
256,192,93881,1,8,0:0:0:0:
256,192,93956,1,8,0:0:0:0:
256,192,94031,1,8,0:0:0:0:
256,192,94106,1,8,0:0:0:0:
256,192,94181,1,8,0:0:0:0:
256,192,94256,1,8,0:0:0:0:
256,192,94331,1,0,0:0:0:0:
256,192,94481,1,8,0:0:0:0:
256,192,94631,1,0,0:0:0:0:
256,192,94781,1,0,0:0:0:0:
256,192,94856,1,8,0:0:0:0:
256,192,94931,1,0,0:0:0:0:
256,192,95081,1,0,0:0:0:0:
256,192,95156,1,0,0:0:0:0:
256,192,95231,1,8,0:0:0:0:
256,192,95306,1,8,0:0:0:0:
256,192,95381,1,0,0:0:0:0:
256,192,95531,1,8,0:0:0:0:
256,192,95681,1,8,0:0:0:0:
256,192,95756,1,0,0:0:0:0:
256,192,95831,1,0,0:0:0:0:
256,192,95906,1,0,0:0:0:0:
256,192,95981,1,0,0:0:0:0:
256,192,96131,1,0,0:0:0:0:
256,192,96281,1,8,0:0:0:0:
256,192,96431,1,0,0:0:0:0:
256,192,96506,1,0,0:0:0:0:
256,192,96581,1,8,0:0:0:0:
256,192,96731,1,8,0:0:0:0:
256,192,96806,1,8,0:0:0:0:
256,192,96881,1,0,0:0:0:0:
256,192,97331,1,8,0:0:0:0:
256,192,97631,1,0,0:0:0:0:
256,192,97781,1,0,0:0:0:0:
256,192,97931,1,8,0:0:0:0:
256,192,98081,1,0,0:0:0:0:
256,192,98381,1,0,0:0:0:0:
256,192,98531,1,0,0:0:0:0:
256,192,98606,1,0,0:0:0:0:
256,192,98681,1,8,0:0:0:0:
256,192,98831,1,12,0:0:0:0:
256,192,98981,1,0,0:0:0:0:
256,192,99056,1,0,0:0:0:0:
256,192,99131,1,0,0:0:0:0:
256,192,99206,1,0,0:0:0:0:
256,192,99281,1,0,0:0:0:0:
256,192,99581,1,8,0:0:0:0:
256,192,99806,1,8,0:0:0:0:
256,192,99956,1,8,0:0:0:0:
256,192,100106,1,8,0:0:0:0:
256,192,100181,1,8,0:0:0:0:
256,192,100481,1,8,0:0:0:0:
256,192,100556,1,8,0:0:0:0:
256,192,100631,1,8,0:0:0:0:
256,192,100781,1,8,0:0:0:0:
256,192,100856,1,8,0:0:0:0:
256,192,100931,1,8,0:0:0:0:
256,192,101081,1,0,0:0:0:0:
256,192,101156,1,0,0:0:0:0:
256,192,101231,1,0,0:0:0:0:
256,192,101381,1,0,0:0:0:0:
256,192,101456,1,0,0:0:0:0:
256,192,101531,1,0,0:0:0:0:
256,192,101681,1,0,0:0:0:0:
256,192,101981,1,8,0:0:0:0:
256,192,102206,1,8,0:0:0:0:
256,192,102356,1,8,0:0:0:0:
256,192,102506,1,8,0:0:0:0:
256,192,102581,1,8,0:0:0:0:
256,192,102881,1,8,0:0:0:0:
256,192,102956,1,8,0:0:0:0:
256,192,103031,1,8,0:0:0:0:
256,192,103181,1,8,0:0:0:0:
256,192,103256,1,8,0:0:0:0:
256,192,103331,1,8,0:0:0:0:
256,192,103481,1,0,0:0:0:0:
256,192,103556,1,0,0:0:0:0:
256,192,103631,1,0,0:0:0:0:
256,192,103781,1,0,0:0:0:0:
256,192,103856,1,0,0:0:0:0:
256,192,103931,1,0,0:0:0:0:
256,192,104081,1,0,0:0:0:0:
256,192,104381,1,8,0:0:0:0:
256,192,104606,1,8,0:0:0:0:
256,192,104756,1,8,0:0:0:0:
256,192,104906,1,8,0:0:0:0:
256,192,104981,1,8,0:0:0:0:
256,192,105281,1,8,0:0:0:0:
256,192,105356,1,8,0:0:0:0:
256,192,105431,1,8,0:0:0:0:
256,192,105506,1,8,0:0:0:0:
256,192,105581,1,0,0:0:0:0:
256,192,105656,1,0,0:0:0:0:
256,192,105731,1,0,0:0:0:0:
256,192,105881,1,8,0:0:0:0:
256,192,105956,1,8,0:0:0:0:
256,192,106031,1,8,0:0:0:0:
256,192,106106,1,8,0:0:0:0:
256,192,106181,1,0,0:0:0:0:
256,192,106256,1,0,0:0:0:0:
256,192,106331,1,0,0:0:0:0:
256,192,106481,1,0,0:0:0:0:
256,192,106781,1,8,0:0:0:0:
256,192,107006,1,8,0:0:0:0:
256,192,107156,1,8,0:0:0:0:
256,192,107306,1,8,0:0:0:0:
256,192,107381,1,8,0:0:0:0:
256,192,107456,1,8,0:0:0:0:
256,192,107681,1,8,0:0:0:0:
256,192,107756,1,8,0:0:0:0:
256,192,107831,1,8,0:0:0:0:
256,192,107906,1,8,0:0:0:0:
256,192,107981,1,0,0:0:0:0:
256,192,108056,1,0,0:0:0:0:
256,192,108131,1,0,0:0:0:0:
256,192,108281,1,8,0:0:0:0:
256,192,108356,1,8,0:0:0:0:
256,192,108431,1,8,0:0:0:0:
256,192,108506,1,8,0:0:0:0:
256,192,108581,1,0,0:0:0:0:
256,192,108656,1,0,0:0:0:0:
256,192,108731,1,0,0:0:0:0:
256,192,108881,1,0,0:0:0:0:
256,192,109031,1,0,0:0:0:0:
256,192,109181,1,8,0:0:0:0:
256,192,109331,1,8,0:0:0:0:
256,192,109481,1,0,0:0:0:0:
256,192,109631,1,8,0:0:0:0:
256,192,109781,1,0,0:0:0:0:
256,192,109931,1,0,0:0:0:0:
256,192,110081,1,8,0:0:0:0:
256,192,110231,1,8,0:0:0:0:
256,192,110381,1,0,0:0:0:0:
256,192,110531,1,8,0:0:0:0:
256,192,110681,1,0,0:0:0:0:
256,192,110881,1,0,0:0:0:0:
256,192,110981,1,8,0:0:0:0:
256,192,111181,1,8,0:0:0:0:
256,192,111281,1,0,0:0:0:0:
256,192,111481,1,0,0:0:0:0:
256,192,111581,1,8,0:0:0:0:
256,192,111781,1,8,0:0:0:0:
256,192,111881,1,0,0:0:0:0:
256,192,112031,1,0,0:0:0:0:
256,192,112181,1,8,0:0:0:0:
256,192,112331,1,8,0:0:0:0:
256,192,112481,1,0,0:0:0:0:
256,192,112581,1,0,0:0:0:0:
256,192,112681,1,0,0:0:0:0:
256,192,112781,1,0,0:0:0:0:
256,192,112931,1,8,0:0:0:0:
256,192,113081,1,0,0:0:0:0:
256,192,113231,1,0,0:0:0:0:
256,192,113531,1,0,0:0:0:0:
256,192,113681,1,0,0:0:0:0:
256,192,113981,1,8,0:0:0:0:
256,192,114131,1,0,0:0:0:0:
256,192,114431,1,0,0:0:0:0:
256,192,114581,1,0,0:0:0:0:
256,192,114881,1,8,0:0:0:0:
256,192,115031,1,0,0:0:0:0:
256,192,115181,1,0,0:0:0:0:
256,192,115256,1,0,0:0:0:0:
256,192,115331,1,8,0:0:0:0:
256,192,115481,8,0,118481,0:0:0:0:
