osu file format v14

[General]
AudioFilename: audio.mp3
AudioLeadIn: 0
PreviewTime: 89087
Countdown: 0
SampleSet: Soft
StackLeniency: 0.7
Mode: 0
LetterboxInBreaks: 0
WidescreenStoryboard: 0

[Editor]
Bookmarks: 6899,20233,35233,48566,61900,75233,90233,103566,116900,130233,144191,146066,158566,171900
DistanceSpacing: 0.5
BeatDivisor: 4
GridSize: 32
TimelineZoom: 1.9

[Metadata]
Title:Close to Me (Red Velvet Remix)
TitleUnicode:Close to Me (Red Velvet Remix)
Artist:Ellie Goulding, Diplo
ArtistUnicode:Ellie Goulding, Diplo
Creator:Marianna
Version:Without You
Source:
Tags:
BeatmapID:1990804
BeatmapSetID:953509

[Difficulty]
HPDrainRate:6
CircleSize:4
OverallDifficulty:8
ApproachRate:9.2
SliderMultiplier:1.83
SliderTickRate:1

[Events]
//Background and Video events
0,0,"Background.jpg",0,0
//Break Periods
2,130433,143621
//Storyboard Layer 0 (Background)
//Storyboard Layer 1 (Fail)
//Storyboard Layer 2 (Pass)
//Storyboard Layer 3 (Foreground)
//Storyboard Sound Samples

[TimingPoints]
6900,416.666666666667,4,2,1,25,1,0
6900,-125,4,2,1,25,0,0
20233,-111.111111111111,4,2,1,30,0,0
35233,-90.9090909090908,4,2,1,40,0,1
39712,-90.9090909090908,4,2,1,5,0,1
39816,-90.9090909090908,4,2,1,40,0,1
46379,-90.9090909090908,4,2,1,5,0,1
46483,-90.9090909090908,4,2,1,40,0,1
47108,-125,4,2,1,40,0,0
48566,-90.9090909090909,4,2,1,40,0,1
59712,-90.9090909090908,4,2,1,5,0,1
59816,-90.9090909090908,4,2,1,40,0,1
60025,-125,4,2,1,30,0,0
60650,-125,4,2,1,5,0,0
61066,-125,4,2,1,30,0,0
61900,-111.111111111111,4,2,1,30,0,0
62733,-142.857142857143,4,2,1,30,0,0
63566,-111.111111111111,4,2,1,30,0,0
64400,-142.857142857143,4,2,1,30,0,0
65233,-111.111111111111,4,2,1,30,0,0
69400,-142.857142857143,4,2,1,30,0,0
70233,-111.111111111111,4,2,1,30,0,0
71066,-142.857142857143,4,2,1,30,0,0
71900,-111.111111111111,4,2,1,30,0,0
75233,-125,4,2,1,30,0,0
81900,-111.111111111111,4,2,1,30,0,0
90233,-90.9090909090908,4,2,1,40,0,1
94712,-90.9090909090908,4,2,1,5,0,1
94816,-90.9090909090908,4,2,1,40,0,1
101379,-90.9090909090908,4,2,1,5,0,1
101483,-90.9090909090908,4,2,1,40,0,1
102108,-125,4,2,1,40,0,0
103566,-90.9090909090909,4,2,1,40,0,1
114712,-90.9090909090909,4,2,1,5,0,1
114816,-90.9090909090909,4,2,1,40,0,1
116900,-100,4,2,1,40,0,0
144191,-100,4,2,1,30,0,0
146066,-90.9090909090908,4,2,1,40,0,1
149712,-90.9090909090908,4,2,1,5,0,1
149816,-90.9090909090908,4,2,1,40,0,1
156379,-90.9090909090908,4,2,1,5,0,1
156483,-90.9090909090908,4,2,1,40,0,1
157316,-125,4,2,1,40,0,0
158566,-90.9090909090908,4,2,1,40,0,1
169712,-90.9090909090908,4,2,1,5,0,1
169816,-90.9090909090908,4,2,1,40,0,1
171900,-100,4,2,1,30,0,0

[Colours]
Combo1 : 199,199,141
Combo2 : 255,128,192
SliderBorder : 255,182,193
SliderTrackOverride : 10,9,20

[HitObjects]
136,55,6066,5,2,0:0:0:0:
136,55,6275,1,0,0:0:0:0:
136,55,6483,1,0,0:0:0:0:
136,55,6691,1,0,0:0:0:0:
61,106,6900,6,0,P|67:141|70:178,1,73.2,4|0,0:0|0:0,0:0:0:0:
45,352,7316,1,2,0:0:0:0:
162,234,7525,1,0,0:0:0:0:
32,264,7733,2,0,B|108:256|89:319|162:314,1,146.4,8|2,0:0|0:0,0:0:0:0:
321,289,8358,1,2,0:0:0:0:
155,161,8566,6,0,P|158:197|161:233,1,73.2,2|0,0:0|0:0,0:0:0:0:
321,289,8983,2,0,P|324:252|327:216,1,73.2
209,97,9400,2,0,P|141:76|82:116,1,146.4,8|0,0:0|0:0,0:0:0:0:
154,161,10025,1,2,0:0:0:0:
338,44,10233,6,0,P|374:49|410:46,1,73.2,2|2,0:0|0:0,0:0:0:0:
319,208,10650,1,0,0:0:0:0:
261,63,10858,1,2,0:0:0:0:
363,138,11066,2,0,B|301:131|301:131|282:140|282:140|220:133,1,146.4,8|2,0:0|0:0,0:0:0:0:
0,33,11900,6,0,P|2:69|0:106,1,73.2,2|0,0:0|0:0,0:0:0:0:
146,82,12316,2,0,P|143:118|145:155,1,73.2,2|2,0:0|0:0,0:0:0:0:
43,266,12733,1,2,0:0:0:0:
43,266,12941,1,0,0:0:0:0:
43,266,13150,1,0,0:0:0:0:
43,266,13358,2,0,L|42:284,1,18.3,2|0,0:0|0:0,0:0:0:0:
199,354,13566,6,0,P|235:352|272:353,1,73.2,2|0,0:0|0:0,0:0:0:0:
391,241,13983,1,2,0:0:0:0:
374,365,14191,1,2,0:0:0:0:
325,192,14400,2,0,P|387:159|451:187,1,146.4,8|0,0:0|0:0,0:0:0:0:
391,241,15025,1,2,0:0:0:0:
254,121,15233,6,0,P|254:85|250:49,1,73.2,2|0,0:0|0:0,0:0:0:0:
387,159,15650,2,0,P|387:122|391:86,1,73.2,2|2,0:0|0:0,0:0:0:0:
205,205,16066,2,0,B|133:224|133:224|67:194,1,146.4,8|0,0:0|0:0,0:0:0:0:
142,126,16691,1,2,0:0:0:0:
266,286,16900,6,0,P|263:322|261:359,1,73.2,2|0,0:0|0:0,0:0:0:0:
205,205,17316,1,2,0:0:0:0:
359,265,17525,1,2,0:0:0:0:
152,308,17733,2,0,B|76:295|88:346|10:328,1,146.4,8|2,0:0|0:0,0:0:0:0:
152,308,18566,6,0,P|147:271|143:235,1,73.2,2|0,0:0|0:0,0:0:0:0:
284,373,18983,2,0,P|288:336|292:300,1,73.2,2|2,0:0|0:0,0:0:0:0:
64,357,19400,2,0,P|57:285|42:213,1,146.4,8|2,0:0|0:0,0:0:0:0:
430,24,20233,6,0,P|427:65|426:106,1,82.3499974868775,4|0,0:0|0:0,0:0:0:0:
247,170,20650,2,0,P|245:128|243:87,1,82.3499974868775,4|0,0:0|0:0,0:0:0:0:
503,212,21066,2,0,B|426:239|426:239|349:206,1,164.699994973755,8|0,0:0|0:0,0:0:0:0:
426,106,21691,1,0,0:0:0:0:
446,323,21900,5,2,0:0:0:0:
349,206,22108,1,4,0:0:0:0:
505,129,22316,2,0,P|504:170|502:211,1,82.3499974868775,4|0,0:0|0:0,0:0:0:0:
243,310,22733,2,0,P|240:268|240:227,1,82.3499974868775,8|0,0:0|0:0,0:0:0:0:
279,84,23150,1,2,0:0:0:0:
279,84,23254,1,2,0:0:0:0:
279,84,23358,1,2,0:0:0:0:
502,211,23566,6,0,B|463:223|463:223|422:212,1,82.3499974868775,4|0,0:0|0:0,0:0:0:0:
279,84,23983,2,0,B|318:72|318:72|359:83,1,82.3499974868775,4|0,0:0|0:0,0:0:0:0:
271,290,24400,2,0,B|188:281|209:349|118:329,1,164.699994973755,8|0,0:0|0:0,0:0:0:0:
4,194,25025,6,0,B|43:182|43:182|84:193,1,82.3499974868775,4|2,0:0|0:0,0:0:0:0:
118,329,25441,1,0,0:0:0:0:
304,227,25650,2,0,B|265:239|265:239|224:228,1,82.3499974868775,4|0,0:0|0:0,0:0:0:0:
88,95,26066,2,0,B|127:83|127:83|168:94,1,82.3499974868775,8|0,0:0|0:0,0:0:0:0:
383,182,26483,1,2,0:0:0:0:
383,182,26587,1,2,0:0:0:0:
383,182,26691,1,2,0:0:0:0:
174,371,26900,6,0,P|172:329|169:288,1,82.3499974868775,4|0,0:0|0:0,0:0:0:0:
383,182,27316,2,0,P|380:223|378:264,1,82.3499974868775,4|0,0:0|0:0,0:0:0:0:
97,169,27733,2,0,B|176:145|176:145|251:178,1,164.699994973755,8|0,0:0|0:0,0:0:0:0:
169,288,28358,1,0,0:0:0:0:
104,71,28566,5,2,0:0:0:0:
251,178,28775,1,4,0:0:0:0:
63,41,28983,2,0,P|54:81|51:122,1,82.3499974868775,4|0,0:0|0:0,0:0:0:0:
262,259,29400,2,0,P|259:217|250:177,1,82.3499974868775,8|0,0:0|0:0,0:0:0:0:
60,287,29816,1,2,0:0:0:0:
60,287,29920,1,2,0:0:0:0:
60,287,30025,1,2,0:0:0:0:
226,360,30233,6,0,P|266:354|307:351,1,82.3499974868775,4|0,0:0|0:0,0:0:0:0:
281,216,30650,2,0,P|321:221|362:224,1,82.3499974868775,4|0,0:0|0:0,0:0:0:0:
479,353,31066,2,0,B|453:263|518:279|494:194,1,164.699994973755,8|0,0:0|0:0,0:0:0:0:
316,51,31691,6,0,P|305:90|318:128,1,82.3499974868775,4|0,0:0|0:0,0:0:0:0:
415,226,32108,1,0,0:0:0:0:
506,84,32316,2,0,P|466:73|428:86,1,82.3499974868775,4|0,0:0|0:0,0:0:0:0:
255,236,32733,2,0,P|294:246|332:233,1,82.3499974868775,8|0,0:0|0:0,0:0:0:0:
127,71,33150,6,0,L|123:30,1,41.1749987434388,2|2,0:0|0:0,0:0:0:0:
74,273,33358,2,0,L|70:314,1,41.1749987434388,0|2,0:0|0:0,0:0:0:0:
74,273,34191,5,0,0:0:0:0:
255,180,34400,1,2,0:0:0:0:
92,68,34608,1,2,0:0:0:0:
177,300,34816,1,0,0:0:0:0:
317,108,35025,1,2,0:0:0:0:
6,208,35233,6,0,P|53:223|100:208,1,100.650003071594,4|0,0:1|0:0,0:0:0:0:
250,35,35650,2,0,P|202:19|155:34,1,100.650003071594,4|0,0:0|0:0,0:0:0:0:
35,309,36066,2,0,B|120:301|120:301|145:309|145:309|233:297,1,201.300006143189,8|0,0:0|0:0,0:0:0:0:
484,171,36691,6,0,P|477:220|474:271,1,100.650003071594,2|0,0:0|0:0,0:0:0:0:
234,148,37108,1,4,0:0:0:0:
389,26,37316,2,0,P|395:75|398:126,1,100.650003071594,4|0,0:0|0:0,0:0:0:0:
320,362,37733,5,8,0:0:0:0:
304,175,37941,1,0,0:0:0:0:
512,324,38150,6,0,L|461:319,1,50.3250015357972,2|0,0:0|0:0,0:0:0:0:
178,305,38358,1,0,0:0:0:0:
418,38,38566,6,0,P|421:88|427:138,1,100.650003071594,4|0,0:0|0:0,0:0:0:0:
157,321,38983,2,0,P|153:270|147:220,1,100.650003071594,4|0,0:0|0:0,0:0:0:0:
501,141,39400,2,0,B|426:131|439:193|362:186,1,150.975004607391,8|0,0:0|0:0,0:0:0:0:
312,175,39816,1,2,0:0:0:0:
13,95,40025,6,0,B|60:80|60:80|109:94,1,100.650003071594,4|0,0:0|0:0,0:0:0:0:
247,229,40441,1,4,0:0:0:0:
67,171,40650,1,4,0:0:0:0:
355,79,40858,5,2,0:0:0:0:
369,291,41066,1,8,0:0:0:0:
157,305,41275,1,2,0:0:0:0:
143,93,41483,2,0,L|94:77,1,50.3250015357972,8|2,0:0|0:0,0:0:0:0:
355,79,41691,2,0,L|404:69,1,50.3250015357972,0|2,0:0|0:0,0:0:0:0:
102,178,41900,6,0,P|52:168|2:160,1,100.650003071594,4|0,0:0|0:0,0:0:0:0:
258,312,42316,2,0,P|208:321|158:329,1,100.650003071594,4|0,0:0|0:0,0:0:0:0:
358,121,42733,2,0,B|312:224|414:212|366:311,1,201.300006143189,8|2,0:0|0:0,0:0:0:0:
144,223,43358,6,0,B|194:237|194:237|240:223,1,100.650003071594,2|0,0:0|0:0,0:0:0:0:
424,165,43775,1,4,0:0:0:0:
199,47,43983,2,0,B|185:97|185:97|199:143,1,100.650003071594,4|2,0:0|0:0,0:0:0:0:
366,311,44400,5,8,0:0:0:0:
144,223,44608,1,0,0:0:0:0:
372,360,44816,6,0,L|366:311,1,50.3250015357972,2|0,0:0|0:0,0:0:0:0:
339,85,45025,1,2,0:0:0:0:
17,305,45233,6,0,P|66:297|116:295,1,100.650003071594,4|0,0:0|0:0,0:0:0:0:
339,85,45650,2,0,P|288:83|239:75,1,100.650003071594,4|0,0:0|0:0,0:0:0:0:
459,234,46066,2,0,P|506:193|447:173,1,150.975004607391,8|0,0:0|0:0,0:0:0:0:
380,219,46483,1,4,0:0:0:0:
445,333,46691,2,0,P|450:282|458:233,1,100.650003071594,4|0,0:0|0:0,0:0:0:0:
339,85,47108,5,2,0:0:0:0:
312,187,47316,1,2,0:0:0:0:
302,78,47525,5,2,0:0:0:0:
331,215,47733,1,10,0:0:0:0:
415,38,47941,5,4,0:0:0:0:
211,188,48150,2,0,L|174:181,1,36.6,8|2,0:0|0:0,0:0:0:0:
327,295,48358,2,0,L|363:288,1,36.6,0|2,0:0|0:0,0:0:0:0:
160,348,48566,5,4,0:1:0:0:
210,104,48775,1,2,0:0:0:0:
153,368,48983,2,0,P|104:359|54:352,1,100.650003071594,4|0,0:0|0:0,0:0:0:0:
0,188,49400,2,0,P|49:179|99:172,1,100.650003071594,8|0,0:0|0:0,0:0:0:0:
334,84,49816,5,2,0:0:0:0:
280,273,50025,1,0,0:0:0:0:
328,37,50233,6,0,B|378:23|378:23|425:35,1,100.650003071594,2|4,0:0|0:0,0:0:0:0:
512,206,50650,2,0,B|462:220|462:220|415:208,1,100.650003071594,4|0,0:0|0:0,0:0:0:0:
269,22,51066,2,0,B|319:8|319:8|366:20,1,100.650003071594,8|0,0:0|0:0,0:0:0:0:
280,257,51483,1,2,0:0:0:0:
280,257,51587,1,2,0:0:0:0:
280,257,51691,1,2,0:0:0:0:
114,109,51900,6,0,P|97:62|116:17,1,100.650003071594,4|0,0:0|0:0,0:0:0:0:
322,93,52316,2,0,P|341:138|324:184,1,100.650003071594,4|0,0:0|0:0,0:0:0:0:
113,315,52733,1,8,0:0:0:0:
19,111,52941,2,0,B|64:92|64:92|113:108,1,100.650003071594,2|0,0:0|0:0,0:0:0:0:
231,169,53358,1,4,0:0:0:0:
73,217,53566,5,2,0:0:0:0:
211,69,53775,1,2,0:0:0:0:
23,199,53983,5,2,0:0:0:0:
255,93,54192,1,2,0:0:0:0:
152,283,54400,5,8,0:0:0:0:
157,323,54504,1,0,0:0:0:0:
162,363,54608,1,2,0:0:0:0:
372,189,54816,2,0,L|422:192,1,50.3250015357972,4|0,0:0|0:0,0:0:0:0:
127,132,55025,2,0,L|76:135,1,50.3250015357972,2|0,0:0|0:0,0:0:0:0:
382,0,55233,6,0,P|375:49|371:100,1,100.650003071594,4|0,0:0|0:0,0:0:0:0:
137,232,55650,2,0,P|133:181|126:131,1,100.650003071594,4|0,0:0|0:0,0:0:0:0:
449,350,56066,2,0,B|387:357|357:319|357:319|327:367|271:353,1,201.300006143189,8|0,0:0|0:0,0:0:0:0:
41,232,56691,6,0,B|88:216|88:216|136:231,1,100.650003071594,2|0,0:0|0:0,0:0:0:0:
282,279,57108,1,4,0:0:0:0:
458,167,57316,2,0,B|411:183|411:183|362:167,1,100.650003071594,4|0,0:0|0:0,0:0:0:0:
104,17,57733,5,8,0:0:0:0:
190,221,57941,1,0,0:0:0:0:
328,82,58150,6,0,L|278:87,1,50.3250015357972,2|0,0:0|0:0,0:0:0:0:
31,122,58358,1,0,0:0:0:0:
16,343,58566,6,0,P|63:356|110:341,1,100.650003071594,4|0,0:0|0:0,0:0:0:0:
275,70,58983,2,0,P|227:56|180:71,1,100.650003071594,4|0,0:0|0:0,0:0:0:0:
276,346,59400,2,0,P|352:342|427:337,1,150.975004607391,8|0,0:0|0:0,0:0:0:0:
479,335,59816,1,4,0:0:0:0:
231,155,60025,6,0,P|152:182|232:204,1,219.6,2|0,0:0|0:0,0:0:0:0:
404,69,61066,5,2,0:0:0:0:
404,69,61275,1,0,0:0:0:0:
404,69,61483,1,0,0:0:0:0:
404,69,61691,1,2,0:0:0:0:
329,160,61900,6,0,P|325:201|323:242,1,82.3499974868775,4|0,0:0|0:0,0:0:0:0:
203,281,62212,1,2,0:0:0:0:
203,281,62316,2,0,P|200:239|197:198,1,82.3499974868775,4|2,0:0|0:0,0:0:0:0:
77,74,62733,2,0,L|13:84,3,64.0499980453492,8|2|2|2,0:0|0:0|0:0|0:0,0:0:0:0:
249,49,63566,5,2,0:0:0:0:
88,158,63775,2,0,L|91:199,1,41.1749987434388,4|0,0:0|0:0,0:0:0:0:
105,353,63983,1,4,0:0:0:0:
211,239,64191,1,0,0:0:0:0:
1,282,64400,6,0,B|31:292|31:292|62:282,1,64.0499980453492,8|2,0:0|0:0,0:0:0:0:
232,155,64816,2,0,B|202:145|202:145|170:154,1,64.0499980453492,2|2,0:0|0:0,0:0:0:0:
332,360,65233,6,0,P|335:318|339:277,1,82.3499974868775,4|0,0:0|0:0,0:0:0:0:
163,72,65650,2,0,P|167:112|170:154,1,82.3499974868775,4|0,0:0|0:0,0:0:0:0:
404,233,66066,1,8,0:0:0:0:
404,233,66275,1,2,0:0:0:0:
404,233,66483,1,2,0:0:0:0:
325,78,66691,1,4,0:0:0:0:
215,289,66900,5,2,0:0:0:0:
404,233,67108,1,4,0:0:0:0:
404,233,67212,1,0,0:0:0:0:
404,233,67316,1,4,0:0:0:0:
122,168,67525,1,2,0:0:0:0:
328,73,67733,5,8,0:0:0:0:
328,73,67941,1,0,0:0:0:0:
328,73,68150,1,0,0:0:0:0:
328,73,68358,1,0,0:0:0:0:
207,217,68566,6,0,P|208:258|209:299,1,82.3499974868775,4|2,0:0|0:0,0:0:0:0:
346,271,68983,2,0,P|344:312|343:353,1,82.3499974868775,4|0,0:0|0:0,0:0:0:0:
112,265,69400,6,0,L|48:274,3,64.0499980453492,8|2|0|2,0:0|0:0|0:0|0:0,0:0:0:0:
184,148,70233,6,0,B|199:109|199:109|186:70,1,82.3499974868775,0|4,0:0|0:0,0:0:0:0:
0,130,70650,2,0,B|-12:168|-12:168|2:207,1,82.3499974868775,4|2,0:0|0:0,0:0:0:0:
278,290,71066,6,0,L|373:281,2,96.0749970680238,8|2|8,0:0|0:0|0:0,0:0:0:0:
30,344,71900,6,0,B|43:304|43:304|32:265,1,82.3499974868775,4|0,0:0|0:0,0:0:0:0:
46,78,72316,2,0,B|74:109|74:109|113:119,1,82.3499974868775,4|0,0:0|0:0,0:0:0:0:
260,204,72733,2,0,B|218:212|218:212|190:241,1,82.3499974868775,4|0,0:0|0:0,0:0:0:0:
30,344,73150,1,2,0:0:0:0:
30,344,75233,2,0,P|66:339|102:337,1,73.2,4|0,0:1|0:0,0:0:0:0:
100,242,75650,2,0,P|136:246|172:248,1,73.2,4|0,0:0|0:0,0:0:0:0:
339,343,76066,2,0,L|484:328,1,146.4,8|0,0:0|0:0,0:0:0:0:
184,65,76900,5,2,0:0:0:0:
226,218,77108,1,4,0:0:0:0:
239,22,77316,2,0,P|239:58|235:95,1,73.2,4|0,0:0|0:0,0:0:0:0:
199,326,77733,1,8,0:0:0:0:
67,74,78150,5,2,0:0:0:0:
67,74,78254,1,2,0:0:0:0:
67,74,78358,1,2,0:0:0:0:
291,172,78566,6,0,P|327:165|363:158,1,73.2,4|0,0:0|0:0,0:0:0:0:
338,254,78983,2,0,P|374:260|410:267,1,73.2,4|0,0:0|0:0,0:0:0:0:
266,145,79400,2,0,P|338:132|410:120,1,146.4,8|0,0:0|0:0,0:0:0:0:
212,337,80025,6,0,B|205:301|205:301|213:266,1,73.2,4|0,0:0|0:0,0:0:0:0:
266,145,80441,1,0,0:0:0:0:
382,297,80650,2,0,B|346:303|346:303|311:295,1,73.2,4|0,0:0|0:0,0:0:0:0:
32,204,81066,2,0,P|105:202|177:193,1,146.4,8|0,0:0|0:0,0:0:0:0:
457,47,81900,6,0,P|450:87|444:128,1,82.3499974868775,4|0,0:0|0:0,0:0:0:0:
310,295,82316,2,0,P|303:254|297:213,1,82.3499974868775,4|0,0:0|0:0,0:0:0:0:
163,48,82733,6,0,P|203:41|244:35,1,82.3499974868775,12|0,0:0|0:0,0:0:0:0:
469,228,83150,2,0,P|428:221|387:215,1,82.3499974868775,4|0,0:0|0:0,0:0:0:0:
478,1,83566,6,0,P|471:41|465:82,1,82.3499974868775,4|0,0:0|0:0,0:0:0:0:
207,247,83983,2,0,P|200:206|194:165,1,82.3499974868775,4|0,0:0|0:0,0:0:0:0:
477,331,84400,6,0,P|436:337|395:343,1,82.3499974868775,12|0,0:0|0:0,0:0:0:0:
101,275,84816,1,2,0:0:0:0:
101,275,84920,1,2,0:0:0:0:
101,275,85025,1,2,0:0:0:0:
336,63,85233,6,0,B|347:102|347:102|336:142,1,82.3499974868775,4|0,0:0|0:0,0:0:0:0:
81,86,85650,2,0,B|70:46|70:46|81:7,1,82.3499974868775,4|0,0:0|0:0,0:0:0:0:
370,229,86066,6,0,B|330:240|330:240|291:229,1,82.3499974868775,12|0,0:0|0:0,0:0:0:0:
175,35,86483,2,0,B|215:24|215:24|254:35,1,82.3499974868775,4|0,0:0|0:0,0:0:0:0:
157,308,86900,5,4,0:0:0:0:
135,177,87108,1,4,0:0:0:0:
354,335,87316,5,4,0:0:0:0:
380,144,87524,1,4,0:0:0:0:
151,285,87733,5,4,0:0:0:0:
119,99,87941,1,4,0:0:0:0:
417,248,88150,6,0,L|457:242,1,41.1749987434388,6|2,0:0|0:0,0:0:0:0:
83,321,88358,2,0,L|42:315,1,41.1749987434388,4|2,0:0|0:0,0:0:0:0:
214,65,89191,5,0,0:0:0:0:
214,318,89400,1,2,0:0:0:0:
363,113,89608,1,2,0:0:0:0:
122,191,89816,1,0,0:0:0:0:
363,270,90025,1,2,0:0:0:0:
170,40,90233,6,0,B|125:25|125:25|74:40,1,100.650003071594,4|0,0:1|0:0,0:0:0:0:
0,311,90650,2,0,B|45:326|45:326|95:310,1,100.650003071594,4|0,0:0|0:0,0:0:0:0:
282,120,91066,2,0,P|192:81|103:121,1,201.300006143189,8|0,0:0|0:0,0:0:0:0:
343,330,91691,6,0,P|350:280|359:230,1,100.650003071594,2|0,0:0|0:0,0:0:0:0:
406,67,92108,1,4,0:0:0:0:
253,258,92316,2,0,P|245:208|236:158,1,100.650003071594,4|0,0:0|0:0,0:0:0:0:
440,278,92733,5,8,0:0:0:0:
163,325,92941,1,0,0:0:0:0:
458,256,93150,6,0,L|402:249,1,50.3250015357972,2|0,0:0|0:0,0:0:0:0:
106,214,93358,1,0,0:0:0:0:
411,18,93566,6,0,P|405:67|401:118,1,100.650003071594,4|0,0:0|0:0,0:0:0:0:
100,359,93983,2,0,P|95:308|90:258,1,100.650003071594,4|0,0:0|0:0,0:0:0:0:
13,28,94400,2,0,B|94:18|69:82|152:66,1,150.975004607391,8|0,0:0|0:0,0:0:0:0:
195,64,94816,1,2,0:0:0:0:
455,186,95025,6,0,P|404:183|354:185,1,100.650003071594,4|0,0:0|0:0,0:0:0:0:
98,225,95441,1,4,0:0:0:0:
258,26,95650,1,2,0:0:0:0:
393,297,95858,5,2,0:0:0:0:
151,329,96066,1,8,0:0:0:0:
119,87,96275,1,2,0:0:0:0:
360,55,96483,2,0,P|385:48|410:44,1,50.3250015357972,2|0,0:0|0:0,0:0:0:0:
81,196,96691,2,0,P|56:189|31:185,1,50.3250015357972,0|2,0:0|0:0,0:0:0:0:
327,352,96900,6,0,B|344:304|344:304|329:256,1,100.650003071594,4|0,0:0|0:0,0:0:0:0:
83,100,97316,2,0,B|66:148|66:148|80:195,1,100.650003071594,4|0,0:0|0:0,0:0:0:0:
460,80,97733,2,0,P|360:63|262:42,1,201.300006143189,8|2,0:0|0:0,0:0:0:0:
35,319,98358,6,0,P|84:311|134:305,1,100.650003071594
320,285,98775,1,4,0:0:0:0:
99,205,98983,2,0,P|148:212|198:218,1,100.650003071594,4|0,0:0|0:0,0:0:0:0:
466,235,99400,1,8,0:0:0:0:
134,305,99608,1,0,0:0:0:0:
478,253,99816,6,0,L|428:245,1,50.3250015357972,2|0,0:0|0:0,0:0:0:0:
138,197,100025,1,2,0:0:0:0:
439,19,100233,6,0,B|452:68|452:68|436:115,1,100.650003071594,4|0,0:0|0:0,0:0:0:0:
43,244,100650,2,0,B|30:195|30:195|45:147,1,100.650003071594,4|0,0:0|0:0,0:0:0:0:
91,68,100962,1,2,0:0:0:0:
91,68,101066,2,0,B|150:61|150:61|166:67|166:67|244:59,1,150.975004607391,8|0,0:0|0:0,0:0:0:0:
287,53,101483,1,4,0:0:0:0:
146,239,101691,2,0,P|141:189|139:139,1,100.650003071594,4|0,0:0|0:0,0:0:0:0:
431,245,102108,5,2,0:0:0:0:
238,286,102316,1,4,0:0:0:0:
461,272,102525,5,2,0:0:0:0:
213,234,102733,1,10,0:0:0:0:
404,134,102941,5,4,0:0:0:0:
302,326,103150,2,0,L|305:362,1,36.6,2|0,0:0|0:0,0:0:0:0:
236,143,103358,2,0,L|239:106,1,36.6,2|0,0:0|0:0,0:0:0:0:
130,304,103566,5,4,0:1:0:0:
366,249,103775,1,2,0:0:0:0:
142,102,103983,2,0,P|150:151|160:200,1,100.650003071594,4|0,0:0|0:0,0:0:0:0:
347,347,104400,2,0,P|357:297|365:248,1,100.650003071594,8|0,0:0|0:0,0:0:0:0:
315,22,104816,5,2,0:0:0:0:
290,245,105025,1,2,0:0:0:0:
512,120,105233,6,0,B|464:135|464:135|416:118,1,100.650003071594,2|4,0:0|0:0,0:0:0:0:
219,20,105650,2,0,B|267:5|267:5|314:21,1,100.650003071594,4|0,0:0|0:0,0:0:0:0:
477,172,106066,2,0,B|429:187|429:187|381:170,1,100.650003071594,8|0,0:0|0:0,0:0:0:0:
243,109,106483,1,2,0:0:0:0:
243,109,106587,1,2,0:0:0:0:
243,109,106691,1,2,0:0:0:0:
445,0,106900,6,0,P|436:49|430:99,1,100.650003071594,4|0,0:0|0:0,0:0:0:0:
189,268,107316,2,0,P|182:218|174:168,1,100.650003071594,4|0,0:0|0:0,0:0:0:0:
140,21,107733,1,8,0:0:0:0:
381,214,107941,2,0,P|334:228|288:212,1,100.650003071594,2|0,0:0|0:0,0:0:0:0:
102,99,108358,1,4,0:0:0:0:
370,71,108566,5,2,0:0:0:0:
185,259,108775,1,4,0:0:0:0:
423,116,108983,5,2,0:0:0:0:
136,230,109192,1,2,0:0:0:0:
273,26,109400,5,8,0:0:0:0:
267,60,109504,1,0,0:0:0:0:
262,95,109608,1,2,0:0:0:0:
122,325,109816,6,0,L|71:319,1,50.3250015357972,4|2,0:0|0:0,0:0:0:0:
390,325,110025,2,0,L|440:319,1,50.3250015357972,0|2,0:0|0:0,0:0:0:0:
131,215,110233,6,0,P|82:203|32:193,1,100.650003071594,4|0,0:0|0:0,0:0:0:0:
381,215,110650,2,0,P|429:203|479:193,1,100.650003071594,4|0,0:0|0:0,0:0:0:0:
142,36,111066,2,0,P|68:64|140:96,1,201.300006143189,8|2,0:0|0:0,0:0:0:0:
338,64,111691,6,0,P|290:49|243:64,1,100.650003071594,2|0,0:0|0:0,0:0:0:0:
106,198,112108,1,4,0:0:0:0:
295,260,112316,2,0,P|309:212|294:165,1,100.650003071594,4|0,0:0|0:0,0:0:0:0:
132,348,112733,5,8,0:0:0:0:
406,329,112941,1,2,0:0:0:0:
80,327,113150,6,0,L|129:320,1,50.3250015357972,2|0,0:0|0:0,0:0:0:0:
426,286,113358,1,2,0:0:0:0:
113,52,113566,6,0,P|62:51|12:46,1,100.650003071594,4|0,0:0|0:0,0:0:0:0:
325,280,113983,2,0,P|375:280|425:285,1,100.650003071594,4|0,0:0|0:0,0:0:0:0:
245,44,114400,2,0,B|241:106|241:106|246:121|246:121|239:193,1,150.975004607391,8|0,0:0|0:0,0:0:0:0:
234,247,114816,1,4,0:0:0:0:
470,115,115025,2,0,P|419:109|370:101,1,100.650003071594,4|0,0:0|0:0,0:0:0:0:
106,46,115441,5,2,0:0:0:0:
84,51,115545,1,2,0:0:0:0:
63,55,115650,1,4,0:0:0:0:
367,177,115858,5,2,0:0:0:0:
389,182,115962,1,2,0:0:0:0:
410,186,116067,1,10,0:0:0:0:
164,265,116275,5,2,0:0:0:0:
129,270,116379,1,0,0:0:0:0:
94,276,116483,1,2,0:0:0:0:
59,282,116587,1,2,0:0:0:0:
25,288,116691,1,2,0:0:0:0:
336,363,116900,6,0,P|340:317|342:271,1,91.5,4|0,0:1|0:0,0:0:0:0:
317,73,117316,1,4,0:0:0:0:
191,250,117525,5,2,0:0:0:0:
436,224,117733,1,10,0:0:0:0:
109,174,117941,2,0,P|110:219|115:265,1,91.5,2|0,0:0|0:0,0:0:0:0:
338,323,118358,2,0,P|342:277|344:231,1,91.5,2|0,0:0|0:0,0:0:0:0:
235,30,118775,5,6,0:0:0:0:
457,105,118983,1,6,0:0:0:0:
109,174,119191,5,2,0:0:0:0:
109,174,119295,1,2,0:0:0:0:
109,174,119400,2,0,P|63:168|18:164,1,91.5,8|2,0:0|0:0,0:0:0:0:
247,332,119816,2,0,P|292:326|337:322,1,91.5,2|2,0:0|0:0,0:0:0:0:
437,128,120233,6,0,B|448:82|448:82|432:40,1,91.5,4|0,0:0|0:0,0:0:0:0:
257,92,120650,1,4,0:0:0:0:
492,197,120858,1,2,0:0:0:0:
492,197,120962,1,2,0:0:0:0:
492,197,121066,2,0,B|481:243|481:243|493:285,1,91.5,10|0,0:0|0:0,0:0:0:0:
403,362,121483,1,2,0:0:0:0:
363,132,121691,5,4,0:0:0:0:
394,340,121900,1,2,0:0:0:0:
473,84,122108,1,4,0:0:0:0:
202,236,122316,2,0,P|247:234|293:236,1,91.5,4|2,0:0|0:0,0:0:0:0:
387,253,122629,1,2,0:0:0:0:
387,253,122733,1,8,0:0:0:0:
244,334,122941,1,0,0:0:0:0:
350,125,123150,5,2,0:0:0:0:
330,366,123358,1,2,0:0:0:0:
63,128,123566,6,0,P|108:123|154:117,1,91.5,4|0,0:0|0:0,0:0:0:0:
397,94,123983,1,4,0:0:0:0:
157,222,124191,1,2,0:0:0:0:
297,12,124400,2,0,B|311:56|311:56|298:99,1,91.5,8|0,0:0|0:0,0:0:0:0:
155,309,124816,2,0,B|142:265|142:265|156:221,1,91.5,2|0,0:0|0:0,0:0:0:0:
285,269,125233,1,2,0:0:0:0:
37,317,125441,5,6,0:0:0:0:
312,263,125650,1,6,0:0:0:0:
92,158,125858,5,2,0:0:0:0:
92,158,125962,1,2,0:0:0:0:
92,158,126066,2,0,P|94:203|96:249,1,91.5,8|2,0:0|0:0,0:0:0:0:
307,354,126483,2,0,P|309:308|311:262,1,91.5,2|2,0:0|0:0,0:0:0:0:
463,39,126900,6,0,P|420:55|378:39,1,91.5,4|0,0:0|0:0,0:0:0:0:
197,101,127316,1,4,0:0:0:0:
419,222,127525,1,2,0:0:0:0:
419,222,127629,1,2,0:0:0:0:
419,222,127733,2,0,P|434:179|418:137,1,91.5,8|0,0:0|0:0,0:0:0:0:
285,23,128150,1,4,0:0:0:0:
141,194,128358,6,0,B|184:208|184:208|227:192,1,91.5,4|0,0:0|0:0,0:0:0:0:
403,124,128775,1,2,0:0:0:0:
186,91,128983,1,4,0:0:0:0:
363,28,129191,5,2,0:0:0:0:
363,28,129295,1,2,0:0:0:0:
363,28,129400,2,0,L|355:80,1,45.75,8|0,0:0|0:0,0:0:0:0:
420,299,129608,2,0,L|368:291,1,45.75,2|0,0:0|0:0,0:0:0:0:
149,356,129816,2,0,L|157:304,1,45.75,2|0,0:0|0:0,0:0:0:0:
92,85,130025,2,0,L|144:93,1,45.75,2|0,0:0|0:0,0:0:0:0:
256,194,130233,5,2,0:0:0:0:
304,340,144191,5,0,0:0:0:0:
130,283,144400,1,2,0:0:0:0:
130,100,144608,1,2,0:0:0:0:
304,43,144816,1,0,0:0:0:0:
411,192,145025,2,0,L|366:187,1,45.75,2|2,0:0|0:0,0:0:0:0:
121,151,145233,5,4,0:0:0:0:
297,57,145441,1,2,0:0:0:0:
391,233,145650,1,8,0:0:0:0:
215,327,145858,2,0,L|220:281,1,45.75,4|4,0:0|0:0,0:0:0:0:
290,26,146066,6,0,B|374:15|374:15|401:26|401:26|488:16,1,201.300006143189,4|2,0:1|0:0,0:0:0:0:
362,319,146691,6,0,P|356:268|352:218,1,100.650003071594,2|0,0:0|0:0,0:0:0:0:
341,97,147108,1,4,0:0:0:0:
451,365,147316,2,0,P|456:314|460:264,1,100.650003071594,4|0,0:0|0:0,0:0:0:0:
320,20,147733,5,8,0:0:0:0:
309,301,147941,1,2,0:0:0:0:
42,139,148150,6,0,L|92:135,1,50.3250015357972,2|0,0:0|0:0,0:0:0:0:
465,106,148358,1,2,0:0:0:0:
86,34,148566,6,0,P|88:84|92:134,1,100.650003071594,4|0,0:0|0:0,0:0:0:0:
472,336,148983,2,0,P|475:285|478:235,1,100.650003071594,4|0,0:0|0:0,0:0:0:0:
10,314,149400,2,0,P|85:306|160:298,1,150.975004607391,8|0,0:0|0:0,0:0:0:0:
215,296,149816,1,2,0:0:0:0:
87,80,150025,6,0,P|79:129|73:179,1,100.650003071594,4|0,0:0|0:0,0:0:0:0:
51,357,150441,1,2,0:0:0:0:
210,272,150650,1,4,0:0:0:0:
88,80,150858,5,2,0:0:0:0:
144,360,151066,1,8,0:0:0:0:
424,304,151275,1,2,0:0:0:0:
368,24,151483,2,0,L|348:70,1,50.3250015357972,2|2,0:0|0:0,0:0:0:0:
144,360,151691,2,0,L|163:313,1,50.3250015357972,0|2,0:0|0:0,0:0:0:0:
21,55,151900,6,0,B|68:71|68:71|116:55,1,100.650003071594,4|0,0:0|0:0,0:0:0:0:
411,159,152316,2,0,B|363:144|363:144|315:158,1,100.650003071594,4|0,0:0|0:0,0:0:0:0:
358,339,152733,2,0,P|430:303|358:266,1,201.300006143189,8|2,0:0|0:0,0:0:0:0:
61,315,153358,6,0,P|111:312|161:309,1,100.650003071594,2|0,0:0|0:0,0:0:0:0:
289,303,153775,1,4,0:0:0:0:
120,222,153983,2,0,P|170:224|220:227,1,100.650003071594,4|2,0:0|0:0,0:0:0:0:
459,268,154400,5,8,0:0:0:0:
376,44,154608,1,2,0:0:0:0:
405,379,154816,6,0,L|410:329,1,50.3250015357972,2|0,0:0|0:0,0:0:0:0:
438,0,155025,1,2,0:0:0:0:
153,351,155233,6,0,P|102:349|52:348,1,100.650003071594,4|0,0:0|0:0,0:0:0:0:
275,41,155650,2,0,P|325:42|375:43,1,100.650003071594,4|0,0:0|0:0,0:0:0:0:
357,287,156066,2,0,P|281:283|206:277,1,150.975004607391,8|0,0:0|0:0,0:0:0:0:
159,275,156483,1,4,0:0:0:0:
340,106,156691,2,0,P|332:155|324:205,1,100.650003071594,2|0,0:0|0:0,0:0:0:0:
293,363,157108,1,0,0:0:0:0:
161,175,157316,5,2,0:0:0:0:
394,101,157525,2,0,P|386:136|378:172,1,73.2,2|8,0:0|0:0,0:0:0:0:
346,351,157941,1,4,0:0:0:0:
115,248,158150,2,0,L|78:252,1,36.6,2|2,0:0|0:0,0:0:0:0:
397,248,158358,2,0,L|433:252,1,36.6,0|2,0:0|0:0,0:0:0:0:
59,164,158566,5,4,0:1:0:0:
323,149,158775,1,2,0:0:0:0:
28,140,158983,2,0,P|33:189|36:240,1,100.650003071594,4|0,0:0|0:0,0:0:0:0:
278,347,159400,2,0,P|281:296|286:246,1,100.650003071594,8|0,0:0|0:0,0:0:0:0:
327,17,159816,5,2,0:0:0:0:
173,205,160025,1,2,0:0:0:0:
457,135,160233,6,0,B|409:119|409:119|362:136,1,100.650003071594,2|4,0:0|0:0,0:0:0:0:
119,288,160650,2,0,B|167:304|167:304|213:286,1,100.650003071594,4|0,0:0|0:0,0:0:0:0:
406,97,161066,2,0,B|358:81|358:81|311:98,1,100.650003071594,8|0,0:0|0:0,0:0:0:0:
175,223,161483,1,2,0:0:0:0:
175,223,161587,1,2,0:0:0:0:
175,223,161691,1,2,0:0:0:0:
360,367,161900,6,0,P|361:316|367:266,1,100.650003071594,4|0,0:0|0:0,0:0:0:0:
167,122,162316,2,0,P|172:172|174:222,1,100.650003071594,4|0,0:0|0:0,0:0:0:0:
176,363,162733,1,8,0:0:0:0:
410,189,162941,6,0,P|459:182|510:178,1,100.650003071594,2|0,0:0|0:0,0:0:0:0:
256,276,163358,1,4,0:0:0:0:
323,52,163566,5,2,0:0:0:0:
347,332,163775,1,4,0:0:0:0:
320,34,163983,5,4,0:0:0:0:
348,355,164192,1,2,0:0:0:0:
510,178,164400,5,10,0:0:0:0:
459,173,164504,1,0,0:0:0:0:
409,168,164608,1,2,0:0:0:0:
158,19,164816,2,0,L|166:68,1,50.3250015357972,4|2,0:0|0:0,0:0:0:0:
158,365,165025,2,0,L|166:315,1,50.3250015357972,0|2,0:0|0:0,0:0:0:0:
341,69,165233,6,0,P|390:59|439:49,1,100.650003071594,4|0,0:0|0:0,0:0:0:0:
105,150,165650,2,0,P|55:140|6:130,1,100.650003071594,4|0,0:0|0:0,0:0:0:0:
293,299,166066,2,0,B|375:290|375:290|406:306|406:306|490:297,1,201.300006143189,8|2,0:0|0:0,0:0:0:0:
385,110,166691,6,0,P|378:159|372:209,1,100.650003071594,2|0,0:0|0:0,0:0:0:0:
310,58,167108,1,4,0:0:0:0:
280,199,167316,2,0,P|286:248|292:298,1,100.650003071594,4|2,0:0|0:0,0:0:0:0:
480,224,167733,5,8,0:0:0:0:
129,208,167941,1,2,0:0:0:0:
415,30,168150,6,0,L|408:79,1,50.3250015357972,2|0,0:0|0:0,0:0:0:0:
358,355,168358,1,2,0:0:0:0:
35,48,168566,6,0,B|80:32|80:32|132:46,1,100.650003071594,4|0,0:0|0:0,0:0:0:0:
453,352,168983,2,0,B|404:369|404:369|357:354,1,100.650003071594,4|0,0:0|0:0,0:0:0:0:
276,44,169400,2,0,P|265:118|255:193,1,150.975004607391,8|0,0:0|0:0,0:0:0:0:
249,250,169816,1,4,0:0:0:0:
173,48,170025,2,0,P|180:97|184:147,1,100.650003071594,2|0,0:0|0:0,0:0:0:0:
99,362,170441,6,0,L|86:313,1,50.3250015357972,2|2,0:0|0:0,0:0:0:0:
43,141,170650,1,4,0:0:0:0:
413,362,170858,6,0,L|426:313,1,50.3250015357972,2|2,0:0|0:0,0:0:0:0:
469,141,171067,1,8,0:0:0:0:
274,214,171275,5,0,0:0:0:0:
249,220,171379,1,0,0:0:0:0:
229,204,171483,1,2,0:0:0:0:
229,179,171587,1,0,0:0:0:0:
249,163,171691,1,2,0:0:0:0:
274,169,171795,1,2,0:0:0:0:
284,192,171900,5,4,0:0:0:0:
