osu file format v14

[General]
AudioFilename: audio.mp3
AudioLeadIn: 0
PreviewTime: 52599
Countdown: 1
SampleSet: Normal
StackLeniency: 0.7
Mode: 0
LetterboxInBreaks: 0
WidescreenStoryboard: 0

[Editor]
DistanceSpacing: 1.1
BeatDivisor: 4
GridSize: 4
TimelineZoom: 1

[Metadata]
Title:Good Times
TitleUnicode:Good Times
Artist:Ella Eyre
ArtistUnicode:Ella Eyre
Creator:SnowTheme
Version:
Source:
Tags:
BeatmapID:1532632
BeatmapSetID:725920

[Difficulty]
HPDrainRate:5
CircleSize:5
OverallDifficulty:6
ApproachRate:8
SliderMultiplier:1.2
SliderTickRate:1

[Events]
//Background and Video events
0,0,"ELLA_EYRE_GOOD_TIMES_210715_PRO_RES_422HQ_MASTER_1920x1080.mov_.01_03_40_14.Still001.jpg",0,0
//Break Periods
//Storyboard Layer 0 (Background)
//Storyboard Layer 1 (Fail)
//Storyboard Layer 2 (Pass)
//Storyboard Layer 3 (Foreground)
//Storyboard Sound Samples

[TimingPoints]
11088,342.857142857143,4,1,0,100,1,0

[HitObjects]
32,316,11088,6,0,P|64:324|96:312,1,60
160,204,11430,2,0,B|236:144|368:260|452:192,1,300
512,100,12459,1,0,0:0:0:0:
512,100,12630,1,0,0:0:0:0:
512,100,12802,1,0,0:0:0:0:
432,16,12973,2,0,B|376:-4|376:-4|318:13,1,120
228,128,13488,5,0,0:0:0:0:
156,16,13659,1,0,0:0:0:0:
80,124,13830,2,0,P|45:168|73:217,1,120
152,320,14345,2,0,P|204:292|256:328,1,120
356,324,14859,5,0,0:0:0:0:
464,324,15030,1,0,0:0:0:0:
512,228,15202,1,0,0:0:0:0:
464,128,15373,1,0,0:0:0:0:
356,128,15545,1,0,0:0:0:0:
312,224,15716,2,0,P|256:244|196:220,1,120
120,132,16402,5,0,0:0:0:0:
64,64,16573,1,0,0:0:0:0:
0,128,16745,1,0,0:0:0:0:
64,64,16916,1,0,0:0:0:0:
120,132,17088,1,0,0:0:0:0:
168,60,17259,2,0,P|276:24|404:84,1,240
460,188,18288,5,0,0:0:0:0:
464,192,18459,2,0,P|472:223|461:261,1,60
400,320,18802,2,0,P|341:334|284:317,1,120
204,264,19316,5,0,0:0:0:0:
144,200,19488,1,0,0:0:0:0:
84,260,19659,1,0,0:0:0:0:
144,200,19830,1,0,0:0:0:0:
204,264,20002,2,0,P|316:244|452:276,1,240
512,260,21716,5,0,0:0:0:0:
444,328,21888,1,0,0:0:0:0:
368,260,22059,2,0,P|316:236|252:260,1,120
200,340,22573,2,0,P|146:364|96:336,1,120
48,232,23088,5,0,0:0:0:0:
0,136,23259,1,0,0:0:0:0:
48,36,23430,1,0,0:0:0:0:
156,36,23602,1,0,0:0:0:0:
200,144,23773,1,0,0:0:0:0:
150,237,23945,2,0,P|206:255|268:236,1,120
200,144,24459,5,0,0:0:0:0:
200,144,24630,1,0,0:0:0:0:
288,36,24802,2,0,B|346:19|346:19|402:39,1,120
492,156,25316,2,0,B|436:176|436:176|364:156,1,120
268,228,25830,5,0,0:0:0:0:
160,228,26002,1,0,0:0:0:0:
112,132,26173,1,0,0:0:0:0:
160,32,26345,1,0,0:0:0:0:
268,32,26516,1,0,0:0:0:0:
320,140,26688,2,0,B|378:157|378:157|434:137,1,120
496,44,27373,5,0,0:0:0:0:
434,136,27545,1,0,0:0:0:0:
384,44,27716,1,0,0:0:0:0:
328,136,27888,1,0,0:0:0:0:
272,48,28059,1,0,0:0:0:0:
220,136,28230,2,0,P|111:91|-1:127,1,240
8,272,29259,5,0,0:0:0:0:
72,380,29430,2,0,P|104:388|132:380,1,60
192,272,29773,2,0,P|240:264|292:276,1,90
368,168,30288,5,0,0:0:0:0:
428,88,30459,1,0,0:0:0:0:
488,176,30630,1,0,0:0:0:0:
428,88,30802,1,0,0:0:0:0:
368,168,30973,2,0,P|259:213|148:172,1,240
4,48,32002,2,0,B|96:48|96:48|144:20|144:20|240:20,1,240
364,40,33030,6,0,L|414:71,1,60
480,168,33373,2,0,L|422:184,1,60
264,204,33716,2,0,L|314:235,1,60
380,332,34059,2,0,L|322:348,1,60
176,384,34402,2,0,L|120:352,1,60
0,220,34916,6,0,L|64:176,1,60
168,168,35259,1,0,0:0:0:0:
160,28,35430,1,0,0:0:0:0:
40,108,35602,1,0,0:0:0:0:
168,168,35773,2,0,L|232:164,1,60
268,80,36116,2,0,L|320:44,1,60
432,64,36459,2,0,L|372:108,1,60
300,168,36802,2,0,L|352:212,1,60
448,252,37145,2,0,L|462:193,1,60
412,40,37659,6,0,L|389:101,1,60
344,204,38002,2,0,L|233:157,1,120
56,248,38516,1,0,0:0:0:0:
168,304,38688,5,0,0:0:0:0:
168,304,38859,2,0,L|232:328,1,60
344,328,39202,2,0,L|408:300,1,60
408,192,39545,1,0,0:0:0:0:
408,192,39716,2,0,L|344:164,1,60
228,168,40059,2,0,L|168:188,1,60
40,224,40402,2,0,L|88:268,1,60
140,364,40745,2,0,L|200:332,1,60
