osu file format v14

[General]
AudioFilename: audio.mp3
AudioLeadIn: 0
PreviewTime: 52573
Countdown: 1
SampleSet: Soft
StackLeniency: 0.7
Mode: 0
LetterboxInBreaks: 0
WidescreenStoryboard: 1

[Editor]
DistanceSpacing: 1.2
BeatDivisor: 4
GridSize: 8
TimelineZoom: 1.3

[Metadata]
Title:Good Times
TitleUnicode:Good Times
Artist:Ella Eyre
ArtistUnicode:Ella Eyre
Creator:SnowTheme
Version:c
Source:
Tags:
BeatmapID:1551879
BeatmapSetID:725920

[Difficulty]
HPDrainRate:5
CircleSize:4.5
OverallDifficulty:6
ApproachRate:8
SliderMultiplier:1.2
SliderTickRate:1

[Events]
//Background and Video events
0,0,"ELLA_EYRE_GOOD_TIMES_210715_PRO_RES_422HQ_MASTER_1920x1080.mov_.01_03_40_14.Still001.jpg",0,0
//Break Periods
//Storyboard Layer 0 (Background)
//Storyboard Layer 1 (Fail)
//Storyboard Layer 2 (Pass)
//Storyboard Layer 3 (Foreground)
//Storyboard Sound Samples

[TimingPoints]
11145,342.857142857143,4,2,0,100,1,0
55028,-100,4,2,0,100,0,1
60516,-100,4,2,0,100,0,0
60859,-100,4,2,0,100,0,1
65659,-100,4,2,0,100,0,0
66002,-100,4,2,0,100,0,1
76970,-100,4,2,0,100,0,0

[HitObjects]
20,84,11145,6,0,P|76:72|136:88,1,120
176,172,11659,2,0,P|288:196|408:168,1,240
448,104,12516,1,0,0:0:0:0:
452,108,12687,1,0,0:0:0:0:
452,108,12859,1,0,0:0:0:0:
376,104,13030,2,0,P|284:120|196:104,1,180
80,104,13887,6,0,P|140:92|196:108,1,120
232,200,14402,2,0,P|289:215|346:200,1,120
438,184,14916,1,0,0:0:0:0:
346,200,15087,1,0,0:0:0:0:
440,104,15259,1,0,0:0:0:0:
410,48,15430,1,0,0:0:0:0:
346,48,15602,1,0,0:0:0:0:
312,104,15773,2,0,P|224:120|136:104,1,180
88,48,16630,6,0,P|64:104|88:164,1,120
136,104,17145,1,0,0:0:0:0:
160,176,17316,2,0,P|272:204|392:176,1,240
440,128,18345,1,0,0:0:0:0:
440,64,18516,1,0,0:0:0:0:
384,24,18687,1,0,0:0:0:0:
274,176,18859,2,0,P|333:187|392:176,1,120
440,64,19373,6,0,P|380:56|316:65,1,120
280,128,19887,1,0,0:0:0:0:
240,64,20059,2,0,P|210:60|180:64,1,60
56,128,20402,1,0,0:0:0:0:
56,128,21773,1,0,0:0:0:0:
56,128,21945,1,0,0:0:0:0:
160,256,22116,6,0,P|219:263|280:256,1,120
432,320,22630,2,0,P|373:327|314:319,1,120
248,320,23145,1,0,0:0:0:0:
248,320,23316,1,0,0:0:0:0:
200,232,23487,1,0,0:0:0:0:
144,312,23659,1,0,0:0:0:0:
200,232,23830,1,0,0:0:0:0:
248,320,24002,2,0,P|280:328|312:320,1,60
352,248,24345,1,0,0:0:0:0:
352,248,24516,2,0,P|384:244|412:248,1,60
464,312,24859,6,0,P|480:256|464:192,1,120
295,151,25373,2,0,P|354:143|413:150,1,120
480,128,25887,1,0,0:0:0:0:
413,150,26059,1,0,0:0:0:0:
508,55,26230,1,0,0:0:0:0:
478,0,26401,1,0,0:0:0:0:
414,0,26573,1,0,0:0:0:0:
380,55,26744,2,0,P|292:71|204:55,1,180
112,120,27430,1,0,0:0:0:0:
200,232,27602,6,0,P|260:240|320:232,1,120
408,128,28116,2,0,P|260:103|111:119,1,300
48,208,29316,1,0,0:0:0:0:
104,288,29487,1,0,0:0:0:0:
48,208,29659,1,0,0:0:0:0:
104,288,29830,2,0,P|133:291|163:287,1,60
224,216,30345,6,0,P|280:208|344:216,1,120
224,216,30859,2,0,P|276:193|339:184,1,120
224,216,31373,2,0,P|268:181|327:156,1,120
424,80,32059,2,0,P|308:52|192:76,1,240
112,216,33087,6,0,L|176:216,2,60
116,152,33773,2,0,L|56:152,1,60
192,192,34116,1,0,0:0:0:0:
192,192,34287,1,0,0:0:0:0:
336,144,34459,2,0,P|392:136|456:144,1,120
440,208,34973,2,0,L|520:216,1,60
432,272,35316,2,0,L|360:264,1,60
272,296,35659,1,0,0:0:0:0:
144,256,35830,2,0,L|64:272,2,60
128,192,36516,2,0,L|186:177,1,60
272,248,36859,1,0,0:0:0:0:
272,248,37030,1,0,0:0:0:0:
368,176,37202,2,0,L|272:88,1,120
256,160,37716,2,0,L|192:176,1,60
248,224,38059,2,0,L|312:208,1,60
400,176,38573,6,0,L|464:176,2,60
404,112,39259,2,0,L|344:112,1,60
272,192,39602,1,0,0:0:0:0:
272,192,39773,1,0,0:0:0:0:
168,112,39945,2,0,P|112:104|48:112,1,120
64,168,40459,2,0,L|0:176,1,60
72,232,40802,2,0,L|131:225,1,60
240,240,41145,1,0,0:0:0:0:
336,256,41316,6,0,L|416:272,2,60
160,248,42002,2,0,L|101:263,1,60
224,224,42345,1,0,0:0:0:0:
224,224,42516,1,0,0:0:0:0:
285,177,42688,2,0,L|345:190,1,60
264,96,43030,2,0,L|328:96,1,60
192,32,43373,1,0,0:0:0:0:
192,32,43545,1,0,0:0:0:0:
192,32,43716,2,0,L|259:7,1,60
312,104,44059,6,0,L|372:104,2,60
312,168,44745,2,0,L|252:168,1,60
144,168,45088,1,0,0:0:0:0:
144,168,45259,1,0,0:0:0:0:
88,64,45431,2,0,P|144:56|208:64,1,120
296,120,45945,2,0,L|376:128,1,60
288,184,46288,2,0,L|216:176,1,60
168,248,46631,1,0,0:0:0:0:
120,176,46802,2,0,L|40:192,2,60
136,240,47487,2,0,L|195:225,1,60
304,232,47830,1,0,0:0:0:0:
304,232,48001,1,0,0:0:0:0:
304,232,48173,2,0,L|364:245,1,60
381,188,48687,2,0,L|440:200,1,60
400,128,49030,2,0,L|341:114,1,60
127,90,49545,5,0,0:0:0:0:
244,92,49887,1,0,0:0:0:0:
127,90,50230,1,0,0:0:0:0:
244,92,50573,1,0,0:0:0:0:
244,92,50916,1,0,0:0:0:0:
170,167,51087,1,0,0:0:0:0:
95,92,51259,1,0,0:0:0:0:
170,18,51430,1,0,0:0:0:0:
244,92,51602,1,0,0:0:0:0:
169,167,51773,1,0,0:0:0:0:
95,92,51945,1,0,0:0:0:0:
170,18,52116,1,0,0:0:0:0:
300,20,52287,5,0,0:0:0:0:
329,22,52373,1,0,0:0:0:0:
358,30,52459,1,0,0:0:0:0:
385,43,52545,1,0,0:0:0:0:
409,62,52630,1,0,0:0:0:0:
428,84,52716,1,0,0:0:0:0:
443,110,52802,1,0,0:0:0:0:
452,139,52887,1,0,0:0:0:0:
456,169,52973,1,0,0:0:0:0:
453,198,53059,1,0,0:0:0:0:
445,227,53145,1,0,0:0:0:0:
431,254,53230,1,0,0:0:0:0:
413,277,53316,1,0,0:0:0:0:
390,297,53402,1,0,0:0:0:0:
364,311,53487,1,0,0:0:0:0:
335,320,53573,1,0,0:0:0:0:
52,192,54687,1,0,0:0:0:0:
104,96,55030,6,0,P|164:88|232:100,1,120
320,56,55545,1,0,0:0:0:0:
320,56,55630,1,0,0:0:0:0:
320,56,55716,1,0,0:0:0:0:
400,172,55887,1,0,0:0:0:0:
400,172,56059,2,0,L|340:204,1,60
296,328,56402,2,0,P|236:336|177:328,1,120
40,304,56916,1,0,0:0:0:0:
40,304,57002,1,0,0:0:0:0:
40,304,57088,1,0,0:0:0:0:
40,124,57259,1,0,0:0:0:0:
40,124,57430,2,0,L|108:164,1,60
144,252,57773,6,0,P|204:260|272:248,1,120
372,304,58287,1,0,0:0:0:0:
372,304,58373,1,0,0:0:0:0:
372,304,58459,1,0,0:0:0:0:
384,160,58630,1,0,0:0:0:0:
384,160,58802,2,0,L|452:120,1,60
316,48,59145,2,0,P|256:39|197:47,1,120
96,48,59659,1,0,0:0:0:0:
96,48,59745,1,0,0:0:0:0:
96,48,59830,1,0,0:0:0:0:
64,192,60002,2,0,P|50:185|39:175,2,30
187,192,60345,2,0,P|200:185|212:176,2,30
344,188,60859,5,0,0:0:0:0:
396,60,61030,1,0,0:0:0:0:
396,60,61116,1,0,0:0:0:0:
396,60,61202,1,0,0:0:0:0:
344,188,61373,1,0,0:0:0:0:
344,188,61545,2,0,L|284:220,1,60
172,220,61887,2,0,L|120:176,1,60
36,172,62230,1,0,0:0:0:0:
136,60,62402,1,0,0:0:0:0:
136,60,62487,1,0,0:0:0:0:
136,60,62573,1,0,0:0:0:0:
224,172,62745,1,0,0:0:0:0:
224,172,62916,2,0,P|282:164|343:176,1,120
272,336,63602,5,0,0:0:0:0:
224,172,63773,1,0,0:0:0:0:
224,172,63859,1,0,0:0:0:0:
224,172,63945,1,0,0:0:0:0:
404,256,64116,1,0,0:0:0:0:
404,256,64287,2,0,L|340:288,1,60
192,100,64630,2,0,L|249:74,1,60
404,256,64973,2,0,L|332:292,1,60
200,248,65316,1,0,0:0:0:0:
200,248,65487,2,0,L|136:192,1,60
125,70,66002,6,0,P|184:63|244:72,1,120
356,32,66516,1,0,0:0:0:0:
356,32,66602,1,0,0:0:0:0:
356,32,66687,1,0,0:0:0:0:
316,216,66859,1,0,0:0:0:0:
316,216,67030,2,0,L|260:180,1,60
200,268,67373,2,0,P|140:277|81:269,1,120
0,272,67887,1,0,0:0:0:0:
0,272,67973,1,0,0:0:0:0:
0,272,68059,1,0,0:0:0:0:
72,128,68230,1,0,0:0:0:0:
72,128,68402,2,0,L|123:158,1,60
256,48,68745,6,0,P|315:40|374:49,1,120
484,48,69259,1,0,0:0:0:0:
484,48,69345,1,0,0:0:0:0:
484,48,69430,1,0,0:0:0:0:
440,196,69602,1,0,0:0:0:0:
440,196,69773,2,0,L|372:156,1,60
288,252,70116,2,0,P|228:261|169:253,1,120
52,264,70630,1,0,0:0:0:0:
52,264,70716,1,0,0:0:0:0:
52,264,70802,1,0,0:0:0:0:
24,132,70973,2,0,P|10:138|0:148,2,30
152,132,71316,2,0,P|165:138|176:148,2,30
284,76,71830,5,0,0:0:0:0:
400,32,72002,1,0,0:0:0:0:
400,32,72087,1,0,0:0:0:0:
400,32,72173,1,0,0:0:0:0:
398,182,72345,1,0,0:0:0:0:
398,182,72516,2,0,L|344:208,1,60
288,280,72859,2,0,P|228:289|169:281,1,120
56,256,73373,1,0,0:0:0:0:
56,256,73459,1,0,0:0:0:0:
56,256,73545,1,0,0:0:0:0:
128,176,73716,1,0,0:0:0:0:
128,176,73887,2,0,L|75:147,1,60
54,250,74230,5,0,0:0:0:0:
128,325,74401,1,0,0:0:0:0:
203,250,74573,1,0,0:0:0:0:
128,176,74744,1,0,0:0:0:0:
54,250,74916,1,0,0:0:0:0:
129,325,75087,1,0,0:0:0:0:
203,250,75259,1,0,0:0:0:0:
128,176,75430,1,0,0:0:0:0:
24,80,75602,1,0,0:0:0:0:
52,72,75687,1,0,0:0:0:0:
82,66,75773,1,0,0:0:0:0:
112,64,75859,1,0,0:0:0:0:
142,64,75944,1,0,0:0:0:0:
172,66,76030,1,0,0:0:0:0:
201,71,76116,1,0,0:0:0:0:
230,79,76202,1,0,0:0:0:0:
258,89,76287,1,0,0:0:0:0:
348,152,76459,1,0,0:0:0:0:
264,216,76630,1,0,0:0:0:0:
64,316,76973,6,0,P|123:323|182:314,1,120
292,324,77487,1,0,0:0:0:0:
292,324,77573,1,0,0:0:0:0:
292,324,77659,1,0,0:0:0:0:
184,212,77830,1,0,0:0:0:0:
184,212,78002,2,0,L|252:172,1,60
368,88,78345,2,0,P|308:79|249:86,1,120
144,84,78859,1,0,0:0:0:0:
144,84,78945,1,0,0:0:0:0:
144,84,79030,1,0,0:0:0:0:
256,168,79202,1,0,0:0:0:0:
256,168,79373,2,0,L|208:216,1,60
124,320,79716,6,0,P|183:327|242:318,1,120
380,320,80230,1,0,0:0:0:0:
380,320,80316,1,0,0:0:0:0:
380,320,80402,1,0,0:0:0:0:
284,208,80573,1,0,0:0:0:0:
284,208,80745,2,0,L|356:164,1,60
424,64,81087,2,0,P|364:55|305:63,1,120
176,68,81602,1,0,0:0:0:0:
176,68,81687,1,0,0:0:0:0:
176,68,81773,1,0,0:0:0:0:
48,164,81945,1,0,0:0:0:0:
52,168,82116,2,0,L|100:220,1,60
172,328,82459,6,0,P|231:335|290:326,1,120
404,328,82973,1,0,0:0:0:0:
404,328,83059,1,0,0:0:0:0:
404,328,83145,1,0,0:0:0:0:
476,200,83316,1,0,0:0:0:0:
476,200,83487,2,0,L|408:152,1,60
316,72,83830,2,0,P|256:63|197:70,1,120
88,76,84345,1,0,0:0:0:0:
88,76,84430,1,0,0:0:0:0:
88,76,84516,1,0,0:0:0:0:
200,188,84687,1,0,0:0:0:0:
200,188,84859,2,0,L|152:224,1,60
52,344,85202,6,0,P|111:351|170:342,1,120
308,344,85716,1,0,0:0:0:0:
308,344,85802,1,0,0:0:0:0:
308,344,85887,1,0,0:0:0:0:
216,240,86059,1,0,0:0:0:0:
216,240,86230,2,0,L|267:209,1,60
348,156,86573,1,0,0:0:0:0:
368,104,86745,1,0,0:0:0:0:
348,56,86916,1,0,0:0:0:0:
208,36,87259,1,0,0:0:0:0:
208,36,87430,2,0,P|176:32|140:36,1,60
64,124,87945,5,0,0:0:0:0:
64,124,88116,2,0,P|92:128|124:124,2,60
56,232,88630,2,0,P|84:228|116:232,1,60
212,292,88973,1,0,0:0:0:0:
312,240,89145,2,0,P|372:236|432:244,1,120
428,128,89830,2,0,P|396:132|368:128,1,60
320,56,90173,2,0,P|288:52|260:56,1,60
196,120,90687,2,0,P|164:116|136:120,2,60
256,176,91373,2,0,P|284:180|316:176,1,60
364,264,91716,1,0,0:0:0:0:
364,264,91887,2,0,P|304:272|244:264,1,120
216,332,92573,6,0,P|186:335|156:331,1,60
84,332,92916,2,0,P|52:336|24:332,2,60
136,240,93430,2,0,P|168:236|196:240,2,60
84,156,94116,1,0,0:0:0:0:
132,76,94459,2,0,P|160:72|192:76,2,60
88,160,95145,1,0,0:0:0:0:
88,160,95316,2,0,P|116:164|148:160,1,60
168,244,95659,2,0,P|200:248|228:244,1,60
280,312,96173,2,0,P|308:316|340:312,2,60
227,244,96859,2,0,P|196:240|167:243,1,60
147,160,97202,1,0,0:0:0:0:
147,160,97373,2,0,P|119:156|87:160,1,60
