osu file format v14

[General]
AudioFilename: papi.mp3
AudioLeadIn: 0
PreviewTime: 102825
Countdown: 0
SampleSet: Soft
StackLeniency: 0.7
Mode: 0
LetterboxInBreaks: 1
WidescreenStoryboard: 0

[Editor]
DistanceSpacing: 1.3
BeatDivisor: 8
GridSize: 32
TimelineZoom: 1.7

[Metadata]
Title:I am papi-chan
TitleUnicode:我是papi酱
Artist:Elizabeth Mouse
ArtistUnicode:伊丽莎白鼠
Creator:buhei
Version:IamPapichaN
Source:
Tags:Bilibili Douga 哔哩哔哩 Mashed Potatoes OMFG 音Mad
BeatmapID:982746
BeatmapSetID:458653

[Difficulty]
HPDrainRate:7
CircleSize:3.5
OverallDifficulty:8
ApproachRate:9.4
SliderMultiplier:2.4
SliderTickRate:1

[Events]
//Background and Video events
Video,0,"papi.flv"
0,0,"bg.JPG",0,0
//Break Periods
2,98400,102285
//Storyboard Layer 0 (Background)
//Storyboard Layer 1 (Fail)
//Storyboard Layer 2 (Pass)
//Storyboard Layer 3 (Foreground)
//Storyboard Sound Samples

[TimingPoints]
2825,500,4,2,1,40,1,0
47325,-90.9090909090909,4,2,1,40,0,0
47825,-76.9230769230769,4,2,1,40,0,0
48325,-66.6666666666667,4,2,1,40,0,0
48825,-100,4,2,1,40,0,0
49075,-90.9090909090909,4,2,1,40,0,0
49325,-76.9230769230769,4,2,1,40,0,0
49575,-66.6666666666667,4,2,1,40,0,0
50825,-100,4,2,1,40,0,0
57825,-133.333333333333,4,2,1,40,0,0
58575,-100,4,2,1,40,0,0
66325,-133.333333333333,4,2,1,40,0,0
66825,-100,4,2,1,40,0,0
76325,-83.3333333333333,4,2,1,40,0,0
76825,-100,4,2,1,40,0,0
86575,-66.6666666666667,4,2,1,40,0,0
86825,-100,4,2,1,40,0,0
88825,-76.9230769230769,4,2,1,40,0,0
89825,-200,4,2,1,40,0,0
90575,-100,4,2,1,40,0,0
94575,-76.9230769230769,4,2,1,40,0,0
94825,-100,4,2,1,40,0,0
102825,-100,4,2,1,40,0,1
110825,-100,4,2,1,40,0,0
118325,-133.333333333333,4,2,1,40,0,0
118825,-100,4,2,1,40,0,0
126825,-76.9230769230769,4,2,1,40,0,0
127325,-100,4,2,1,40,0,0
133825,-133.333333333333,4,2,1,40,0,0

[Colours]
Combo1 : 255,128,255
Combo2 : 128,255,255
Combo3 : 255,255,128
Combo4 : 243,163,139

[HitObjects]
256,192,16825,12,0,18575,0:0:0:0:
266,103,18825,6,0,L|404:94,1,120
493,319,19325,2,0,L|355:310,1,120
202,208,19700,1,0,0:0:0:0:
150,271,19825,6,0,P|170:333|237:278,1,180
182,122,20325,2,0,P|115:114|57:139,1,120
41,153,20700,1,0,0:0:0:0:
25,182,20825,5,0,0:0:0:0:
84,339,21075,1,0,0:0:0:0:
251,323,21325,1,0,0:0:0:0:
381,216,21575,1,0,0:0:0:0:
356,212,21658,1,0,0:0:0:0:
331,208,21741,1,0,0:0:0:0:
306,204,21825,5,0,0:0:0:0:
456,276,22075,1,0,0:0:0:0:
462,85,22325,2,0,P|413:85|354:125,1,120
213,240,22825,6,0,L|231:54,1,180
62,0,23325,2,0,L|72:124,1,120
79,198,23700,1,0,0:0:0:0:
75,278,23825,6,0,B|129:261|129:261|249:302,1,180
436,276,24325,2,0,P|376:281|321:249,1,120
283,188,24700,1,0,0:0:0:0:
283,188,24825,5,0,0:0:0:0:
475,129,25075,1,0,0:0:0:0:
301,63,25325,1,0,0:0:0:0:
385,186,25575,1,0,0:0:0:0:
383,161,25658,1,0,0:0:0:0:
381,136,25741,1,0,0:0:0:0:
379,111,25825,5,0,0:0:0:0:
337,290,26075,1,0,0:0:0:0:
301,63,26325,2,0,L|172:77,1,120
103,103,26700,1,0,0:0:0:0:
103,103,26825,5,0,0:0:0:0:
243,286,27075,2,0,P|247:252|243:218,1,60
114,114,27325,1,0,0:0:0:0:
254,297,27575,2,0,P|258:263|254:229,1,60
125,125,27825,5,0,0:0:0:0:
265,308,28075,2,0,P|269:274|265:240,1,60
136,136,28325,1,0,0:0:0:0:
276,319,28575,2,0,P|280:285|276:251,1,60
245,177,28825,5,0,0:0:0:0:
441,231,29075,1,0,0:0:0:0:
330,139,29325,1,0,0:0:0:0:
415,318,29575,1,0,0:0:0:0:
491,158,29825,6,0,L|482:35,1,120
315,248,30325,2,0,L|323:367,1,120
171,300,30825,5,0,0:0:0:0:
42,117,31075,2,0,L|41:177,1,60
181,284,31325,1,0,0:0:0:0:
52,101,31575,2,0,L|51:161,1,60
191,268,31825,5,0,0:0:0:0:
62,85,32075,2,0,L|61:145,1,60
201,252,32325,1,0,0:0:0:0:
72,69,32575,2,0,L|71:129,1,60
211,236,32825,5,0,0:0:0:0:
402,183,33075,1,0,0:0:0:0:
261,45,33325,1,0,0:0:0:0:
211,236,33575,1,0,0:0:0:0:
470,230,33825,6,0,P|483:172|453:118,1,120
416,103,34200,1,0,0:0:0:0:
416,103,34325,1,0,0:0:0:0:
310,231,34575,1,0,0:0:0:0:
398,345,34825,6,0,L|437:341,14,30
311,318,35825,5,0,0:0:0:0:
318,288,35950,1,0,0:0:0:0:
320,258,36075,1,0,0:0:0:0:
316,228,36200,1,0,0:0:0:0:
308,198,36325,1,0,0:0:0:0:
294,171,36450,1,0,0:0:0:0:
276,147,36575,1,0,0:0:0:0:
253,127,36700,1,0,0:0:0:0:
227,111,36825,6,0,L|164:92,2,60
114,202,37325,2,0,L|50:215,1,60
104,291,37575,2,0,L|40:304,1,60
174,346,37825,6,0,P|231:319|339:356,1,180
411,327,38325,2,0,L|406:207,1,120
297,46,38825,6,0,L|339:53,14,30
264,41,39825,5,0,0:0:0:0:
234,47,39950,1,0,0:0:0:0:
204,53,40075,1,0,0:0:0:0:
174,59,40200,1,0,0:0:0:0:
144,65,40325,1,0,0:0:0:0:
114,71,40450,1,0,0:0:0:0:
84,77,40575,1,0,0:0:0:0:
54,83,40700,1,0,0:0:0:0:
24,89,40825,5,0,0:0:0:0:
187,198,41075,1,0,0:0:0:0:
187,198,41200,1,0,0:0:0:0:
187,198,41325,2,0,L|182:260,1,60
206,334,41575,1,0,0:0:0:0:
343,164,41825,5,0,0:0:0:0:
206,334,42075,1,0,0:0:0:0:
404,112,42325,1,0,0:0:0:0:
343,164,42450,2,0,P|327:209|345:278,1,120
432,345,42825,6,0,L|443:217,1,120
442,225,43200,1,0,0:0:0:0:
442,225,43325,1,0,0:0:0:0:
301,41,43575,1,0,0:0:0:0:
197,103,43825,6,0,L|69:92,1,120
77,92,44200,1,0,0:0:0:0:
77,92,44325,1,0,0:0:0:0:
234,225,44575,1,0,0:0:0:0:
301,41,44825,6,0,L|312:169,1,120
311,160,45200,1,0,0:0:0:0:
311,160,45325,1,0,0:0:0:0:
179,327,45575,1,0,0:0:0:0:
440,262,45825,6,0,L|312:273,1,120
320,273,46200,1,0,0:0:0:0:
320,273,46325,1,0,0:0:0:0:
135,204,46575,1,0,0:0:0:0:
57,47,46825,6,0,L|181:68,1,120
49,60,47325,6,0,L|189:84,1,132.00000402832
36,69,47825,6,0,L|193:97,1,155.999992858887
20,79,48325,6,0,L|200:111,1,180.000006866455
414,298,48825,6,0,P|418:263|414:232,1,60
397,133,49075,6,0,P|367:102|339:90,1,66.0000020141602
255,40,49325,6,0,P|211:37|175:48,1,77.9999964294435
64,66,49575,6,0,P|25:91|4:133,1,90.0000034332277
66,218,49825,5,0,0:0:0:0:
92,289,49950,1,0,0:0:0:0:
168,287,50075,1,0,0:0:0:0:
189,213,50200,1,0,0:0:0:0:
126,170,50325,2,0,L|127:123,6,45.0000017166138
189,213,50825,6,0,L|254:208,1,60
341,195,51075,1,0,0:0:0:0:
500,274,51325,2,0,P|468:275|437:267,1,60
341,195,51575,1,0,0:0:0:0:
404,132,51700,1,0,0:0:0:0:
374,20,51825,6,0,L|305:26,1,60
211,83,52075,2,0,P|209:112|212:142,1,60
326,284,52325,1,0,0:0:0:0:
256,228,52450,1,0,0:0:0:0:
171,248,52575,2,0,L|104:243,1,60
45,339,52825,6,0,L|114:337,1,60
189,165,53075,2,0,L|120:163,1,60
58,102,53325,2,0,P|38:154|57:227,1,120
159,284,53700,1,0,0:0:0:0:
361,364,53825,6,0,P|299:361|245:318,1,120
341,227,54200,1,0,0:0:0:0:
416,286,54325,6,0,L|447:285,1,30
338,98,54575,2,0,L|308:97,1,30
429,131,54825,6,0,P|432:87|429:57,2,60
341,227,55200,1,0,0:0:0:0:
240,159,55325,2,0,B|211:156|179:162,1,60
80,198,55575,1,0,0:0:0:0:
80,198,55637,1,0,0:0:0:0:
80,198,55700,1,0,0:0:0:0:
13,115,55825,6,0,L|16:51,1,60
80,198,56075,2,0,L|81:245,2,40
141,133,56325,2,0,P|175:138|207:137,1,60
365,82,56575,2,0,P|331:77|299:78,1,60
440,134,56825,6,0,P|452:62|427:16,1,120
348,181,57200,1,0,0:0:0:0:
438,234,57325,2,0,L|504:230,1,60
313,316,57575,2,0,L|247:312,1,60
19,217,57825,6,0,B|68:232|106:222|106:222|144:212|198:229,1,180.000006866455
196,228,58575,2,0,P|188:190|199:136,1,90
243,73,58825,6,0,L|185:59,1,60
101,39,59075,1,0,0:0:0:0:
101,39,59200,1,0,0:0:0:0:
270,182,59325,6,0,L|328:168,1,60
412,148,59575,1,0,0:0:0:0:
412,148,59700,1,0,0:0:0:0:
207,315,59825,6,0,L|149:301,1,60
65,281,60075,1,0,0:0:0:0:
65,281,60200,1,0,0:0:0:0:
284,369,60325,1,0,0:0:0:0:
423,264,60575,6,0,L|449:261,4,20
345,301,60825,6,0,P|338:269|345:224,1,60
412,148,61075,1,0,0:0:0:0:
227,17,61325,2,0,L|228:78,1,60
231,161,61575,1,0,0:0:0:0:
91,298,61825,5,0,0:0:0:0:
176,264,61950,1,0,0:0:0:0:
105,208,62075,1,0,0:0:0:0:
333,320,62325,2,0,P|408:331|473:254,1,180
463,174,62825,5,0,0:0:0:0:
261,38,63075,1,0,0:0:0:0:
261,38,63200,1,0,0:0:0:0:
311,177,63325,2,0,P|314:147|311:110,1,60
261,38,63575,1,0,0:0:0:0:
106,260,63825,6,0,L|101:198,2,60
150,347,64200,1,0,0:0:0:0:
351,296,64325,2,0,L|216:290,1,120
150,347,64700,1,0,0:0:0:0:
391,205,64825,6,0,L|324:205,1,60
204,138,65075,1,0,0:0:0:0:
204,138,65200,1,0,0:0:0:0:
378,38,65325,6,0,L|382:103,1,60
168,217,65575,2,0,L|171:157,1,60
262,60,65825,5,0,0:0:0:0:
311,221,65950,1,0,0:0:0:0:
426,99,66075,1,0,0:0:0:0:
83,20,66325,6,0,L|96:156,1,135.000005149841
71,243,66825,6,0,P|127:247|178:287,1,120
222,369,67200,1,0,0:0:0:0:
311,221,67325,1,0,0:0:0:0:
281,310,67450,1,0,0:0:0:0:
239,174,67575,1,0,0:0:0:0:
456,275,67825,6,0,P|476:221|453:148,2,120
306,55,68575,2,0,L|337:58,1,30
239,174,68825,6,0,P|186:181|119:149,1,120
69,88,69200,1,0,0:0:0:0:
173,48,69325,1,0,0:0:0:0:
175,219,69450,1,0,0:0:0:0:
237,93,69575,1,0,0:0:0:0:
244,301,69825,6,0,L|121:322,2,120
436,228,70575,2,0,L|406:219,1,30
334,39,70825,6,0,L|327:167,1,120
387,304,71200,1,0,0:0:0:0:
436,228,71325,2,0,L|429:108,1,120
334,39,71700,1,0,0:0:0:0:
249,112,71825,6,0,L|189:105,1,60
44,53,72075,2,0,L|104:46,1,60
257,136,72325,2,0,L|197:129,1,60
52,77,72575,2,0,L|112:70,1,60
300,218,72825,6,0,L|164:203,1,120
97,188,73200,1,0,0:0:0:0:
16,349,73325,6,0,L|152:334,1,120
219,319,73700,1,0,0:0:0:0:
419,231,73825,6,0,L|283:216,1,120
216,201,74200,1,0,0:0:0:0:
399,344,74325,6,0,L|398:306,6,30
481,299,74825,6,0,P|508:241|491:179,1,120
426,125,75200,1,0,0:0:0:0:
359,54,75325,2,0,L|485:35,1,120
338,173,75700,1,0,0:0:0:0:
228,110,75825,6,0,P|178:92|52:131,1,180
153,318,76325,6,0,P|161:282|159:248,1,71.9999978027344
59,124,76575,2,0,P|56:159|64:194,1,71.9999978027344
238,285,76825,6,0,L|241:319,1,30
399,309,77075,2,0,L|401:338,1,30
499,149,77325,2,0,L|496:183,1,30
338,173,77575,2,0,L|335:202,1,30
168,43,77825,5,0,0:0:0:0:
138,162,77950,1,0,0:0:0:0:
257,129,78075,1,0,0:0:0:0:
104,236,78325,6,0,P|148:242|175:232,1,60
279,52,78575,2,0,P|249:47|220:54,1,60
269,248,78825,6,0,L|254:108,1,120
373,27,79200,1,0,0:0:0:0:
479,107,79325,2,0,L|420:100,1,60
359,216,79575,2,0,L|418:209,1,60
269,248,79825,5,0,0:0:0:0:
327,346,79950,1,0,0:0:0:0:
235,258,80075,1,0,0:0:0:0:
361,336,80200,1,0,0:0:0:0:
201,268,80325,2,0,L|141:258,1,60
23,153,80575,2,0,L|56:146,2,30
131,179,80825,6,0,P|138:141|128:110,1,60
101,44,81075,1,0,0:0:0:0:
318,38,81325,1,0,0:0:0:0:
228,53,81450,1,0,0:0:0:0:
228,53,81512,1,0,0:0:0:0:
228,53,81575,1,0,0:0:0:0:
286,124,81700,1,0,0:0:0:0:
318,38,81825,2,0,L|386:31,2,60
228,53,82200,1,0,0:0:0:0:
85,156,82325,6,0,P|155:109|173:184,1,180
155,255,82825,5,0,0:0:0:0:
370,194,83075,2,0,L|360:292,1,90
356,314,83325,1,0,0:0:0:0:
456,282,83450,1,0,0:0:0:0:
356,314,83575,1,0,0:0:0:0:
472,307,83700,1,0,0:0:0:0:
356,314,83825,6,0,L|371:193,1,120
220,29,84200,1,0,0:0:0:0:
220,29,84325,2,0,L|205:148,1,120
51,306,84825,6,0,P|85:318|118:312,1,60
244,219,85075,2,0,P|214:217|186:228,1,60
356,314,85325,1,0,0:0:0:0:
347,231,85450,1,0,0:0:0:0:
338,148,85575,1,0,0:0:0:0:
329,65,85700,1,0,0:0:0:0:
416,24,85825,6,0,P|449:62|453:132,1,120
347,231,86200,1,0,0:0:0:0:
241,121,86325,2,0,L|143:113,1,90
137,88,86575,6,0,P|108:88|136:124,1,90.0000034332277
184,251,86825,6,0,L|189:189,1,60
69,276,87075,2,0,L|73:335,1,60
241,328,87325,5,0,0:0:0:0:
312,360,87450,1,0,0:0:0:0:
387,340,87575,1,0,0:0:0:0:
428,273,87700,1,0,0:0:0:0:
336,149,87825,6,0,L|328:285,1,120
483,165,88200,1,0,0:0:0:0:
483,165,88325,2,0,L|475:45,1,120
244,41,88825,6,0,L|327:34,1,77.9999964294435
103,128,89075,2,0,L|20:121,1,77.9999964294435
151,44,89325,1,0,0:0:0:0:
204,226,89450,1,0,0:0:0:0:
196,117,89575,1,0,0:0:0:0:
160,298,89700,1,0,0:0:0:0:
309,166,89825,6,0,L|376:160,2,60
279,171,90575,2,0,L|284:235,1,60
287,318,90825,5,0,0:0:0:0:
72,243,91075,2,0,P|125:253|177:238,1,90
183,235,91325,1,0,0:0:0:0:
123,129,91450,1,0,0:0:0:0:
183,235,91575,1,0,0:0:0:0:
159,109,91700,1,0,0:0:0:0:
159,245,91825,6,0,P|213:229|286:246,1,120
377,326,92200,1,0,0:0:0:0:
467,246,92325,2,0,L|457:124,1,120
375,40,92700,1,0,0:0:0:0:
375,40,92825,6,0,L|313:32,1,60
224,175,93075,2,0,L|286:167,1,60
387,141,93325,1,0,0:0:0:0:
148,111,93450,2,0,L|266:93,1,120
467,246,93825,6,0,L|349:228,1,120
251,275,94200,1,0,0:0:0:0:
160,328,94325,2,0,L|61:313,1,90
52,326,94575,6,0,P|44:291|51:250,1,77.9999964294435
123,163,94825,6,0,L|123:88,1,60
249,18,95075,1,0,0:0:0:0:
231,104,95200,1,0,0:0:0:0:
231,104,95262,1,0,0:0:0:0:
231,104,95325,1,0,0:0:0:0:
370,72,95450,2,0,L|305:75,2,60
476,28,95825,6,0,L|471:152,1,120
468,227,96200,1,0,0:0:0:0:
290,351,96325,6,0,P|265:287|321:182,1,180
331,173,96825,6,0,L|268:176,1,60
94,119,97075,2,0,L|153:121,1,60
184,267,97325,2,0,P|188:238|183:192,1,60
241,33,97575,2,0,P|237:63|239:93,1,60
306,267,97825,5,0,0:0:0:0:
326,78,97950,1,0,0:0:0:0:
391,281,98075,5,0,0:0:0:0:
411,92,98200,5,0,0:0:0:0:
332,186,102825,6,0,L|336:124,1,60
303,46,103075,1,0,0:0:0:0:
262,268,103325,2,0,L|324:272,1,60
402,239,103575,1,0,0:0:0:0:
180,198,103825,6,0,L|176:260,1,60
209,338,104075,1,0,0:0:0:0:
209,338,104200,1,0,0:0:0:0:
250,116,104325,2,0,L|188:112,1,60
110,145,104575,1,0,0:0:0:0:
402,239,104825,6,0,L|406:177,1,60
364,72,105075,1,0,0:0:0:0:
312,335,105325,2,0,L|374:339,1,60
479,297,105575,1,0,0:0:0:0:
110,145,105825,6,0,L|106:207,1,60
147,288,106075,1,0,0:0:0:0:
264,196,106200,1,0,0:0:0:0:
183,63,106325,2,0,L|121:59,1,60
22,97,106575,1,0,0:0:0:0:
337,256,106825,6,0,P|352:204|332:134,1,120
281,82,107200,1,0,0:0:0:0:
389,22,107325,2,0,L|450:31,1,60
281,82,107575,2,0,L|220:91,1,60
114,193,107825,6,0,L|121:124,2,60
146,278,108200,1,0,0:0:0:0:
249,350,108325,6,0,L|246:287,1,60
331,163,108575,2,0,L|333:222,1,60
400,318,108825,6,0,P|438:323|468:318,1,60
495,157,109075,1,0,0:0:0:0:
434,245,109200,1,0,0:0:0:0:
373,84,109325,6,0,L|438:94,1,60
241,31,109575,2,0,L|176:41,1,60
64,139,109825,6,0,P|106:178|170:178,1,120
242,147,110200,1,0,0:0:0:0:
300,258,110325,5,0,0:0:0:0:
318,256,110388,1,0,0:0:0:0:
337,254,110450,1,0,0:0:0:0:
355,252,110513,1,0,0:0:0:0:
374,250,110575,2,0,L|439:244,1,60
461,153,110825,6,0,L|464:93,2,60
434,245,111200,1,0,0:0:0:0:
340,341,111325,2,0,L|409:346,2,60
234,332,111700,1,0,0:0:0:0:
141,239,111825,6,0,L|69:246,2,60
228,196,112200,1,0,0:0:0:0:
288,118,112325,6,0,L|291:75,1,30
68,40,112575,2,0,L|65:69,1,30
385,156,112825,6,0,P|389:122|384:91,1,60
346,26,113075,1,0,0:0:0:0:
346,26,113200,1,0,0:0:0:0:
364,244,113325,2,0,L|435:235,1,60
288,118,113575,2,0,L|217:109,1,60
149,68,113825,5,0,0:0:0:0:
78,128,113950,1,0,0:0:0:0:
159,173,114075,1,0,0:0:0:0:
91,236,114200,1,0,0:0:0:0:
179,325,114325,6,0,P|184:289|181:252,1,60
288,118,114575,2,0,P|287:147|292:177,1,60
376,263,114825,6,0,L|447:259,1,60
488,144,115075,1,0,0:0:0:0:
418,183,115200,1,0,0:0:0:0:
367,63,115325,2,0,P|401:63|436:71,1,60
288,118,115575,1,0,0:0:0:0:
288,118,115637,1,0,0:0:0:0:
288,118,115700,1,0,0:0:0:0:
262,24,115825,6,0,P|228:27|195:22,1,60
115,37,116075,1,0,0:0:0:0:
115,37,116200,1,0,0:0:0:0:
174,166,116325,6,0,L|173:103,1,60
53,194,116575,2,0,L|52:253,1,60
231,375,116825,6,0,B|240:335|240:335|225:251,1,120
152,305,117200,1,0,0:0:0:0:
293,204,117325,2,0,L|361:209,1,60
421,274,117575,1,0,0:0:0:0:
509,198,117700,1,0,0:0:0:0:
426,127,117825,6,0,L|421:62,1,60
345,24,118075,1,0,0:0:0:0:
345,24,118200,1,0,0:0:0:0:
345,24,118325,6,0,L|256:29,1,90.0000034332277
46,208,118825,6,0,P|89:230|161:222,1,120
238,185,119200,1,0,0:0:0:0:
108,78,119325,2,0,L|115:148,1,60
232,244,119575,2,0,L|237:184,1,60
200,97,119825,5,0,0:0:0:0:
331,173,119950,1,0,0:0:0:0:
332,22,120075,1,0,0:0:0:0:
423,156,120325,6,0,L|411:278,1,120
402,354,120700,1,0,0:0:0:0:
319,293,120825,5,0,0:0:0:0:
194,322,120950,1,0,0:0:0:0:
231,199,121075,1,0,0:0:0:0:
19,155,121325,5,0,0:0:0:0:
144,184,121450,1,0,0:0:0:0:
107,61,121575,1,0,0:0:0:0:
355,24,121825,5,0,0:0:0:0:
230,53,121950,1,0,0:0:0:0:
318,147,122075,2,0,P|355:148|384:138,1,60
497,93,122325,6,0,P|468:85|438:87,1,60
458,258,122575,2,0,P|465:229|463:199,1,60
363,302,122825,6,0,L|366:366,1,60
300,232,123075,1,0,0:0:0:0:
300,232,123200,1,0,0:0:0:0:
212,232,123325,6,0,L|215:168,1,60
149,302,123575,1,0,0:0:0:0:
149,302,123700,1,0,0:0:0:0:
363,302,123825,5,0,0:0:0:0:
300,232,123950,1,0,0:0:0:0:
212,232,124075,1,0,0:0:0:0:
149,302,124200,1,0,0:0:0:0:
149,302,124325,5,0,0:0:0:0:
212,232,124450,1,0,0:0:0:0:
300,232,124575,1,0,0:0:0:0:
363,302,124700,1,0,0:0:0:0:
441,234,124825,6,0,L|446:173,2,60
71,234,125325,2,0,L|66:173,2,60
389,78,125825,6,0,P|330:88|272:76,1,120
206,27,126200,1,0,0:0:0:0:
88,90,126325,2,0,L|149:84,1,60
206,27,126575,1,0,0:0:0:0:
284,345,126825,6,0,P|354:293|256:266,1,233.999989288331
299,295,127325,6,0,L|305:173,1,120
310,91,127700,1,0,0:0:0:0:
454,95,127825,2,0,L|389:103,1,60
182,29,128075,2,0,L|247:37,1,60
241,36,128262,1,0,0:0:0:0:
241,36,128325,5,0,0:0:0:0:
97,65,128450,1,0,0:0:0:0:
226,118,128575,1,0,0:0:0:0:
81,146,128700,1,0,0:0:0:0:
168,260,128825,6,0,L|163:189,1,60
163,200,129012,1,0,0:0:0:0:
163,200,129075,1,0,0:0:0:0:
74,281,129200,1,0,0:0:0:0:
181,347,129325,2,0,L|320:344,1,120
386,343,129700,1,0,0:0:0:0:
486,158,129825,6,0,L|347:155,1,120
281,154,130200,1,0,0:0:0:0:
123,35,130325,6,0,L|124:74,1,30
389,35,130575,2,0,L|388:74,1,30
311,239,130825,6,0,L|245:242,1,60
141,337,131075,2,0,L|149:209,1,120
152,136,131450,1,0,0:0:0:0:
152,136,131575,5,0,0:0:0:0:
423,284,131825,1,0,0:0:0:0:
71,167,132075,1,0,0:0:0:0:
273,43,132325,1,0,0:0:0:0:
233,341,132575,1,0,0:0:0:0:
472,149,132825,6,0,L|478:97,2,40
412,203,133075,2,0,L|351:199,1,60
268,167,133325,1,0,0:0:0:0:
300,262,133450,1,0,0:0:0:0:
188,153,133575,1,0,0:0:0:0:
220,248,133700,1,0,0:0:0:0:
432,334,133825,6,0,P|469:293|407:202,1,180.000006866455
255,62,134825,1,0,0:0:0:0:
