osu file format v14

[General]
AudioFilename: audio.mp3
AudioLeadIn: 0
PreviewTime: 32504
Countdown: 0
SampleSet: Soft
StackLeniency: 0.7
Mode: 3
LetterboxInBreaks: 0
SpecialStyle: 0
WidescreenStoryboard: 1

[Editor]
DistanceSpacing: 0.8
BeatDivisor: 8
GridSize: 4
TimelineZoom: 2.4

[Metadata]
Title:Elevator (Nightcore Mix)
TitleUnicode:Elevator (Nightcore Mix)
Artist:Eliminate
ArtistUnicode:Eliminate
Creator:Ainer
Version:Avel's Easy
Source:
Tags:fawcro revv- reihynn electronic english belly of the beast EP extended play Disciple sv slider velocity
BeatmapID:4130322
BeatmapSetID:1986520

[Difficulty]
HPDrainRate:7
CircleSize:4
OverallDifficulty:6.7
ApproachRate:5
SliderMultiplier:1.4
SliderTickRate:1

[Events]
//Background and Video events
0,0,"bg.jpg",0,0
//Break Periods
//Storyboard Layer 0 (Background)
//Storyboard Layer 1 (Fail)
//Storyboard Layer 2 (Pass)
//Storyboard Layer 3 (Foreground)
//Storyboard Layer 4 (Overlay)
//Storyboard Sound Samples

[TimingPoints]
-368,342.857142857143,4,2,1,50,1,0

[HitObjects]
64,192,1003,5,0,0:0:0:0:
192,192,1003,1,0,0:0:0:0:
448,192,1346,1,0,0:0:0:0:
64,192,1517,1,0,0:0:0:0:
320,192,1689,1,0,0:0:0:0:
192,192,2032,1,0,0:0:0:0:
448,192,2374,1,0,0:0:0:0:
64,192,2717,1,0,0:0:0:0:
448,192,2889,1,0,0:0:0:0:
192,192,3060,1,0,0:0:0:0:
448,192,3403,1,0,0:0:0:0:
64,192,3746,1,0,0:0:0:0:
320,192,4089,1,0,0:0:0:0:
64,192,4260,1,0,0:0:0:0:
448,192,4432,1,0,0:0:0:0:
64,192,4774,1,0,0:0:0:0:
320,192,5117,1,0,0:0:0:0:
192,192,5460,1,0,0:0:0:0:
448,192,5632,1,0,0:0:0:0:
64,192,5803,1,0,0:0:0:0:
320,192,6146,128,0,6489:0:0:0:0:
448,192,6489,1,0,0:0:0:0:
64,192,6489,1,0,0:0:0:0:
192,192,6832,1,0,0:0:0:0:
448,192,7003,1,0,0:0:0:0:
320,192,7174,1,0,0:0:0:0:
192,192,7517,1,0,0:0:0:0:
448,192,7860,1,0,0:0:0:0:
320,192,8203,1,0,0:0:0:0:
64,192,8374,1,0,0:0:0:0:
192,192,8546,1,0,0:0:0:0:
448,192,8889,1,0,0:0:0:0:
192,192,9232,1,0,0:0:0:0:
320,192,9574,1,0,0:0:0:0:
448,192,9746,1,0,0:0:0:0:
64,192,9917,1,0,0:0:0:0:
192,192,10260,1,0,0:0:0:0:
448,192,10603,1,0,0:0:0:0:
192,192,10946,1,0,0:0:0:0:
320,192,11289,1,0,0:0:0:0:
64,192,11632,1,0,0:0:0:0:
192,192,11974,1,0,0:0:0:0:
448,192,11974,1,0,0:0:0:0:
320,192,12317,1,0,0:0:0:0:
64,192,12489,1,0,0:0:0:0:
448,192,12660,1,0,0:0:0:0:
320,192,13003,1,0,0:0:0:0:
192,192,13346,1,0,0:0:0:0:
320,192,13689,1,0,0:0:0:0:
64,192,13860,1,0,0:0:0:0:
448,192,14032,1,0,0:0:0:0:
192,192,14374,128,0,14717:0:0:0:0:
64,192,14717,1,0,0:0:0:0:
320,192,14717,1,0,0:0:0:0:
448,192,15060,1,0,0:0:0:0:
192,192,15232,1,0,0:0:0:0:
64,192,15403,1,0,0:0:0:0:
320,192,15746,1,0,0:0:0:0:
448,192,16089,1,0,0:0:0:0:
64,192,16432,1,0,0:0:0:0:
320,192,16603,1,0,0:0:0:0:
448,192,16774,1,0,0:0:0:0:
64,192,17117,128,0,17460:0:0:0:0:
448,192,17460,1,0,0:0:0:0:
320,192,17460,1,0,0:0:0:0:
192,192,17803,1,0,0:0:0:0:
320,192,17974,1,0,0:0:0:0:
448,192,18146,1,0,0:0:0:0:
192,192,18489,1,0,0:0:0:0:
64,192,18832,1,0,0:0:0:0:
448,192,18832,1,0,0:0:0:0:
320,192,19174,1,0,0:0:0:0:
192,192,19346,1,0,0:0:0:0:
64,192,19517,1,0,0:0:0:0:
320,192,19860,1,0,0:0:0:0:
64,192,20203,1,0,0:0:0:0:
192,192,20203,1,0,0:0:0:0:
320,192,20546,1,0,0:0:0:0:
64,192,20889,1,0,0:0:0:0:
448,192,20889,1,0,0:0:0:0:
192,192,21232,1,0,0:0:0:0:
448,192,21574,128,0,22260:0:0:0:0:
192,192,22260,1,0,0:0:0:0:
448,192,22603,1,0,0:0:0:0:
192,192,22946,1,0,0:0:0:0:
64,192,22946,1,0,0:0:0:0:
448,192,23289,1,0,0:0:0:0:
320,192,23632,128,0,23974:0:0:0:0:
64,192,23974,1,0,0:0:0:0:
192,192,24146,1,0,0:0:0:0:
448,192,24317,1,0,0:0:0:0:
320,192,24317,1,0,0:0:0:0:
64,192,24660,1,0,0:0:0:0:
192,192,25003,128,0,25346:0:0:0:0:
448,192,25346,1,0,0:0:0:0:
320,192,25517,1,0,0:0:0:0:
192,192,25689,1,0,0:0:0:0:
64,192,25689,1,0,0:0:0:0:
448,192,26032,1,0,0:0:0:0:
320,192,26374,128,0,26717:0:0:0:0:
64,192,26717,1,0,0:0:0:0:
192,192,26889,1,0,0:0:0:0:
448,192,27060,1,0,0:0:0:0:
320,192,27060,1,0,0:0:0:0:
64,192,27403,1,0,0:0:0:0:
192,192,27746,128,0,28089:0:0:0:0:
448,192,28089,128,0,28432:0:0:0:0:
192,192,28432,1,0,0:0:0:0:
64,192,28432,1,0,0:0:0:0:
448,192,28774,1,0,0:0:0:0:
320,192,28946,1,0,0:0:0:0:
64,192,28946,1,0,0:0:0:0:
192,192,29289,1,0,0:0:0:0:
320,192,29460,1,0,0:0:0:0:
448,192,29460,1,0,0:0:0:0:
192,192,29803,1,0,0:0:0:0:
64,192,29803,1,0,0:0:0:0:
64,192,30146,1,0,0:0:0:0:
448,192,30317,1,0,0:0:0:0:
192,192,30317,1,0,0:0:0:0:
320,192,30660,1,0,0:0:0:0:
64,192,30832,1,0,0:0:0:0:
192,192,30832,1,0,0:0:0:0:
320,192,31174,1,0,0:0:0:0:
448,192,31174,128,0,31517:0:0:0:0:
192,192,31517,128,0,31860:0:0:0:0:
320,192,31860,128,0,32203:0:0:0:0:
64,192,32203,128,0,32546:0:0:0:0:
320,192,32546,1,0,0:0:0:0:
320,192,32889,1,0,0:0:0:0:
64,192,33232,1,0,0:0:0:0:
64,192,33574,1,0,0:0:0:0:
320,192,33917,1,0,0:0:0:0:
448,192,33917,128,0,34260:0:0:0:0:
64,192,34260,1,0,0:0:0:0:
192,192,34603,1,0,0:0:0:0:
448,192,34946,1,0,0:0:0:0:
320,192,35289,1,0,0:0:0:0:
192,192,35460,1,0,0:0:0:0:
64,192,35632,1,0,0:0:0:0:
320,192,35974,1,0,0:0:0:0:
192,192,36317,1,0,0:0:0:0:
448,192,36489,1,0,0:0:0:0:
320,192,36660,128,0,37003:0:0:0:0:
64,192,36660,1,0,0:0:0:0:
192,192,37003,1,0,0:0:0:0:
320,192,37346,1,0,0:0:0:0:
64,192,37689,1,0,0:0:0:0:
192,192,38032,1,0,0:0:0:0:
320,192,38203,1,0,0:0:0:0:
448,192,38374,1,0,0:0:0:0:
64,192,38717,1,0,0:0:0:0:
448,192,38889,1,0,0:0:0:0:
192,192,39060,1,0,0:0:0:0:
448,192,39232,1,0,0:0:0:0:
64,192,39403,1,0,0:0:0:0:
192,192,39403,128,0,39746:0:0:0:0:
448,192,39746,1,0,0:0:0:0:
64,192,40089,1,0,0:0:0:0:
320,192,40432,1,0,0:0:0:0:
448,192,40774,1,0,0:0:0:0:
320,192,40946,1,0,0:0:0:0:
192,192,41117,1,0,0:0:0:0:
64,192,41460,1,0,0:0:0:0:
192,192,41803,128,0,42146:0:0:0:0:
448,192,41803,1,0,0:0:0:0:
64,192,42146,1,0,0:0:0:0:
320,192,42489,128,0,43003:0:0:0:0:
64,192,43003,128,0,43346:0:0:0:0:
448,192,43517,128,0,44032:0:0:0:0:
192,192,44032,128,0,44546:0:0:0:0:
320,192,44546,1,0,0:0:0:0:
64,192,44889,128,0,45232:0:0:0:0:
448,192,44889,1,0,0:0:0:0:
320,192,45232,1,0,0:0:0:0:
192,192,45574,1,0,0:0:0:0:
448,192,45917,1,0,0:0:0:0:
64,192,46260,1,0,0:0:0:0:
192,192,46432,1,0,0:0:0:0:
320,192,46603,1,0,0:0:0:0:
64,192,46946,1,0,0:0:0:0:
448,192,47289,1,0,0:0:0:0:
320,192,47460,1,0,0:0:0:0:
64,192,47632,1,0,0:0:0:0:
192,192,47632,128,0,47974:0:0:0:0:
320,192,47974,1,0,0:0:0:0:
192,192,48317,1,0,0:0:0:0:
448,192,48660,1,0,0:0:0:0:
320,192,49003,1,0,0:0:0:0:
192,192,49174,1,0,0:0:0:0:
64,192,49346,1,0,0:0:0:0:
448,192,49689,1,0,0:0:0:0:
64,192,49860,1,0,0:0:0:0:
320,192,50032,1,0,0:0:0:0:
64,192,50203,1,0,0:0:0:0:
320,192,50374,128,0,50717:0:0:0:0:
448,192,50374,1,0,0:0:0:0:
64,192,50717,1,0,0:0:0:0:
192,192,51060,1,0,0:0:0:0:
320,192,51403,1,0,0:0:0:0:
448,192,51746,1,0,0:0:0:0:
320,192,51917,1,0,0:0:0:0:
192,192,52089,1,0,0:0:0:0:
448,192,52432,1,0,0:0:0:0:
320,192,52774,128,0,53117:0:0:0:0:
64,192,52774,1,0,0:0:0:0:
448,192,53117,1,0,0:0:0:0:
192,192,53460,128,0,53974:0:0:0:0:
448,192,53974,128,0,54317:0:0:0:0:
64,192,54489,128,0,55003:0:0:0:0:
320,192,55003,128,0,55517:0:0:0:0:
192,192,55517,128,0,55860:0:0:0:0:
320,192,55860,1,0,0:0:0:0:
448,192,55860,1,0,0:0:0:0:
64,192,56203,1,0,0:0:0:0:
192,192,56546,128,0,56889:0:0:0:0:
448,192,56889,1,0,0:0:0:0:
320,192,57060,1,0,0:0:0:0:
64,192,57232,1,0,0:0:0:0:
192,192,57232,1,0,0:0:0:0:
448,192,57574,1,0,0:0:0:0:
320,192,57917,128,0,58260:0:0:0:0:
64,192,58260,1,0,0:0:0:0:
192,192,58432,1,0,0:0:0:0:
320,192,58603,1,0,0:0:0:0:
448,192,58603,1,0,0:0:0:0:
64,192,58946,1,0,0:0:0:0:
192,192,59289,128,0,59632:0:0:0:0:
320,192,59632,1,0,0:0:0:0:
448,192,59803,1,0,0:0:0:0:
64,192,59974,1,0,0:0:0:0:
192,192,59974,1,0,0:0:0:0:
448,192,60317,1,0,0:0:0:0:
320,192,60660,128,0,61003:0:0:0:0:
64,192,61003,128,0,61346:0:0:0:0:
320,192,61346,1,0,0:0:0:0:
448,192,61346,1,0,0:0:0:0:
448,192,61689,1,0,0:0:0:0:
320,192,61689,1,0,0:0:0:0:
64,192,62032,1,0,0:0:0:0:
192,192,62032,1,0,0:0:0:0:
64,192,62374,1,0,0:0:0:0:
192,192,62374,1,0,0:0:0:0:
64,192,62717,1,0,0:0:0:0:
320,192,62717,1,0,0:0:0:0:
64,192,63060,1,0,0:0:0:0:
320,192,63060,1,0,0:0:0:0:
448,192,63403,1,0,0:0:0:0:
192,192,63403,1,0,0:0:0:0:
192,192,63746,1,0,0:0:0:0:
448,192,63746,1,0,0:0:0:0:
64,192,64089,128,0,64432:0:0:0:0:
448,192,64089,1,0,0:0:0:0:
320,192,64432,128,0,64774:0:0:0:0:
64,192,64774,1,0,0:0:0:0:
192,192,64774,128,0,65117:0:0:0:0:
448,192,65117,128,0,65460:0:0:0:0:
64,192,65460,1,0,0:0:0:0:
320,192,65460,1,0,0:0:0:0:
320,192,65803,1,0,0:0:0:0:
448,192,66146,1,0,0:0:0:0:
64,192,66489,1,0,0:0:0:0:
192,192,66832,1,0,0:0:0:0:
448,192,66832,1,0,0:0:0:0:
320,192,67174,1,0,0:0:0:0:
448,192,67517,1,0,0:0:0:0:
64,192,67517,1,0,0:0:0:0:
192,192,67860,1,0,0:0:0:0:
320,192,68203,1,0,0:0:0:0:
64,192,68546,1,0,0:0:0:0:
448,192,68889,1,0,0:0:0:0:
320,192,68889,1,0,0:0:0:0:
64,192,69060,1,0,0:0:0:0:
320,192,69232,1,0,0:0:0:0:
192,192,69403,1,0,0:0:0:0:
64,192,69574,1,0,0:0:0:0:
448,192,69574,1,0,0:0:0:0:
320,192,69917,1,0,0:0:0:0:
448,192,70260,1,0,0:0:0:0:
64,192,70260,1,0,0:0:0:0:
192,192,70603,1,0,0:0:0:0:
320,192,70946,1,0,0:0:0:0:
192,192,71203,1,0,0:0:0:0:
64,192,71460,1,0,0:0:0:0:
320,192,71632,1,0,0:0:0:0:
448,192,71803,1,0,0:0:0:0:
192,192,71974,128,0,72317:0:0:0:0:
320,192,72317,1,0,0:0:0:0:
448,192,72317,1,0,0:0:0:0:
64,192,72660,1,0,0:0:0:0:
192,192,73003,1,0,0:0:0:0:
320,192,73003,1,0,0:0:0:0:
448,192,73346,1,0,0:0:0:0:
64,192,73689,1,0,0:0:0:0:
192,192,74032,1,0,0:0:0:0:
448,192,74374,1,0,0:0:0:0:
64,192,74374,1,0,0:0:0:0:
320,192,74546,1,0,0:0:0:0:
192,192,74717,1,0,0:0:0:0:
64,192,74889,1,0,0:0:0:0:
320,192,75060,1,0,0:0:0:0:
448,192,75060,1,0,0:0:0:0:
192,192,75574,1,0,0:0:0:0:
320,192,75574,1,0,0:0:0:0:
64,192,76089,1,0,0:0:0:0:
192,192,76089,1,0,0:0:0:0:
64,192,76603,1,0,0:0:0:0:
320,192,76603,1,0,0:0:0:0:
448,192,76946,1,0,0:0:0:0:
320,192,77117,1,0,0:0:0:0:
64,192,77117,1,0,0:0:0:0:
320,192,77803,1,0,0:0:0:0:
448,192,77803,1,0,0:0:0:0:
192,192,78146,1,0,0:0:0:0:
64,192,78489,1,0,0:0:0:0:
448,192,78489,1,0,0:0:0:0:
192,192,78832,1,0,0:0:0:0:
320,192,79174,1,0,0:0:0:0:
64,192,79517,1,0,0:0:0:0:
320,192,79860,1,0,0:0:0:0:
448,192,79860,1,0,0:0:0:0:
192,192,80032,1,0,0:0:0:0:
64,192,80203,1,0,0:0:0:0:
320,192,80374,1,0,0:0:0:0:
192,192,80546,1,0,0:0:0:0:
448,192,80546,1,0,0:0:0:0:
64,192,80889,1,0,0:0:0:0:
320,192,81232,1,0,0:0:0:0:
192,192,81232,1,0,0:0:0:0:
448,192,81574,1,0,0:0:0:0:
192,192,81917,1,0,0:0:0:0:
320,192,82174,1,0,0:0:0:0:
448,192,82432,1,0,0:0:0:0:
64,192,82603,1,0,0:0:0:0:
192,192,82774,1,0,0:0:0:0:
320,192,82946,128,0,83289:0:0:0:0:
64,192,83289,1,0,0:0:0:0:
448,192,83289,1,0,0:0:0:0:
192,192,83632,1,0,0:0:0:0:
448,192,83974,1,0,0:0:0:0:
320,192,83974,1,0,0:0:0:0:
64,192,84317,1,0,0:0:0:0:
320,192,84660,1,0,0:0:0:0:
192,192,85003,1,0,0:0:0:0:
64,192,85346,1,0,0:0:0:0:
448,192,85346,1,0,0:0:0:0:
320,192,85517,1,0,0:0:0:0:
192,192,85689,1,0,0:0:0:0:
64,192,85860,1,0,0:0:0:0:
448,192,86032,1,0,0:0:0:0:
320,192,86032,1,0,0:0:0:0:
64,192,86546,1,0,0:0:0:0:
320,192,86546,1,0,0:0:0:0:
192,192,87060,1,0,0:0:0:0:
448,192,87060,1,0,0:0:0:0:
320,192,87574,1,0,0:0:0:0:
448,192,87574,1,0,0:0:0:0:
64,192,87917,1,0,0:0:0:0:
192,192,88089,1,0,0:0:0:0:
320,192,88089,1,0,0:0:0:0:
64,192,88432,1,0,0:0:0:0:
320,192,88774,1,0,0:0:0:0:
448,192,88774,1,0,0:0:0:0:
64,192,89117,1,0,0:0:0:0:
320,192,89289,1,0,0:0:0:0:
448,192,89460,1,0,0:0:0:0:
192,192,89803,1,0,0:0:0:0:
64,192,90146,1,0,0:0:0:0:
448,192,90489,1,0,0:0:0:0:
192,192,90660,1,0,0:0:0:0:
64,192,90832,1,0,0:0:0:0:
320,192,91174,128,0,91517:0:0:0:0:
64,192,91517,1,0,0:0:0:0:
192,192,91517,1,0,0:0:0:0:
448,192,91860,1,0,0:0:0:0:
64,192,92032,1,0,0:0:0:0:
320,192,92203,1,0,0:0:0:0:
192,192,92546,1,0,0:0:0:0:
320,192,92889,1,0,0:0:0:0:
64,192,93232,1,0,0:0:0:0:
448,192,93403,1,0,0:0:0:0:
192,192,93574,1,0,0:0:0:0:
448,192,93917,128,0,94260:0:0:0:0:
64,192,94260,1,0,0:0:0:0:
320,192,94260,1,0,0:0:0:0:
192,192,94603,1,0,0:0:0:0:
64,192,94774,1,0,0:0:0:0:
448,192,94946,1,0,0:0:0:0:
320,192,95289,1,0,0:0:0:0:
192,192,95632,1,0,0:0:0:0:
320,192,95974,1,0,0:0:0:0:
448,192,96146,1,0,0:0:0:0:
64,192,96317,1,0,0:0:0:0:
192,192,96660,128,0,97003:0:0:0:0:
64,192,97003,1,0,0:0:0:0:
448,192,97003,1,0,0:0:0:0:
192,192,97346,1,0,0:0:0:0:
320,192,97517,1,0,0:0:0:0:
448,192,97689,1,0,0:0:0:0:
192,192,98032,1,0,0:0:0:0:
448,192,98374,1,0,0:0:0:0:
448,192,98717,1,0,0:0:0:0:
64,192,99060,1,0,0:0:0:0:
64,192,99403,1,0,0:0:0:0:
320,192,99746,1,0,0:0:0:0:
448,192,99746,1,0,0:0:0:0:
64,192,100089,1,0,0:0:0:0:
320,192,100260,1,0,0:0:0:0:
192,192,100432,1,0,0:0:0:0:
64,192,100774,1,0,0:0:0:0:
320,192,101117,1,0,0:0:0:0:
448,192,101460,1,0,0:0:0:0:
192,192,101632,1,0,0:0:0:0:
320,192,101803,1,0,0:0:0:0:
192,192,101974,1,0,0:0:0:0:
448,192,102146,1,0,0:0:0:0:
320,192,102489,1,0,0:0:0:0:
64,192,102489,1,0,0:0:0:0:
448,192,102832,1,0,0:0:0:0:
192,192,103003,1,0,0:0:0:0:
320,192,103174,1,0,0:0:0:0:
448,192,103517,1,0,0:0:0:0:
192,192,103860,1,0,0:0:0:0:
320,192,104203,1,0,0:0:0:0:
64,192,104374,1,0,0:0:0:0:
448,192,104546,1,0,0:0:0:0:
64,192,104717,1,0,0:0:0:0:
320,192,104889,128,0,105232:0:0:0:0:
192,192,105232,1,0,0:0:0:0:
448,192,105232,1,0,0:0:0:0:
64,192,105574,1,0,0:0:0:0:
320,192,105746,1,0,0:0:0:0:
192,192,105917,1,0,0:0:0:0:
64,192,106260,1,0,0:0:0:0:
320,192,106603,1,0,0:0:0:0:
192,192,106946,1,0,0:0:0:0:
448,192,107117,1,0,0:0:0:0:
64,192,107289,1,0,0:0:0:0:
448,192,107460,1,0,0:0:0:0:
192,192,107632,128,0,107974:0:0:0:0:
448,192,107974,1,0,0:0:0:0:
320,192,107974,1,0,0:0:0:0:
192,192,108317,1,0,0:0:0:0:
448,192,108660,1,0,0:0:0:0:
64,192,108660,1,0,0:0:0:0:
320,192,109003,1,0,0:0:0:0:
64,192,109346,128,0,110032:0:0:0:0:
320,192,110032,1,0,0:0:0:0:
64,192,110374,1,0,0:0:0:0:
320,192,110717,1,0,0:0:0:0:
448,192,110717,1,0,0:0:0:0:
64,192,111060,1,0,0:0:0:0:
192,192,111403,128,0,111746:0:0:0:0:
448,192,111746,1,0,0:0:0:0:
320,192,111917,1,0,0:0:0:0:
64,192,112089,1,0,0:0:0:0:
192,192,112089,1,0,0:0:0:0:
448,192,112432,1,0,0:0:0:0:
320,192,112774,128,0,113117:0:0:0:0:
64,192,113117,1,0,0:0:0:0:
192,192,113289,1,0,0:0:0:0:
320,192,113460,1,0,0:0:0:0:
448,192,113460,1,0,0:0:0:0:
64,192,113803,1,0,0:0:0:0:
192,192,114146,128,0,114489:0:0:0:0:
448,192,114489,1,0,0:0:0:0:
320,192,114660,1,0,0:0:0:0:
64,192,114832,1,0,0:0:0:0:
192,192,114832,1,0,0:0:0:0:
448,192,115174,1,0,0:0:0:0:
320,192,115517,128,0,115860:0:0:0:0:
64,192,115860,128,0,116203:0:0:0:0:
320,192,116203,1,0,0:0:0:0:
448,192,116203,1,0,0:0:0:0:
64,192,116546,1,0,0:0:0:0:
192,192,116717,1,0,0:0:0:0:
448,192,116717,1,0,0:0:0:0:
320,192,117060,1,0,0:0:0:0:
192,192,117232,1,0,0:0:0:0:
64,192,117232,1,0,0:0:0:0:
320,192,117574,1,0,0:0:0:0:
448,192,117574,1,0,0:0:0:0:
448,192,117917,1,0,0:0:0:0:
64,192,118089,1,0,0:0:0:0:
320,192,118089,1,0,0:0:0:0:
192,192,118432,1,0,0:0:0:0:
448,192,118603,1,0,0:0:0:0:
320,192,118603,1,0,0:0:0:0:
64,192,118946,1,0,0:0:0:0:
192,192,118946,128,0,119289:0:0:0:0:
448,192,119289,128,0,119632:0:0:0:0:
64,192,119632,128,0,119974:0:0:0:0:
320,192,119632,1,0,0:0:0:0:
192,192,119974,128,0,120317:0:0:0:0:
448,192,120317,1,0,0:0:0:0:
320,192,120317,1,0,0:0:0:0:
448,192,120660,1,0,0:0:0:0:
192,192,121003,1,0,0:0:0:0:
192,192,121346,1,0,0:0:0:0:
64,192,121689,128,0,122032:0:0:0:0:
448,192,121689,1,0,0:0:0:0:
320,192,122032,1,0,0:0:0:0:
192,192,122374,1,0,0:0:0:0:
64,192,122546,1,0,0:0:0:0:
448,192,122717,1,0,0:0:0:0:
320,192,123060,1,0,0:0:0:0:
448,192,123232,1,0,0:0:0:0:
64,192,123403,1,0,0:0:0:0:
192,192,123746,1,0,0:0:0:0:
64,192,123917,1,0,0:0:0:0:
448,192,124089,1,0,0:0:0:0:
320,192,124260,1,0,0:0:0:0:
64,192,124432,1,0,0:0:0:0:
192,192,124432,128,0,124774:0:0:0:0:
448,192,124774,1,0,0:0:0:0:
64,192,125117,1,0,0:0:0:0:
320,192,125289,1,0,0:0:0:0:
192,192,125460,1,0,0:0:0:0:
448,192,125803,1,0,0:0:0:0:
192,192,125974,1,0,0:0:0:0:
320,192,126146,1,0,0:0:0:0:
64,192,126489,1,0,0:0:0:0:
320,192,126660,1,0,0:0:0:0:
192,192,126832,1,0,0:0:0:0:
448,192,127003,1,0,0:0:0:0:
320,192,127174,128,0,127517:0:0:0:0:
64,192,127174,1,0,0:0:0:0:
192,192,127517,1,0,0:0:0:0:
448,192,127860,1,0,0:0:0:0:
64,192,128032,1,0,0:0:0:0:
320,192,128203,1,0,0:0:0:0:
64,192,128546,1,0,0:0:0:0:
448,192,128717,1,0,0:0:0:0:
192,192,128889,1,0,0:0:0:0:
448,192,129232,1,0,0:0:0:0:
64,192,129403,1,0,0:0:0:0:
320,192,129574,1,0,0:0:0:0:
64,192,129746,1,0,0:0:0:0:
320,192,129917,1,0,0:0:0:0:
448,192,129917,1,0,0:0:0:0:
192,192,130260,128,0,130774:0:0:0:0:
448,192,130774,128,0,131117:0:0:0:0:
64,192,131289,128,0,131803:0:0:0:0:
320,192,131803,128,0,132317:0:0:0:0:
192,192,132317,1,0,0:0:0:0:
448,192,132660,128,0,133003:0:0:0:0:
64,192,132660,1,0,0:0:0:0:
192,192,133003,1,0,0:0:0:0:
320,192,133346,1,0,0:0:0:0:
64,192,133517,1,0,0:0:0:0:
448,192,133689,1,0,0:0:0:0:
192,192,134032,1,0,0:0:0:0:
448,192,134203,1,0,0:0:0:0:
64,192,134374,1,0,0:0:0:0:
320,192,134717,1,0,0:0:0:0:
64,192,134889,1,0,0:0:0:0:
448,192,135060,1,0,0:0:0:0:
192,192,135232,1,0,0:0:0:0:
448,192,135403,1,0,0:0:0:0:
320,192,135403,128,0,135746:0:0:0:0:
64,192,135746,1,0,0:0:0:0:
448,192,136089,1,0,0:0:0:0:
192,192,136260,1,0,0:0:0:0:
448,192,136432,1,0,0:0:0:0:
64,192,136774,1,0,0:0:0:0:
320,192,136946,1,0,0:0:0:0:
64,192,137117,1,0,0:0:0:0:
448,192,137460,1,0,0:0:0:0:
192,192,137632,1,0,0:0:0:0:
448,192,137803,1,0,0:0:0:0:
64,192,137974,1,0,0:0:0:0:
448,192,138146,1,0,0:0:0:0:
192,192,138146,128,0,138489:0:0:0:0:
320,192,138489,1,0,0:0:0:0:
64,192,138832,1,0,0:0:0:0:
192,192,139003,1,0,0:0:0:0:
320,192,139174,1,0,0:0:0:0:
448,192,139517,1,0,0:0:0:0:
320,192,139689,1,0,0:0:0:0:
192,192,139860,1,0,0:0:0:0:
64,192,140203,1,0,0:0:0:0:
192,192,140374,1,0,0:0:0:0:
320,192,140546,1,0,0:0:0:0:
448,192,140717,1,0,0:0:0:0:
64,192,140889,1,0,0:0:0:0:
192,192,140889,1,0,0:0:0:0:
320,192,141232,128,0,141746:0:0:0:0:
64,192,141746,128,0,142089:0:0:0:0:
448,192,142260,128,0,142774:0:0:0:0:
192,192,142774,128,0,143289:0:0:0:0:
320,192,143289,128,0,143632:0:0:0:0:
448,192,143632,1,0,0:0:0:0:
64,192,143632,1,0,0:0:0:0:
192,192,143974,1,0,0:0:0:0:
448,192,144146,1,0,0:0:0:0:
64,192,144317,1,0,0:0:0:0:
448,192,144660,1,0,0:0:0:0:
64,192,145003,1,0,0:0:0:0:
320,192,145346,1,0,0:0:0:0:
64,192,145517,1,0,0:0:0:0:
448,192,145689,1,0,0:0:0:0:
320,192,146032,128,0,146374:0:0:0:0:
192,192,146374,1,0,0:0:0:0:
64,192,146374,1,0,0:0:0:0:
320,192,146717,1,0,0:0:0:0:
448,192,146889,1,0,0:0:0:0:
64,192,147060,1,0,0:0:0:0:
192,192,147403,1,0,0:0:0:0:
320,192,147746,1,0,0:0:0:0:
192,192,148089,1,0,0:0:0:0:
64,192,148260,1,0,0:0:0:0:
448,192,148432,1,0,0:0:0:0:
192,192,148774,128,0,149117:0:0:0:0:
64,192,149117,1,0,0:0:0:0:
448,192,149117,1,0,0:0:0:0:
320,192,149460,1,0,0:0:0:0:
64,192,149632,1,0,0:0:0:0:
192,192,149803,1,0,0:0:0:0:
448,192,150146,1,0,0:0:0:0:
64,192,150489,1,0,0:0:0:0:
192,192,150832,1,0,0:0:0:0:
448,192,151003,1,0,0:0:0:0:
320,192,151174,1,0,0:0:0:0:
64,192,151517,128,0,151860:0:0:0:0:
192,192,151860,1,0,0:0:0:0:
448,192,151860,1,0,0:0:0:0:
320,192,152203,1,0,0:0:0:0:
192,192,152374,1,0,0:0:0:0:
448,192,152546,1,0,0:0:0:0:
64,192,152889,1,0,0:0:0:0:
320,192,153232,1,0,0:0:0:0:
320,192,153574,1,0,0:0:0:0:
64,192,153917,1,0,0:0:0:0:
64,192,154260,1,0,0:0:0:0:
