osu file format v14

[General]
AudioFilename: audio.mp3
AudioLeadIn: 0
PreviewTime: 48504
Countdown: 0
SampleSet: Soft
StackLeniency: 0.7
Mode: 0
LetterboxInBreaks: 0
WidescreenStoryboard: 0

[Editor]
DistanceSpacing: 2.5
BeatDivisor: 4
GridSize: 8
TimelineZoom: 1.4

[Metadata]
Title:Hold ft. Jessica Jarrell (Candyland Remix)
TitleUnicode:Hold ft. Jessica Jarrell (Candyland Remix)
Artist:Elephante
ArtistUnicode:Elephante
Creator:Violet-Fox
Version:Dance with the Devil
Source:
Tags:
BeatmapID:1595868
BeatmapSetID:758744

[Difficulty]
HPDrainRate:8
CircleSize:4
OverallDifficulty:8
ApproachRate:9.5
SliderMultiplier:1.5
SliderTickRate:1

[Events]
//Background and Video events
0,0,"740710.png",0,0
//Break Periods
2,37166,38749
2,74377,75672
2,92550,94133
//Storyboard Layer 0 (Background)
//Storyboard Layer 1 (Fail)
//Storyboard Layer 2 (Pass)
//Storyboard Layer 3 (Foreground)
//Storyboard Sound Samples

[TimingPoints]
2351,288.461538461538,4,1,0,100,1,0
2351,-142.857142857143,4,2,0,40,0,0
11581,-100,4,3,0,100,0,0
30043,-66.6666666666667,4,3,0,60,0,0
47639,-166.666666666667,4,3,0,60,0,0
47927,-333.333333333333,4,3,0,60,0,0
48504,-50,4,3,0,60,0,1
67254,-100,4,2,0,40,0,0
85427,-66.6666666666667,4,3,0,60,0,0
94658,-66.6666666666667,4,3,0,80,0,0
103024,-166.666666666667,4,3,0,60,0,0
103312,-333.333333333333,4,3,0,100,0,0
103889,-50,4,3,0,100,0,1
122350,-500,4,2,0,15,0,0
132735,-500,4,2,0,5,0,0

[HitObjects]
65,55,2351,6,0,B|26:211|301:93|280:346|104:407|-76:288|11:115|92:92|200:246|291:158|352:151|302:-27|-3:53|281:211,1,787.499975967408
448,224,4658,6,0,B|393:143|455:53|455:53|354:243|236:181|251:-42|493:31|426:183|432:280|257:314|160:220,1,787.499975967408
88,240,6966,6,0,B|147:175|200:-70|-162:204|124:248|126:136|246:156|246:156|264:32|368:8|430:44|475:103|432:192,1,787.499975967408
343,139,9274,6,0,B|281:197|299:294|299:294|227:116|37:197|104:333,1,524.999983978272
401,261,11004,6,0,L|421:270,4,13.1249995994568,0|0|0|0|0,0:0|0:0|3:0|0:0|0:0,0:0:0:0:
451,160,11293,2,0,L|433:166,4,13.1249995994568,0|0|0|0|0,3:0|3:0|3:0|3:0|3:0,3:0:0:0:
362,83,11581,5,4,0:1:0:0:
104,48,11870,1,0,0:0:0:0:
221,98,12014,2,0,P|255:127|267:179,1,75,0|2,0:0|0:0,0:0:0:0:
205,266,12302,1,0,0:0:0:0:
134,126,12447,1,0,0:0:0:0:
86,244,12591,1,0,0:0:0:0:
279,229,12735,6,0,L|369:215,1,75
311,348,13024,1,0,0:0:0:0:
412,140,13168,1,0,0:0:0:0:
430,334,13312,1,2,0:0:0:0:
339,146,13456,2,0,B|246:224|224:70|108:189,1,225
263,79,14033,2,0,P|194:62|116:86,1,150
36,226,14466,2,0,L|138:241,1,75,2|0,0:0|0:0,0:0:0:0:
330,162,14754,5,0,0:0:0:0:
240,253,14899,1,0,0:0:0:0:
362,288,15043,2,0,P|404:271|430:222,1,75
389,120,15331,2,0,P|348:139|321:187,1,75
339,358,15620,1,2,0:0:0:0:
492,238,15764,1,0,0:0:0:0:
371,222,15908,5,0,0:0:0:0:
337,227,15980,1,0,0:0:0:0:
306,240,16052,1,0,0:0:0:0:
279,262,16125,1,0,0:0:0:0:
258,288,16197,6,0,P|195:315|129:240,1,150
186,85,16629,2,0,L|203:257,1,150
104,107,17062,2,0,P|115:42|217:12,1,150
333,60,17495,1,0,0:0:0:0:
178,89,17639,1,0,0:0:0:0:
410,44,17783,1,0,0:0:0:0:
261,136,17927,2,0,P|259:173|286:224,1,75,2|0,0:0|0:0,0:0:0:0:
388,258,18216,1,0,0:0:0:0:
424,128,18360,2,0,P|436:183|356:268,1,150
304,318,18793,5,0,0:0:0:0:
157,142,18937,1,0,0:0:0:0:
241,232,19081,2,0,B|222:277|222:277|199:259,1,75,2|0,0:0|0:0,0:0:0:0:
271,89,19370,5,0,0:0:0:0:
157,142,19514,2,0,P|144:181|226:264,1,150
334,199,19947,5,0,0:0:0:0:
271,88,20091,1,0,0:0:0:0:
155,66,20235,2,0,P|99:85|71:113,1,75,2|0,0:0|0:0,0:0:0:0:
162,252,20524,1,0,0:0:0:0:
159,154,20668,1,0,0:0:0:0:
50,306,20812,6,0,L|147:332,1,75
238,342,21100,1,4,0:1:0:0:
358,307,21245,1,0,0:0:0:0:
151,161,21389,2,0,P|194:131|258:201,1,150,2|0,0:0|0:0,0:0:0:0:
162,252,21822,1,0,0:0:0:0:
418,268,21966,6,0,P|409:224|359:192,1,75
260,186,22254,2,0,P|276:139|312:110,1,75
465,199,22543,1,2,0:0:0:0:
372,137,22687,1,0,0:0:0:0:
344,117,22759,1,0,0:0:0:0:
319,100,22831,2,0,B|241:51|222:126|153:70,1,150
119,286,23264,1,0,0:0:0:0:
145,177,23408,2,0,L|216:246,1,75
246,343,23697,5,0,0:0:0:0:
60,231,23841,1,0,0:0:0:0:
173,246,23985,2,0,L|132:148,1,75
346,241,24274,2,0,L|257:277,1,75
399,68,24562,2,0,L|433:160,1,75
277,101,24850,1,2,0:0:0:0:
365,232,24995,1,0,0:0:0:0:
222,165,25139,5,0,0:0:0:0:
197,136,25211,1,0,0:0:0:0:
189,97,25283,1,0,0:0:0:0:
189,59,25355,1,0,0:0:0:0:
198,22,25427,6,0,P|259:23|309:112,1,150
234,93,25860,2,0,B|221:130|237:193|237:193|201:171|156:191,1,150
138,317,26293,2,0,P|80:293|54:214,1,150
171,32,26725,2,0,L|190:181,1,150
25,157,27158,1,2,0:0:0:0:
173,106,27302,1,0,0:0:0:0:
136,260,27447,2,0,L|130:313,1,37.5
29,241,27591,5,0,0:0:0:0:
27,199,27663,1,0,0:0:0:0:
25,157,27735,1,4,0:0:0:0:
286,271,28024,5,0,0:0:0:0:
163,171,28168,1,0,0:0:0:0:
297,88,28312,1,2,0:0:0:0:
438,344,28600,5,0,0:0:0:0:
418,186,28745,1,0,0:0:0:0:
286,271,28889,1,0,0:0:0:0:
190,146,29177,5,0,0:0:0:0:
286,271,29322,1,0,0:0:0:0:
337,122,29466,6,0,L|354:98,4,18.75,2|0|0|0|0,0:0|0:0|0:0|0:0|0:0,0:0:0:0:
238,35,29754,6,0,L|237:62,4,18.75
73,32,30043,6,0,P|82:84|133:124,1,112.500004291535
322,101,30331,1,0,0:0:0:0:
149,190,30475,1,0,0:0:0:0:
344,180,30620,1,0,0:0:0:0:
238,35,30764,5,0,0:0:0:0:
242,229,30908,1,0,0:0:0:0:
190,114,31052,1,0,0:0:0:0:
344,180,31197,6,0,P|395:200|417:284,1,112.500004291535
281,296,31485,2,0,P|250:343|154:332,1,112.500004291535
137,179,31774,2,0,B|56:193|2:46|215:-14|141:147|322:99,1,337.500012874604
147,257,32350,6,0,P|126:307|66:316,1,112.500004291535
24,110,32639,1,0,0:0:0:0:
212,159,32783,1,0,0:0:0:0:
91,32,32927,1,0,0:0:0:0:
52,224,33072,1,0,0:0:0:0:
190,86,33216,5,0,0:0:0:0:
219,278,33360,1,0,0:0:0:0:
296,99,33504,6,0,P|329:48|378:38,1,112.500004291535
488,254,33793,2,0,L|411:157,1,112.500004291535
214,77,34081,2,0,B|229:245|33:170|73:372,1,337.500012874604
344,162,34658,6,0,P|350:229|214:286,1,225.000008583069
146,198,35091,1,0,0:0:0:0:
145,52,35235,6,0,P|208:30|292:152,1,225.000008583069
146,198,35668,1,0,0:0:0:0:
45,99,35812,6,0,P|22:129|23:207,1,112.500004291535
146,198,36100,2,0,P|150:235|204:287,1,112.500004291535
281,196,36389,2,0,P|322:227|388:221,2,112.500004291535
211,56,36966,1,4,0:2:0:0:
404,80,39274,6,0,P|406:140|346:169,1,112.500004291535,2|0,0:0|0:0,0:0:0:0:
233,226,39562,1,0,0:0:0:0:
257,63,39706,1,2,0:0:0:0:
314,220,39850,2,0,P|305:263|232:301,1,112.500004291535
187,154,40139,1,2,0:0:0:0:
330,92,40283,1,0,0:0:0:0:
98,279,40427,6,0,P|132:270|181:203,1,112.500004291535,0|2,0:0|0:0,0:0:0:0:
93,28,40716,2,0,P|59:37|19:113,1,112.500004291535
279,156,41004,2,0,P|206:78|107:118,1,225.000008583069,2|2,0:0|0:0,0:0:0:0:
205,303,41437,1,2,0:0:0:0:
193,322,41509,1,2,0:0:0:0:
179,340,41581,2,0,B|159:371|159:371|111:299,1,112.500004291535,2|0,0:0|0:0,0:0:0:0:
113,174,41870,5,0,0:0:0:0:
49,325,42014,1,2,0:0:0:0:
16,163,42158,1,0,0:0:0:0:
125,286,42302,1,0,0:0:0:0:
112,120,42447,5,2,0:0:0:0:
240,222,42591,1,0,0:0:0:0:
86,282,42735,2,0,P|107:229|200:190,1,112.500004291535,0|2,0:0|0:0,0:0:0:0:
341,363,43024,2,0,L|235:291,1,112.500004291535
248,10,43312,2,0,P|292:24|291:182,1,225.000008583069,2|2,0:0|0:0,0:0:0:0:
40,144,43745,5,2,0:0:0:0:
48,127,43817,1,2,0:0:0:0:
58,111,43889,5,2,0:0:0:0:
335,69,44033,1,0,0:0:0:0:
184,305,44177,1,0,0:0:0:0:
171,22,44322,1,0,0:0:0:0:
12,254,44466,1,0,0:0:0:0:
292,238,44610,1,0,0:0:0:0:
88,44,44754,1,0,0:0:0:0:
184,305,44899,1,0,0:0:0:0:
251,32,45043,1,0,0:0:0:0:
384,279,45187,1,0,0:0:0:0:
489,18,45331,5,0,0:0:0:0:
249,165,45475,1,0,0:0:0:0:
494,305,45620,1,0,0:0:0:0:
368,53,45764,1,0,0:0:0:0:
292,323,45908,1,0,0:0:0:0:
426,162,46052,1,0,0:0:0:0:
426,162,46125,1,0,0:0:0:0:
426,162,46197,1,0,0:0:0:0:
169,48,46341,5,0,0:0:0:0:
344,267,46485,1,0,0:0:0:0:
326,28,46629,1,0,0:0:0:0:
138,239,46774,1,0,0:0:0:0:
381,98,46918,1,0,0:0:0:0:
100,106,47062,1,0,0:0:0:0:
257,338,47206,1,0,0:0:0:0:
252,57,47350,1,0,0:0:0:0:
180,330,47495,1,0,0:0:0:0:
49,225,47639,6,0,P|73:209|105:203,1,44.999998626709
110,318,47927,6,0,P|82:331|46:328,1,67.4999979400635
175,253,48504,6,0,P|266:205|351:349,1,300,4|0,0:1|0:0,0:0:0:0:
245,356,48937,1,0,0:0:0:0:
256,59,49081,2,0,B|234:132|234:132|256:215,1,150
441,170,49370,2,0,L|350:41,1,150
256,273,49658,5,0,0:0:0:0:
474,291,49802,1,0,0:0:0:0:
327,125,49947,5,0,0:0:0:0:
310,344,50091,1,0,0:0:0:0:
474,291,50235,5,0,0:0:0:0:
327,125,50379,1,0,0:0:0:0:
351,221,50524,6,0,B|278:246|278:246|190:208,1,150
120,100,50812,6,0,P|147:53|326:136,1,300,4|0,0:1|0:0,0:0:0:0:
319,298,51245,1,0,0:0:0:0:
172,192,51389,1,2,0:0:0:0:
390,100,51533,1,0,0:0:0:0:
304,235,51677,6,0,P|250:287|169:217,1,150
51,264,51966,2,0,P|64:314|168:323,1,150
355,162,52254,5,0,0:0:0:0:
134,182,52399,1,0,0:0:0:0:
346,246,52543,5,0,0:0:0:0:
168,116,52687,1,0,0:0:0:0:
294,302,52831,2,0,B|386:346|386:346|283:342,1,150
222,281,53120,6,0,P|200:196|46:283,1,300,4|0,0:1|0:0,0:0:0:0:
263,365,53552,1,0,0:0:0:0:
297,300,53697,6,0,P|300:222|247:146,1,150
55,45,53985,2,0,L|216:130,1,150
27,338,54274,5,0,0:0:0:0:
217,229,54418,1,0,0:0:0:0:
19,260,54562,5,0,0:0:0:0:
288,271,54706,1,0,0:0:0:0:
27,338,54850,5,0,0:0:0:0:
272,162,54995,1,0,0:0:0:0:
105,172,55139,6,0,P|145:107|232:99,1,150
315,37,55427,6,0,B|331:142|391:209|391:209|411:158|377:94,1,300,4|0,0:1|0:0,0:0:0:0:
427,25,55860,1,0,0:0:0:0:
269,178,56004,6,0,B|296:240|296:240|290:334,1,150
117,272,56293,2,0,B|224:254|224:254|196:196,1,150
438,301,56581,6,0,P|403:238|323:244,1,150
143,344,56870,1,0,0:0:0:0:
391,364,57014,1,0,0:0:0:0:
211,147,57158,5,0,0:0:0:0:
308,358,57302,1,0,0:0:0:0:
328,107,57447,5,0,0:0:0:0:
330,146,57519,1,0,0:0:0:0:
318,184,57591,1,0,0:0:0:0:
292,214,57663,1,0,0:0:0:0:
256,232,57735,6,0,P|165:237|140:65,1,300,4|0,0:1|0:0,0:0:0:0:
211,147,58168,1,0,0:0:0:0:
194,338,58312,6,0,B|120:352|120:352|35:328,1,150
31,109,58600,2,0,L|37:277,1,150
92,37,58889,5,0,0:0:0:0:
143,224,59033,1,0,0:0:0:0:
36,182,59177,5,0,0:0:0:0:
222,121,59322,1,0,0:0:0:0:
108,117,59466,5,0,0:0:0:0:
259,239,59610,1,0,0:0:0:0:
143,224,59754,6,0,B|181:241|186:287|186:287|217:278|205:217,1,150
190,35,60043,6,0,B|291:18|386:49|386:49|338:83|249:58,1,300,4|0,0:1|0:0,0:0:0:0:
478,109,60475,1,0,0:0:0:0:
462,138,60548,1,0,0:0:0:0:
439,164,60620,2,0,P|410:187|277:166,1,150
391,358,60908,2,0,B|398:304|384:250|384:250|436:295,1,150
226,328,61197,5,0,0:0:0:0:
469,229,61341,1,0,0:0:0:0:
275,251,61485,5,0,0:0:0:0:
496,339,61629,1,0,0:0:0:0:
417,159,61774,5,0,0:0:0:0:
316,325,61918,1,0,0:0:0:0:
248,142,62062,6,0,B|203:146|176:127|176:127|197:153|199:202,1,150
42,350,62350,6,0,B|17:229|56:137|56:137|76:237,1,300,4|0,0:1|0:0,0:0:0:0:
117,351,62783,1,0,0:0:0:0:
143,158,62927,2,0,L|110:4,1,150
0,123,63216,2,0,L|191:75,1,150
204,334,63504,5,0,0:0:0:0:
252,82,63649,1,0,0:0:0:0:
65,255,63793,5,0,0:0:0:0:
309,324,63937,1,0,0:0:0:0:
252,82,64081,5,0,0:0:0:0:
19,185,64225,1,0,0:0:0:0:
274,170,64370,6,0,B|326:238|326:238|383:161,1,150
420,53,64658,6,0,P|493:102|406:272,1,300,4|0,0:1|0:0,0:0:0:0:
329,79,65091,1,0,0:0:0:0:
491,100,65235,6,0,P|507:186|326:244,1,300
329,79,65668,1,0,0:0:0:0:
509,182,65812,6,0,P|459:254|289:168,1,300
329,79,66245,1,0,0:0:0:0:
217,238,66389,5,0,0:0:0:0:
394,158,66533,1,0,0:0:0:0:
255,119,66677,5,0,0:0:0:0:
204,135,66750,1,0,0:0:0:0:
161,166,66822,1,0,0:0:0:0:
137,212,66894,1,0,0:0:0:0:
126,263,66966,1,0,0:0:0:0:
267,295,67254,5,0,0:0:0:0:
267,295,67399,2,0,L|213:353,1,75
355,214,67831,1,0,0:0:0:0:
355,214,67975,1,0,0:0:0:0:
355,214,68120,2,0,L|406:289,1,75
405,109,68408,2,0,L|486:137,1,75
266,63,68697,6,0,L|185:35,1,75
65,134,68985,2,0,B|149:112|136:179|221:152,1,150
38,358,70139,6,0,P|37:309|61:266,1,75
143,294,70427,2,0,P|155:258|152:221,1,75
55,206,70716,2,0,P|54:157|78:114,1,75
179,22,71004,5,0,0:0:0:0:
126,172,71149,1,0,0:0:0:0:
253,241,71293,2,0,L|297:148,1,75
349,30,71581,6,0,P|407:48|417:153,1,150
285,173,72014,2,0,L|397:292,1,150
235,282,72447,2,0,B|147:348|114:253|21:335,1,225
71,172,73024,2,0,L|177:159,1,75
248,75,73312,2,0,L|158:85,1,75
308,160,73600,1,0,0:0:0:0:
308,160,73745,2,0,P|357:202|275:335,1,225
440,59,76197,6,0,P|366:52|286:119,1,150
399,164,76629,2,0,B|400:242|400:242|332:324,1,150
267,231,77062,1,0,0:0:0:0:
267,231,77206,2,0,P|238:295|149:285,1,150
109,99,77639,2,0,L|142:172,1,75
227,75,77927,2,0,B|85:28|85:28|111:104,1,225
321,115,78504,6,0,B|393:142|393:142|433:221,1,150
234,204,78937,2,0,P|251:278|191:333,1,150
21,296,79370,2,0,B|168:262|168:262|80:237,1,225
126,104,79947,6,0,L|217:130,1,75
224,30,80235,2,0,L|284:92,1,75
344,13,80524,2,0,L|357:98,1,75
477,218,80812,6,0,B|465:258|484:307|484:307|436:288|395:317,1,150
327,295,81245,2,0,B|306:252|307:195|307:195|341:222|347:260,1,150
220,119,81677,2,0,P|107:112|70:208,1,225
304,192,82254,6,0,P|327:157|328:100,1,75
198,36,82543,2,0,P|214:93|259:131,1,112.5
307,49,82831,2,0,L|214:40,1,75
256,192,83120,12,0,84418,0:0:0:0:
199,70,85427,6,0,P|153:90|131:184,1,112.500004291535
275,192,85716,1,0,0:0:0:0:
272,34,85860,1,0,0:0:0:0:
199,173,86004,1,0,0:0:0:0:
275,109,86149,1,0,0:0:0:0:
178,258,86293,5,0,0:0:0:0:
365,182,86437,1,0,0:0:0:0:
286,276,86581,2,0,L|174:343,1,112.500004291535
440,308,86870,2,0,P|467:256|429:191,1,112.500004291535
310,128,87158,2,0,B|221:297|98:77|16:303,1,337.500012874604
88,50,87735,6,0,P|146:54|192:121,1,112.500004291535
112,277,88024,1,0,0:0:0:0:
75,155,88168,1,0,0:0:0:0:
49,336,88312,5,0,0:0:0:0:
240,198,88456,1,0,0:0:0:0:
137,200,88600,5,0,0:0:0:0:
325,344,88745,1,0,0:0:0:0:
187,305,88889,6,0,P|235:275|292:287,1,112.500004291535
374,143,89177,2,0,P|323:117|254:141,1,112.500004291535
89,114,89466,2,0,P|242:53|379:153,1,337.500012874604
26,220,90043,6,0,P|118:280|226:186,1,225.000008583069
51,71,90475,1,0,0:0:0:0:
85,274,90620,6,0,P|192:251|202:108,1,225.000008583069
51,71,91052,1,0,0:0:0:0:
177,87,91197,6,0,P|227:153|204:220,1,112.500004291535
93,185,91485,2,0,L|187:288,1,112.500004291535
262,358,91774,2,0,P|301:318|300:248,2,112.500004291535
305,134,92350,1,4,0:2:0:0:
375,42,94658,6,0,P|407:77|401:179,1,112.500004291535,2|0,0:0|0:0,0:0:0:0:
271,225,94947,1,0,0:0:0:0:
291,57,95091,1,2,0:0:0:0:
353,213,95235,1,0,0:0:0:0:
184,202,95379,1,0,0:0:0:0:
335,126,95524,5,2,0:0:0:0:
189,40,95668,1,0,0:0:0:0:
184,202,95812,2,0,P|191:260|256:297,1,112.500004291535,0|2,0:0|0:0,0:0:0:0:
434,299,96100,2,0,L|306:295,1,112.500004291535
48,258,96389,2,0,P|110:261|32:328,1,225.000008583069,2|0,0:0|0:0,0:0:0:0:
20,129,96822,5,2,0:0:0:0:
41,99,96894,1,2,0:0:0:0:
63,74,96966,2,0,P|109:38|193:43,1,112.500004291535,2|0,0:0|0:0,0:0:0:0:
178,219,97254,1,0,0:0:0:0:
274,39,97399,1,2,0:0:0:0:
284,240,97543,1,0,0:0:0:0:
133,104,97687,1,0,0:0:0:0:
158,327,97831,5,2,0:0:0:0:
287,143,97975,1,0,0:0:0:0:
200,172,98120,6,0,P|201:113|278:62,1,112.500004291535,0|2,0:0|0:0,0:0:0:0:
366,166,98408,2,0,P|365:107|288:56,1,112.500004291535
287,143,98697,2,0,B|259:216|296:287|296:287|317:242|306:171,1,225.000008583069,2|2,0:0|0:0,0:0:0:0:
247,23,99129,5,0,0:0:0:0:
247,23,99201,1,0,0:0:0:0:
247,23,99274,5,0,0:0:0:0:
86,253,99418,1,0,0:0:0:0:
251,98,99562,1,0,0:0:0:0:
421,321,99706,1,0,0:0:0:0:
178,242,99850,1,0,0:0:0:0:
373,37,99995,1,0,0:0:0:0:
349,316,100139,1,0,0:0:0:0:
172,97,100283,1,0,0:0:0:0:
48,349,100427,5,0,0:0:0:0:
302,226,100572,1,0,0:0:0:0:
27,165,100716,1,0,0:0:0:0:
277,39,100860,1,0,0:0:0:0:
200,309,101004,1,0,0:0:0:0:
97,29,101149,1,0,0:0:0:0:
356,136,101293,1,0,0:0:0:0:
86,215,101437,5,0,0:0:0:0:
86,215,101509,1,0,0:0:0:0:
86,215,101581,1,0,0:0:0:0:
338,338,101725,5,0,0:0:0:0:
186,99,101870,1,0,0:0:0:0:
432,232,102014,1,0,0:0:0:0:
156,178,102158,1,0,0:0:0:0:
434,145,102302,1,0,0:0:0:0:
175,258,102447,1,0,0:0:0:0:
317,16,102591,1,0,0:0:0:0:
440,267,102735,1,0,0:0:0:0:
247,62,102879,1,0,0:0:0:0:
241,166,103024,6,0,P|261:183|274:212,1,44.999998626709,0|0,2:0|2:0,2:0:0:0:
174,257,103312,6,0,P|148:237|132:208,1,67.4999979400635,2|0,2:3|2:0,2:0:0:0:
182,26,103889,6,0,B|263:90|255:213|255:213|211:176|191:132,1,300,4|0,0:1|0:0,0:0:0:0:
37,29,104322,1,0,0:0:0:0:
269,16,104466,2,0,P|318:19|393:117,1,150
308,117,104754,2,0,B|322:172|380:203|380:203|318:201,1,150
156,150,105043,5,0,0:0:0:0:
334,309,105187,1,0,0:0:0:0:
94,312,105331,5,0,0:0:0:0:
294,180,105475,1,0,0:0:0:0:
52,180,105620,5,0,0:0:0:0:
216,354,105764,1,0,0:0:0:0:
249,116,105908,6,0,B|251:91|272:74|272:74|283:132|226:167,1,150
112,222,106197,6,0,B|251:261|251:261|421:208,1,300
183,318,106629,1,0,0:0:0:0:
276,95,106774,2,0,P|332:129|343:227,1,150
146,76,107062,2,0,P|216:117|302:34,1,150
436,22,107350,5,0,0:0:0:0:
377,256,107495,1,0,0:0:0:0:
302,28,107639,5,0,0:0:0:0:
480,184,107783,1,0,0:0:0:0:
218,198,107927,5,0,0:0:0:0:
226,210,108000,1,0,0:0:0:0:
236,220,108072,1,0,0:0:0:0:
248,228,108144,1,0,0:0:0:0:
260,233,108216,6,0,B|293:242|318:288|318:288|345:234|424:249,1,150
204,333,108504,6,0,P|134:318|216:185,1,300,4|0,0:1|0:0,0:0:0:0:
365,352,108937,1,0,0:0:0:0:
352,127,109081,2,0,P|323:74|210:90,1,150
261,289,109370,2,0,L|277:104,1,150
432,298,109658,5,0,0:0:0:0:
460,75,109802,1,0,0:0:0:0:
330,260,109947,5,0,0:0:0:0:
203,74,110091,1,0,0:0:0:0:
417,140,110235,5,0,0:0:0:0:
192,153,110379,1,0,0:0:0:0:
320,69,110524,6,0,B|319:144|319:144|253:206,1,150
80,247,110812,6,0,B|288:269|288:269|156:302,1,300,4|0,0:1|0:0,0:0:0:0:
13,354,111245,1,0,0:0:0:0:
19,129,111389,2,0,P|71:145|112:242,1,150
291,88,111677,2,0,P|316:136|276:233,1,150
145,48,111966,5,0,0:0:0:0:
115,300,112110,1,0,0:0:0:0:
67,49,112254,5,0,0:0:0:0:
206,264,112399,1,0,0:0:0:0:
26,124,112543,5,0,0:0:0:0:
39,130,112615,1,0,0:0:0:0:
53,134,112687,1,0,0:0:0:0:
67,137,112759,1,0,0:0:0:0:
81,139,112831,6,0,B|153:117|153:117|241:170,1,150
26,26,113120,6,0,B|100:57|172:26|172:26|255:73|255:73|168:88,1,300
440,67,113552,1,0,0:0:0:0:
284,119,113697,2,0,P|303:181|249:262,1,150
90,181,113985,2,0,P|65:231|107:338,1,150
328,318,114274,5,0,0:0:0:0:
165,142,114418,1,0,0:0:0:0:
404,141,114562,5,0,0:0:0:0:
207,278,114706,1,0,0:0:0:0:
444,308,114850,5,0,0:0:0:0:
283,127,114995,1,0,0:0:0:0:
159,332,115139,6,0,P|204:353|276:269,1,150
153,91,115427,6,0,B|203:168|203:275|203:275|208:212|281:123,1,300
411,347,115860,1,0,0:0:0:0:
422,107,116004,2,0,P|416:187|343:237,1,150
303,22,116293,2,0,P|262:66|302:162,1,150
488,27,116581,5,0,0:0:0:0:
458,264,116725,1,0,0:0:0:0:
463,22,116870,5,0,0:0:0:0:
296,194,117014,1,0,0:0:0:0:
488,27,117158,5,0,0:0:0:0:
484,41,117230,1,0,0:0:0:0:
479,55,117302,1,0,0:0:0:0:
472,68,117375,1,0,0:0:0:0:
462,79,117447,6,0,B|427:108|428:162|428:162|358:135,1,150
158,38,117735,6,0,B|365:58|365:58|277:85,1,300
41,138,118168,1,0,0:0:0:0:
199,104,118312,2,0,P|199:180|286:233,1,150
10,232,118600,2,0,P|71:304|166:310,1,150
360,283,118889,5,0,0:0:0:0:
127,223,119033,1,0,0:0:0:0:
349,132,119177,5,0,0:0:0:0:
204,324,119322,1,0,0:0:0:0:
216,84,119466,5,0,0:0:0:0:
360,283,119610,1,0,0:0:0:0:
127,223,119754,6,0,B|211:167|211:167|161:244,1,150
280,281,120043,6,0,B|367:147|367:147|327:-17,1,300
127,133,120475,1,0,0:0:0:0:
368,133,120620,2,0,B|464:133|464:133|381:178,1,150
175,158,120908,2,0,B|79:158|79:158|162:113,1,150
350,43,121197,5,0,0:0:0:0:
154,228,121341,1,0,0:0:0:0:
444,156,121485,5,0,0:0:0:0:
128,59,121629,1,0,0:0:0:0:
488,25,121774,5,0,0:0:0:0:
211,299,121918,1,0,0:0:0:0:
284,18,122062,5,0,0:0:0:0:
478,355,122206,1,0,0:0:0:0:
271,201,122350,6,0,P|193:136|104:200,1,225
188,279,124658,6,0,B|295:331|276:189|399:261,1,225
348,334,126966,6,0,P|247:365|130:331,1,225
43,250,129274,6,0,B|132:107|284:287|354:130,1,360
