osu file format v14

[General]
AudioFilename: audio.mp3
AudioLeadIn: 0
PreviewTime: 39269
Countdown: 1
SampleSet: Soft
StackLeniency: 0.7
Mode: 0
LetterboxInBreaks: 0
WidescreenStoryboard: 1

[Editor]
Bookmarks: 2352,10429,11583,20814,30044,34660,39275,41583,43891,46198,48506,52827,64660,66968,68404,68693,68837,76198,78506,80814,84564,85429,87737,90044,94660,96968,99275,101583,103891,122352
DistanceSpacing: 1
BeatDivisor: 4
GridSize: 8
TimelineZoom: 1.9

[Metadata]
Title:Hold ft. Jessica Jarrell (Candyland Remix)
TitleUnicode:Hold ft. Jessica Jarrell (Candyland Remix)
Artist:Elephante
ArtistUnicode:Elephante
Creator:Kefan
Version:Collab
Source:
Tags:
BeatmapID:1362636
BeatmapSetID:642742

[Difficulty]
HPDrainRate:6
CircleSize:4
OverallDifficulty:9
ApproachRate:9.5
SliderMultiplier:1.8
SliderTickRate:1

[Events]
//Background and Video events
0,0,"maxresdefault.jpg",0,0
//Break Periods
2,38033,38750
2,92549,94133
//Storyboard Layer 0 (Background)
//Storyboard Layer 1 (Fail)
//Storyboard Layer 2 (Pass)
//Storyboard Layer 3 (Foreground)
//Storyboard Sound Samples

[TimingPoints]
45,288.461538461538,4,2,0,100,1,0
2352,-200,4,2,0,20,0,0
11583,-100,4,2,0,50,0,0
13891,576.923076923077,4,2,0,50,1,0
13891,-133.333333333333,4,2,0,50,0,0
14467,288.461538461538,4,2,0,50,1,0
14467,-100,4,2,0,50,0,0
15043,288.461538461538,4,2,0,50,1,0
18505,576.923076923077,4,2,0,50,1,0
18605,-133.333333333333,4,2,0,50,0,0
19081,288.461538461538,4,2,0,50,1,0
19081,-100,4,2,0,50,0,0
19657,288.461538461538,4,2,0,50,1,0
23118,576.923076923077,4,2,0,50,1,0
23118,-133.333333333333,4,2,0,50,0,0
23694,288.461538461538,4,2,0,50,1,0
23694,-100,4,2,0,50,0,0
24275,288.461538461538,4,2,0,50,1,0
29467,-200,4,2,0,50,0,0
30044,-100,4,2,0,50,0,0
31774,-133.333333333333,4,2,0,50,0,0
32063,-100,4,2,0,50,0,0
36890,-133.333333333333,4,2,0,50,0,0
37755,-100,4,2,0,50,0,0
48500,-76.9230769230769,4,2,0,50,0,0
66962,-100,4,2,0,50,0,0
69269,576.923076923077,4,2,0,50,1,0
69269,-133.333333333333,4,2,0,50,0,0
69851,288.461538461538,4,2,0,50,1,0
70427,288.461538461538,4,2,0,50,1,0
71539,-200,4,2,0,50,0,0
71936,-133.333333333333,4,2,0,50,0,0
72296,-100,4,2,0,50,0,0
72801,-100,4,2,0,50,0,0
74171,-117.647058823529,4,2,0,50,0,0
74748,-142.857142857143,4,2,0,50,0,0
75109,-181.818181818182,4,2,0,50,0,0
75542,-100,4,2,0,50,0,0
80812,-200,4,2,0,50,0,0
81245,-133.333333333333,4,2,0,50,0,0
81677,-100,4,2,0,50,0,0
84562,-200,4,2,0,50,0,0
84850,-133.333333333333,4,2,0,50,0,0
85139,-100,4,2,0,50,0,0
87158,-200,4,2,0,50,0,0
87735,-100,4,2,0,50,0,0
89466,-200,4,2,0,50,0,0
90043,-100,4,2,0,50,0,0
94658,-100,4,2,0,50,0,0
103312,-200,4,2,0,50,0,0
103816,-100,4,2,0,50,0,0
104321,-200,4,2,0,50,0,0
104754,-100,4,2,0,50,0,0
106629,-200,4,2,0,50,0,0
107062,-100,4,2,0,50,0,0
108937,-200,4,2,0,50,0,0
109369,-100,4,2,0,50,0,0
111388,-200,4,2,0,50,0,0
111677,-100,4,2,0,50,0,0
113696,-200,4,2,0,50,0,0
113985,-100,4,2,0,50,0,0
116004,-200,4,2,0,50,0,0
116292,-100,4,2,0,50,0,0
118311,-200,4,2,0,50,0,0
118600,-100,4,2,0,50,0,0
120619,-200,4,2,0,50,0,0
120907,-100,4,2,0,50,0,0
122350,-200,4,2,0,50,0,0
133311,-200,4,2,0,5,0,0

[HitObjects]
120,104,2352,6,0,B|216:56|293:97|293:97|150:206|150:206|272:160|324:184|324:184|368:160|384:112,1,630
360,40,4660,6,0,B|304:24|200:104|200:104|160:24|160:24|120:144|80:202|80:202|192:176|256:176,1,630
224,288,6968,6,0,B|248:319|360:328|384:224|384:224|328:176|328:176|392:96|472:96|472:96|528:208|456:280,1,630
428,176,9275,6,0,B|324:216|180:104|180:104|96:192|16:160,1,450
88,320,11006,6,0,L|72:328,4,11.25
96,192,11294,6,0,L|80:184,4,11.25
192,248,11583,6,0,B|232:280|232:280|248:224|288:240,1,90
296,152,11871,1,0,0:0:0:0:
296,152,12016,2,0,P|248:112|184:112,1,90
96,192,12304,1,0,0:0:0:0:
208,200,12448,1,0,0:0:0:0:
64,80,12593,1,0,0:0:0:0:
16,280,12737,6,0,L|128:320,1,90
123,230,13025,2,0,L|235:190,1,90
368,144,13314,1,0,0:0:0:0:
334,307,13458,2,0,P|252:274|207:198,1,180
320,64,13891,6,0,L|320:160,1,67.5000025749208
392,224,14467,6,0,L|392:336,1,90
288,192,14755,1,0,0:0:0:0:
192,88,14899,1,0,0:0:0:0:
88,216,15043,2,0,P|136:240|192:240,1,90
264,328,15331,2,0,P|216:352|160:352,1,90
232,168,15619,1,0,0:0:0:0:
88,216,15764,2,0,P|80:136|184:32,1,225
184,56,16196,6,0,L|303:66,1,90
448,200,16629,6,0,L|328:210,1,90
168,320,17062,6,0,L|287:330,1,90
480,344,17494,6,0,B|472:288|496:248|496:248|472:224|464:192|480:144,1,180
424,32,17927,2,0,P|376:51|348:93,1,90
384,256,18216,1,0,0:0:0:0:
240,160,18360,1,0,0:0:0:0:
256,328,18505,6,0,L|160:328,1,90
22,256,19081,2,0,L|112:256,1,90
240,160,19369,1,0,0:0:0:0:
240,160,19945,5,0,0:0:0:0:
392,8,20233,2,0,P|440:40|464:168,1,180
424,296,20810,5,0,0:0:0:0:
424,296,21099,5,0,0:0:0:0:
312,256,21243,2,0,L|224:224,1,90
227,225,21676,5,0,0:0:0:0:
328,104,21820,1,0,0:0:0:0:
224,320,21964,2,0,L|136:288,1,90
324,179,22253,2,0,L|408:209,1,90
168,128,22541,1,0,0:0:0:0:
288,264,22685,1,0,0:0:0:0:
160,224,22830,1,0,0:0:0:0:
131,230,22902,1,0,0:0:0:0:
120,256,22974,1,0,0:0:0:0:
136,281,23046,1,0,0:0:0:0:
160,296,23118,6,0,L|248:296,1,67.5000025749208
378,224,23694,2,0,L|288:224,1,90
192,224,23982,6,0,P|184:280|200:352,1,90
320,120,24275,6,0,P|328:64|312:-8,1,90
192,96,24564,1,0,0:0:0:0:
328,216,24708,1,0,0:0:0:0:
128,232,24852,1,0,0:0:0:0:
304,96,24996,1,0,0:0:0:0:
248,192,25141,1,0,0:0:0:0:
230,211,25213,1,0,0:0:0:0:
236,236,25285,1,0,0:0:0:0:
261,244,25357,1,0,0:0:0:0:
288,240,25429,6,0,L|384:208,1,90
168,104,25862,6,0,L|72:72,1,90
336,40,26294,6,0,L|432:8,1,90
458,183,26727,6,0,L|287:239,1,180
112,208,27160,2,0,P|104:264|144:312,1,90
272,344,27448,1,0,0:0:0:0:
216,152,27593,2,0,L|320:112,1,90
300,119,28169,5,0,0:0:0:0:
392,296,28314,1,0,0:0:0:0:
140,71,28602,5,0,0:0:0:0:
188,247,28891,5,0,0:0:0:0:
300,119,29179,5,0,0:0:0:0:
85,186,29467,6,0,L|96:192,4,11.25
77,325,29755,6,0,L|88:320,4,11.25
192,256,30044,6,0,P|256:256|312:224,1,90
408,128,30333,1,0,0:0:0:0:
224,136,30477,1,0,0:0:0:0:
360,328,30621,2,0,P|392:272|392:208,1,90,0|0,0:0|0:0,0:0:0:0:
320,56,30910,1,0,0:0:0:0:
280,248,31054,1,0,0:0:0:0:
144,80,31198,2,0,L|72:152,1,90
304,136,31487,2,0,L|376:208,1,90
286,329,31775,2,0,B|244:305|244:305|200:256|200:256|144:224,1,135
288,328,32352,6,0,P|344:288|352:256,1,90
294,142,32641,1,0,0:0:0:0:
502,126,32785,1,0,0:0:0:0:
350,270,32929,1,0,0:0:0:0:
262,54,33073,1,0,0:0:0:0:
454,70,33218,1,0,0:0:0:0:
272,208,33362,1,0,0:0:0:0:
174,75,33506,6,0,L|270:51,1,90
368,152,33794,2,0,L|272:128,1,90
184,192,34083,2,0,B|232:227|232:227|360:259,1,180
136,296,34660,6,0,L|88:104,1,180
272,200,35093,1,0,0:0:0:0:
272,200,35237,2,0,L|224:8,1,180
408,264,35669,1,0,0:0:0:0:
408,264,35814,2,0,L|360:72,1,180
364,89,36391,1,0,0:0:0:0:
364,89,36968,6,0,B|224:88|224:88|176:40,2,202.500007724762
368,88,39275,6,0,L|336:192,1,90
264,344,39564,1,0,0:0:0:0:
232,144,39708,1,0,0:0:0:0:
368,296,39852,2,0,L|272:256,1,90
104,200,40141,1,0,0:0:0:0:
232,144,40285,1,0,0:0:0:0:
201,290,40429,6,0,P|265:274|297:250,1,90
176,112,40718,2,0,P|192:176|216:208,1,90
352,96,41006,2,0,P|288:112|256:136,1,90
376,272,41294,2,0,P|360:208|336:176,1,90
347,188,41511,1,0,0:0:0:0:
347,188,41583,6,0,L|248:160,1,90
64,120,41871,1,0,0:0:0:0:
168,256,42016,1,0,0:0:0:0:
232,56,42160,2,0,L|318:80,1,90
488,128,42448,1,0,0:0:0:0:
260,163,42593,1,0,0:0:0:0:
416,256,42737,6,0,P|376:296|336:312,1,90
160,112,43025,2,0,P|190:78|229:58,1,90
192,304,43314,2,0,P|158:273|138:234,1,90
352,80,43602,2,0,P|385:110|405:149,1,90
405,149,43819,1,0,0:0:0:0:
405,149,43891,5,0,0:0:0:0:
224,224,44035,1,0,0:0:0:0:
256,80,44179,1,0,0:0:0:0:
336,232,44323,1,0,0:0:0:0:
104,176,44468,5,0,0:0:0:0:
288,128,44612,1,0,0:0:0:0:
112,64,44756,1,0,0:0:0:0:
232,176,44900,1,0,0:0:0:0:
64,248,45044,5,0,0:0:0:0:
184,88,45189,1,0,0:0:0:0:
200,264,45333,1,0,0:0:0:0:
104,176,45477,1,0,0:0:0:0:
336,128,45621,5,0,0:0:0:0:
176,208,45766,1,0,0:0:0:0:
160,88,45910,1,0,0:0:0:0:
312,208,46054,1,0,0:0:0:0:
320,216,46126,1,0,0:0:0:0:
320,216,46198,5,0,0:0:0:0:
56,200,46343,1,0,0:0:0:0:
304,104,46487,1,0,0:0:0:0:
192,224,46631,1,0,0:0:0:0:
264,24,46775,5,0,0:0:0:0:
296,256,46919,1,0,0:0:0:0:
168,144,47064,1,0,0:0:0:0:
344,184,47208,1,0,0:0:0:0:
344,184,47280,1,0,0:0:0:0:
344,184,47352,5,0,0:0:0:0:
144,224,47496,1,0,0:0:0:0:
336,72,47641,1,0,0:0:0:0:
328,288,47785,1,0,0:0:0:0:
168,88,47929,5,0,0:0:0:0:
96,16,48506,6,0,P|88:176|144:264,1,233.999989288331
328,288,48939,1,0,0:0:0:0:
280,88,49083,2,0,L|152:112,1,116.999994644165
400,240,49371,2,0,P|456:202|476:140,1,116.999994644165
200,16,49660,5,0,0:0:0:0:
264,216,49804,1,0,0:0:0:0:
392,40,49948,1,0,0:0:0:0:
176,112,50093,1,0,0:0:0:0:
352,176,50237,5,0,0:0:0:0:
168,224,50381,1,0,0:0:0:0:
272,80,50525,1,0,0:0:0:0:
256,288,50669,1,0,0:0:0:0:
102,50,50814,6,0,P|182:18|334:26,1,233.999989288331
488,160,51246,1,0,0:0:0:0:
240,136,51391,2,0,P|160:144|112:168,1,116.999994644165
288,280,51679,2,0,L|432:256,1,116.999994644165
504,96,51968,5,0,0:0:0:0:
328,200,52112,1,0,0:0:0:0:
480,240,52256,1,0,0:0:0:0:
360,80,52400,1,0,0:0:0:0:
256,272,52544,5,0,0:0:0:0:
296,136,52689,1,0,0:0:0:0:
400,248,52833,1,0,0:0:0:0:
440,112,52977,1,0,0:0:0:0:
272,48,53121,6,0,B|216:72|216:72|88:240,1,233.999989288331
352,216,53554,1,0,0:0:0:0:
112,48,53698,2,0,L|33:149,1,116.999994644165
120,328,53987,2,0,P|184:304|208:240,1,116.999994644165
280,56,54275,5,0,0:0:0:0:
160,192,54419,1,0,0:0:0:0:
368,192,54564,1,0,0:0:0:0:
144,80,54708,1,0,0:0:0:0:
400,56,54852,5,0,0:0:0:0:
240,224,54996,1,0,0:0:0:0:
424,272,55141,1,0,0:0:0:0:
224,120,55285,1,0,0:0:0:0:
192,383,55429,6,0,P|288:383|408:319,1,233.999989288331
296,56,55862,1,0,0:0:0:0:
456,192,56006,2,0,P|408:240|344:240,1,116.999994644165
112,176,56294,2,0,L|232:152,1,116.999994644165
456,88,56583,5,0,0:0:0:0:
184,232,56727,1,0,0:0:0:0:
248,0,56871,1,0,0:0:0:0:
336,208,57016,1,0,0:0:0:0:
160,0,57160,5,0,0:0:0:0:
282,127,57304,1,0,0:0:0:0:
24,120,57448,1,0,0:0:0:0:
1,144,57520,1,0,0:0:0:0:
9,176,57593,1,0,0:0:0:0:
40,186,57665,1,0,0:0:0:0:
63,191,57737,6,0,B|151:223|247:95|327:135,1,233.999989288331
440,240,58169,1,0,0:0:0:0:
243,235,58313,2,0,P|273:185|283:123,1,116.999994644165
448,32,58602,2,0,P|390:41|341:72,1,116.999994644165
216,64,58891,5,0,0:0:0:0:
400,216,59035,1,0,0:0:0:0:
152,144,59179,5,0,0:0:0:0:
304,296,59323,1,0,0:0:0:0:
288,112,59468,5,0,0:0:0:0:
144,312,59612,1,0,0:0:0:0:
128,120,59756,5,0,0:0:0:0:
288,328,59900,1,0,0:0:0:0:
374,110,60044,6,0,L|278:350,1,233.999989288331
176,40,60477,1,0,0:0:0:0:
96,207,60621,2,0,P|61:254|36:307,1,116.999994644165
160,104,60909,2,0,P|206:69|259:44,1,116.999994644165
280,224,61198,5,0,0:0:0:0:
432,74,61342,1,0,0:0:0:0:
448,224,61487,1,0,0:0:0:0:
248,128,61631,1,0,0:0:0:0:
416,120,61775,5,0,0:0:0:0:
224,288,61919,1,0,0:0:0:0:
360,272,62064,5,0,0:0:0:0:
208,176,62208,1,0,0:0:0:0:
369,27,62352,6,0,P|417:83|473:243,1,233.999989288331
360,360,62785,1,0,0:0:0:0:
185,255,62929,2,0,P|158:201|155:144,1,116.999994644165
289,108,63218,2,0,P|337:44|385:20,1,116.999994644165
352,208,63506,5,0,0:0:0:0:
200,56,63650,1,0,0:0:0:0:
376,120,63794,1,0,0:0:0:0:
256,224,63939,1,0,0:0:0:0:
248,32,64083,5,0,0:0:0:0:
352,208,64227,1,0,0:0:0:0:
184,104,64371,1,0,0:0:0:0:
256,224,64516,1,0,0:0:0:0:
467,93,64660,6,0,P|363:41|248:32,1,233.999989288331
8,48,65093,1,0,0:0:0:0:
96,216,65237,2,0,L|224:240,1,116.999994644165
368,240,65525,1,0,0:0:0:0:
136,80,65669,1,0,0:0:0:0:
208,240,65814,6,0,P|280:192|296:144,1,116.999994644165
200,152,66102,2,0,P|128:200|112:248,1,116.999994644165
280,304,66391,2,0,P|352:256|368:208,1,116.999994644165
400,144,66679,1,0,0:0:0:0:
408,118,66751,1,0,0:0:0:0:
405,92,66823,1,0,0:0:0:0:
393,68,66895,1,0,0:0:0:0:
371,49,66968,2,0,B|320:40|252:49,1,90
136,80,67256,5,0,0:0:0:0:
176,192,67400,2,0,P|208:224|245:177,1,90,0|0,0:3|0:3,0:3:0:0:
192,16,67689,1,0,0:0:0:0:
312,72,67833,2,0,P|388:79|432:48,1,90
456,152,68121,6,0,B|469:205|469:205|415:258,1,90
376,176,68410,2,0,B|339:212|339:212|355:276,1,90
448,328,68698,1,0,0:0:0:0:
336,336,68843,2,0,B|248:353|248:353|160:336,1,180
200,256,69269,6,0,L|43:227,1,135.000005149842
64,152,70139,6,0,L|152:168,1,90
200,256,70427,6,0,L|288:272,1,90
384,344,70716,1,0,0:0:0:0:
488,304,70860,1,0,0:0:0:0:
280,200,71004,1,0,0:0:0:0:
443,170,71149,2,0,P|414:120|392:199,1,180
392,328,71581,6,0,P|360:300|340:256,1,90
376,340,72014,2,0,P|322:292|288:218,1,135.000005149842
352,360,72447,2,0,P|282:298|238:202,1,180
232,72,72879,1,0,0:0:0:0:
376,152,73024,2,0,L|264:128,1,90
243,222,73312,2,0,P|203:242|122:249,1,90
96,128,73601,1,0,0:0:0:0:
282,293,73745,2,0,P|344:263|426:167,1,180
328,152,74322,6,0,P|296:184|192:256,1,153.000002918243
269,152,74754,2,0,P|242:178|157:238,1,125.999996154785
218,160,75187,2,0,P|197:181|131:227,1,99.0000030212403
168,136,75620,2,0,P|120:168|80:96,1,157.5
160,56,76052,1,0,0:0:0:0:
272,144,76197,6,0,P|344:160|264:192,1,180
272,144,76628,6,0,P|222:198|234:113,1,180
272,144,77061,6,0,P|249:73|317:126,1,180
256,312,77495,6,0,L|144:312,1,90
256,216,77783,1,0,0:0:0:0:
144,200,77927,2,0,L|48:176,1,90
120,96,78216,2,0,L|8:32,1,90
224,120,78504,6,0,B|297:66|297:66|388:56,1,180
464,96,78937,2,0,B|473:186|473:186|436:269,1,180
352,312,79370,2,0,B|268:275|268:275|215:201,1,180
88,96,79802,1,0,0:0:0:0:
200,72,79947,2,0,L|264:144,1,90
304,64,80235,2,0,L|408:104,1,90
392,8,80524,2,0,L|504:8,1,90
448,272,80812,6,0,P|408:264|360:240,1,90
408,232,81245,2,0,P|348:243|278:279,1,135.000005149842
368,280,81677,2,0,P|274:261|161:205,1,180
104,176,82110,1,0,0:0:0:0:
176,128,82254,2,0,L|264:112,1,90
400,152,82543,2,0,L|312:168,1,90
200,208,82831,1,0,0:0:0:0:
256,192,82975,12,0,84274,0:0:0:0:
264,166,84562,6,0,P|273:131|293:121,1,45
276,176,84850,2,0,P|320:188|333:213,1,67.5000025749208
248,176,85139,2,0,P|175:197|154:239,1,90
112,104,85427,2,0,P|176:88|208:88,1,90
360,104,85716,1,0,0:0:0:0:
224,216,85860,1,0,0:0:0:0:
272,32,86004,1,0,0:0:0:0:
124,192,86149,1,0,0:0:0:0:
112,104,86293,6,0,P|112:136|128:200,1,90
1,265,86581,2,0,P|33:265|97:249,1,90
169,377,86870,2,0,P|169:345|153:281,1,90
288,208,87158,6,0,P|256:208|192:224,1,90
199,220,87735,6,0,P|152:240|160:200,1,90
216,40,88024,1,0,0:0:0:0:
272,256,88168,1,0,0:0:0:0:
96,112,88312,1,0,0:0:0:0:
344,128,88456,1,0,0:0:0:0:
112,240,88600,2,0,P|88:176|80:112,1,90
192,216,88889,2,0,P|256:192|320:184,1,90
216,296,89177,2,0,P|240:360|248:424,1,90
136,312,89466,6,0,P|83:331|31:338,1,90
136,88,90043,2,0,B|96:128|96:128|96:251,1,180
96,328,90475,1,0,0:0:0:0:
184,328,90619,2,0,B|224:288|224:288|224:164,1,180
224,80,91052,1,0,0:0:0:0:
224,0,91196,2,0,B|347:0|347:0|387:40,1,180
416,136,91773,2,0,B|432:336|264:336|280:112,1,360
272,104,94658,6,0,P|346:89|301:140,1,180
254,199,95090,2,0,P|239:268|299:231,1,180
376,192,95523,2,0,B|408:240|352:304,1,90
288,344,95812,2,0,L|200:296,1,90
184,216,96100,2,0,L|111:146,1,90
192,104,96388,2,0,L|139:18,1,90
256,48,96677,2,0,L|352:48,1,90
368,48,96893,5,0,0:0:0:0:
384,48,96965,2,0,P|432:104|464:208,1,180
480,288,97398,2,0,P|480:336|416:272,1,180
384,224,97831,2,0,B|352:112,1,90
288,32,98119,2,0,L|200:80,1,90,0|0,0:0|0:0,0:0:0:0:
184,160,98407,2,0,L|111:230,1,90,0|0,0:0|0:0,0:0:0:0:
192,272,98695,2,0,L|139:358,1,90,0|0,0:0|0:0,0:0:0:0:
256,336,98985,2,0,L|352:336,1,90
368,336,99201,5,0,0:0:0:0:
384,336,99273,1,0,0:0:0:0:
464,144,99417,1,0,0:0:0:0:
336,264,99562,1,0,0:0:0:0:
352,64,99706,6,0,L|256:64,1,90
160,136,99994,1,0,0:0:0:0:
280,216,100138,1,0,0:0:0:0:
88,272,100283,1,0,0:0:0:0:
192,64,100427,6,0,L|96:64,1,90
0,192,100715,1,0,0:0:0:0:
176,192,100860,1,0,0:0:0:0:
56,336,101004,1,0,0:0:0:0:
64,64,101148,1,0,0:0:0:0:
176,272,101292,5,0,0:0:0:0:
0,112,101437,1,0,0:0:0:0:
0,112,101509,1,0,0:0:0:0:
0,112,101581,1,0,0:0:0:0:
240,208,101725,1,0,0:0:0:0:
0,256,101869,1,0,0:0:0:0:
144,96,102013,6,0,L|234:96,1,90
432,240,102302,1,0,0:0:0:0:
320,64,102446,1,0,0:0:0:0:
320,320,102590,1,0,0:0:0:0:
320,320,102663,1,0,0:0:0:0:
320,320,102735,6,0,L|208:320,1,90
80,192,103023,1,0,0:0:0:0:
336,224,103167,1,0,0:0:0:0:
200,64,103312,2,0,P|152:48|168:112,1,135
256,192,103888,2,0,L|352:272,1,90
416,320,104177,1,0,0:0:0:0:
288,104,104321,1,0,0:0:0:0:
432,80,104465,6,0,L|448:144,1,45
400,128,104754,2,0,P|400:208|368:240,1,90
224,288,105042,5,0,0:0:0:0:
80,96,105187,1,0,0:0:0:0:
64,320,105331,1,0,0:0:0:0:
232,112,105475,1,0,0:0:0:0:
328,304,105619,5,0,0:0:0:0:
176,176,105763,1,0,0:0:0:0:
176,352,105908,1,0,0:0:0:0:
336,128,106052,1,0,0:0:0:0:
336,336,106196,6,0,P|192:288|144:256,1,180
64,128,106629,1,0,0:0:0:0:
176,128,106773,6,0,L|240:139,1,45
208,176,107062,2,0,P|288:176|320:208,1,90
336,352,107350,5,0,0:0:0:0:
384,88,107494,1,0,0:0:0:0:
464,304,107638,1,0,0:0:0:0:
264,192,107783,1,0,0:0:0:0:
512,152,107927,1,0,0:0:0:0:
336,288,108071,1,0,0:0:0:0:
448,64,108215,1,0,0:0:0:0:
344,160,108359,1,0,0:0:0:0:
349,186,108431,1,0,0:0:0:0:
330,210,108504,6,0,L|142:210,1,180
16,216,108937,1,0,0:0:0:0:
80,112,109081,6,0,L|139:82,1,45
134,132,109370,2,0,P|198:84|243:92,1,90
344,32,109658,5,0,0:0:0:0:
480,272,109802,1,0,0:0:0:0:
496,48,109946,1,0,0:0:0:0:
280,224,110090,1,0,0:0:0:0:
368,48,110235,5,0,0:0:0:0:
504,184,110379,1,0,0:0:0:0:
296,240,110523,1,0,0:0:0:0:
456,376,110667,1,0,0:0:0:0:
272,144,110812,6,0,P|185:83|121:119,1,180
32,208,111244,1,0,0:0:0:0:
160,240,111388,6,0,L|224:251,1,45
192,288,111677,2,0,P|272:288|304:320,1,90
488,328,111965,1,0,0:0:0:0:
392,88,112110,1,0,0:0:0:0:
336,320,112254,1,0,0:0:0:0:
512,160,112398,1,0,0:0:0:0:
296,184,112542,1,0,0:0:0:0:
424,232,112687,1,0,0:0:0:0:
424,24,112831,5,0,0:0:0:0:
424,24,112903,1,0,0:0:0:0:
424,24,112975,1,0,0:0:0:0:
432,256,113119,2,0,P|448:304|384:256,1,180
464,112,113552,1,0,0:0:0:0:
296,56,113696,6,0,L|233:39,1,45
246,86,113985,2,0,P|172:52|129:69,1,90
32,56,114273,1,0,0:0:0:0:
256,152,114417,1,0,0:0:0:0:
64,184,114561,1,0,0:0:0:0:
288,280,114705,1,0,0:0:0:0:
112,72,114850,5,0,0:0:0:0:
112,272,114994,1,0,0:0:0:0:
256,152,115138,1,0,0:0:0:0:
256,352,115282,1,0,0:0:0:0:
384,272,115427,2,0,P|398:187|375:77,1,180
264,8,115860,1,0,0:0:0:0:
208,144,116004,6,0,L|205:209,1,45
248,186,116293,2,0,P|231:265|256:303,1,90
312,376,116580,1,0,0:0:0:0:
416,192,116725,1,0,0:0:0:0:
136,288,116869,1,0,0:0:0:0:
240,80,117013,1,0,0:0:0:0:
296,248,117157,5,0,0:0:0:0:
344,32,117301,1,0,0:0:0:0:
416,144,117446,1,0,0:0:0:0:
176,32,117590,1,0,0:0:0:0:
160,32,117662,1,0,0:0:0:0:
144,32,117734,2,0,P|83:51|72:173,1,180
272,160,118167,1,0,0:0:0:0:
104,248,118311,6,0,L|150:293,1,45
162,246,118600,2,0,P|209:311|254:318,1,90
328,320,118888,1,0,0:0:0:0:
488,136,119032,1,0,0:0:0:0:
448,336,119176,1,0,0:0:0:0:
384,32,119321,1,0,0:0:0:0:
256,184,119465,5,0,0:0:0:0:
352,104,119609,1,0,0:0:0:0:
168,240,119753,2,0,P|128:176|88:152,1,90
64,256,120042,2,0,P|88:312|200:336,1,180
376,288,120475,1,0,0:0:0:0:
248,256,120619,6,0,L|203:210,1,45
250,198,120908,2,0,P|185:151|178:106,1,90
104,56,121196,1,0,0:0:0:0:
288,88,121340,1,0,0:0:0:0:
112,168,121484,1,0,0:0:0:0:
216,16,121628,1,0,0:0:0:0:
248,184,121773,1,0,0:0:0:0:
40,32,121917,1,0,0:0:0:0:
0,128,122061,2,0,L|128:128,1,90
168,224,122350,6,0,B|213:306|213:386|213:386|333:274|445:362|445:362|509:170,1,630
240,208,124657,6,0,B|343:208|391:128|391:128|311:16|208:136|208:136|143:72|56:184|40:24,1,630
24,216,126965,6,0,B|192:176|64:320|64:320|144:368|240:288|240:288|272:376|376:376|376:248,1,630
256,192,129273,12,0,133888,0:2:0:0:
