osu file format v14

[General]
AudioFilename: audio.mp3
AudioLeadIn: 0
PreviewTime: 46199
Countdown: 0
SampleSet: Soft
StackLeniency: 0.7
Mode: 0
LetterboxInBreaks: 0
WidescreenStoryboard: 0

[Editor]
Bookmarks: 45,30040,85429
DistanceSpacing: 1.1
BeatDivisor: 4
GridSize: 16
TimelineZoom: 1.1

[Metadata]
Title:Hold ft. Jessica Jarrell (Candyland Remix)
TitleUnicode:Hold ft. Jessica Jarrell (Candyland Remix)
Artist:Elephante
ArtistUnicode:Elephante
Creator:Einja
Version:Normal
Source:
Tags:trap nation elephante jessica jarrell electronica downtempo mistaken
BeatmapID:1311187
BeatmapSetID:619973

[Difficulty]
HPDrainRate:3.5
CircleSize:3.6
OverallDifficulty:4
ApproachRate:5
SliderMultiplier:1.89999990463257
SliderTickRate:1

[Events]
//Background and Video events
0,0,"behind_the_red_curtain_by_nanomortis-db4jme0.png",0,0
//Break Periods
2,30245,37956
2,67167,74999
2,92353,93460
//Storyboard Layer 0 (Background)
//Storyboard Layer 1 (Fail)
//Storyboard Layer 2 (Pass)
//Storyboard Layer 3 (Foreground)
//Storyboard Sound Samples

[TimingPoints]
2353,576.923076923077,4,1,0,100,1,0
11583,-125,4,2,0,45,0,0
39276,-125,4,2,1,60,0,0
48506,-125,4,2,1,80,0,1
66968,-125,4,2,0,30,0,0
103891,-125,4,1,1,80,0,1
122353,-125,4,2,0,30,0,0

[Colours]
Combo1 : 255,83,83
Combo2 : 187,187,187

[HitObjects]
272,184,11583,5,0,0:0:0:0:
355,172,11872,1,0,0:0:0:0:
429,211,12160,2,0,P|463:242|475:281,1,75.9999961853028
312,315,13026,1,0,0:0:0:0:
229,304,13314,2,0,L|154:293,1,75.9999961853028
81,335,13891,6,0,P|86:248|134:213,1,151.999992370606
189,150,14756,2,0,P|213:182|218:218,1,75.9999961853028
289,261,15333,1,0,0:0:0:0:
325,185,15622,2,0,P|301:153|296:117,1,75.9999961853028
364,69,16199,5,0,0:0:0:0:
199,45,16776,2,0,P|190:99|195:199,1,151.999992370606
203,279,17641,1,0,0:0:0:0:
124,251,17929,2,0,P|68:230|53:229,1,75.9999961853028
50,145,18506,6,0,P|54:96|80:59,1,75.9999961853028
132,125,19083,2,0,P|174:135|228:108,2,75.9999961853028
168,49,19949,1,0,0:0:0:0:
251,57,20237,1,0,0:0:0:0:
377,166,20814,6,0,P|417:235|385:299,1,151.999992370606
333,233,21679,1,0,0:0:0:0:
251,215,21968,2,0,P|262:182|281:130,2,75.9999961853028
175,250,22833,1,0,0:0:0:0:
101,289,23122,5,0,0:0:0:0:
70,124,23699,2,0,B|68:49|68:49|155:7,1,151.999992370606
220,27,24564,1,0,0:0:0:0:
296,62,24853,2,0,P|319:91|325:132,1,75.9999961853028
407,139,25429,6,0,P|396:174|367:200,1,75.9999961853028
285,208,26006,2,0,P|226:247|223:327,2,151.999992370606
368,206,27449,1,0,0:0:0:0:
427,265,27737,1,0,0:0:0:0:
256,192,27881,12,0,30045,0:0:0:0:
274,94,39276,6,0,P|319:58|374:50,2,113.999994277954,2|2|2,0:1|0:1|0:1,0:0:0:0:
370,176,40574,2,0,P|362:257|322:286,1,113.999994277954,2|2,0:1|0:1,0:0:0:0:
258,267,41295,1,2,0:1:0:0:
177,246,41583,2,0,B|108:228|108:228|74:196,2,113.999994277954,2|2|2,0:1|0:1|0:1,0:0:0:0:
187,371,42881,2,0,L|68:346,1,113.999994277954,2|2,0:1|0:1,0:0:0:0:
38,272,43603,1,2,0:1:0:0:
76,198,43891,6,0,L|70:101,2,75.9999961853028,2|2|2,0:1|0:1|0:1,0:0:0:0:
152,163,44756,1,2,0:1:0:0:
230,133,45045,2,0,L|224:36,2,75.9999961853028,2|2|2,0:1|0:1|0:1,0:0:0:0:
306,98,45910,1,2,0:1:0:0:
327,17,46199,6,0,P|374:50|388:87,1,75.9999961853028,2|2,0:1|0:1,0:0:0:0:
435,130,46776,2,0,B|425:182|425:182|432:228,1,75.9999961853028,2|2,0:1|0:1,0:0:0:0:
392,280,47353,2,0,B|345:300|284:285,2,75.9999961853028,2|2|2,0:1|0:1|0:1,0:0:0:0:
273,162,48506,6,0,P|127:170|103:175,1,151.999992370606,4|8,1:0|0:3,0:0:0:0:
47,210,49372,2,0,P|73:238|126:257,1,75.9999961853028,0|0,1:0|0:0,0:0:0:0:
189,268,49949,1,0,1:0:0:0:
271,282,50237,2,0,P|312:303|330:332,1,75.9999961853028,8|0,1:3|0:0,0:0:0:0:
398,373,50814,6,0,L|441:220,1,151.999992370606,0|8,1:0|0:3,0:0:0:0:
454,144,51679,2,0,P|398:107|377:77,1,75.9999961853028,0|0,1:0|0:0,0:0:0:0:
339,36,52256,1,0,1:0:0:0:
280,95,52545,2,0,P|220:126|184:129,1,75.9999961853028,8|0,1:3|0:0,0:0:0:0:
132,104,53122,6,0,P|186:191|226:222,1,151.999992370606,0|8,1:0|0:3,0:0:0:0:
304,246,53987,1,0,1:0:0:0:
382,276,54276,2,0,P|383:223|358:184,2,75.9999961853028,0|0|8,1:0|0:0|0:3,0:0:0:0:
318,330,55141,1,0,1:0:0:0:
239,303,55429,6,0,P|155:284|82:290,1,151.999992370606,0|8,1:0|0:3,0:0:0:0:
10,315,56295,2,0,P|9:272|25:233,1,75.9999961853028,0|0,1:0|0:0,0:0:0:0:
66,171,56872,1,0,1:0:0:0:
149,163,57160,2,0,P|191:168|222:185,1,75.9999961853028,8|0,1:3|0:0,0:0:0:0:
283,239,57737,6,0,L|273:86,1,151.999992370606,4|8,1:0|0:3,0:0:0:0:
245,8,58603,2,0,P|202:35|191:57,1,75.9999961853028,0|0,1:0|0:0,0:0:0:0:
115,90,59179,1,0,1:0:0:0:
37,59,59468,2,0,P|32:115|49:146,1,75.9999961853028,8|0,1:3|0:0,0:0:0:0:
110,176,60045,6,0,P|161:220|179:308,1,151.999992370606,0|8,1:0|0:3,0:0:0:0:
253,341,60910,1,0,1:0:0:0:
305,275,61199,2,0,L|361:199,2,75.9999961853028,0|0|8,1:0|0:0|0:3,0:0:0:0:
344,349,62064,1,0,1:0:0:0:
427,338,62353,6,0,P|452:241|458:173,1,151.999992370606,0|8,1:0|0:3,0:0:0:0:
409,121,63218,2,0,P|361:90|343:57,1,75.9999961853028,0|0,1:0|0:0,0:0:0:0:
274,41,63795,1,0,1:0:0:0:
193,61,64083,2,0,P|150:99|130:137,1,75.9999961853028,8|0,1:3|0:0,0:0:0:0:
85,177,64660,6,0,P|131:198|222:133,1,151.999992370606,0|8,1:0|0:3,0:0:0:0:
293,124,65526,2,0,P|341:123|386:145,1,75.9999961853028,0|0,1:0|0:0,0:0:0:0:
322,203,66103,1,0,1:0:0:0:
250,257,66391,2,0,P|245:311|265:354,2,75.9999961853028,8|0|0,1:3|0:0|0:0,0:0:0:0:
124,257,76199,6,0,P|60:164|176:211,1,303.999984741211,0|0,1:0|0:0,0:0:0:0:
291,317,77929,1,0,0:0:0:0:
433,229,78506,2,0,B|442:156|422:89|422:89|465:89|491:59|491:59|516:100|517:157,1,303.999984741211,0|0,1:0|0:0,0:0:0:0:
505,306,80237,1,0,0:0:0:0:
352,374,80814,6,0,B|281:342|258:284|258:284|201:280|150:331,1,227.999988555908,0|0,1:0|0:0,0:0:0:0:
45,202,82256,1,0,0:0:0:0:
118,161,82545,2,0,L|185:125,1,75.9999961853028
249,71,83122,2,0,B|266:33|272:0|272:0|312:10|364:0|364:0|337:82|347:112|356:155|356:155|410:136|471:146|510:189|518:258|491:312|429:336,1,607.999969482422,0|2,1:0|0:0,0:0:0:0:
301,265,86006,5,2,0:0:0:0:
149,333,86583,2,0,P|107:343|62:325,1,75.9999961853028,2|2,0:0|0:0,0:0:0:0:
114,260,87160,1,2,0:0:0:0:
41,109,87737,5,2,0:0:0:0:
208,114,88314,1,2,0:0:0:0:
256,274,88891,2,0,P|302:270|348:245,2,75.9999961853028,2|2|2,0:0|0:0|0:0,0:0:0:0:
134,159,90045,5,2,0:0:0:0:
298,127,90622,1,2,0:0:0:0:
408,252,91199,2,0,L|423:339,2,75.9999961853028,2|2|2,0:0|0:0|0:0,0:0:0:0:
423,163,94660,6,0,L|457:40,2,113.999994277954
384,281,95958,2,0,P|334:308|278:301,1,113.999994277954
320,228,96679,1,0,0:0:0:0:
289,150,96968,2,0,P|266:110|182:70,2,113.999994277954
172,196,98266,2,0,B|142:247|142:247|67:267,1,113.999994277954
10,234,98987,1,0,0:0:0:0:
10,150,99276,5,0,0:0:0:0:
70,92,99564,1,0,0:0:0:0:
91,11,99853,2,0,P|151:8|189:21,1,75.9999961853028
237,55,100429,1,0,0:0:0:0:
320,43,100718,2,0,P|318:89|340:128,2,75.9999961853028
399,70,101583,5,0,0:0:0:0:
468,117,101872,1,0,0:0:0:0:
485,199,102160,2,0,L|428:271,1,75.9999961853028
387,325,102737,2,0,P|423:339|461:338,2,75.9999961853028
269,206,103891,6,0,P|219:260|168:338,1,151.999992370606,0|8,0:0|0:3,0:0:0:0:
108,375,104756,2,0,P|96:339|103:286,1,75.9999961853028
127,223,105333,1,0,0:0:0:0:
115,140,105622,2,0,P|141:112|175:94,1,75.9999961853028,8|0,0:3|0:0,0:0:0:0:
246,137,106199,6,0,B|313:91|313:91|358:34,1,151.999992370606,0|8,0:0|0:3,0:0:0:0:
435,6,107064,1,0,0:0:0:0:
479,77,107353,2,0,P|504:131|502:173,1,75.9999961853028
455,213,107929,2,0,P|437:211|420:202,2,37.9999980926514,8|0|0,0:3|0:0|0:0,0:0:0:0:
511,275,108506,6,0,P|423:343|364:357,1,151.999992370606,0|8,0:0|0:3,0:0:0:0:
316,306,109372,1,0,0:0:0:0:
303,223,109660,1,0,0:0:0:0:
237,171,109949,1,0,0:0:0:0:
162,208,110237,2,0,P|155:166|169:125,1,75.9999961853028,8|0,0:3|0:0,0:0:0:0:
99,81,110814,6,0,P|165:50|231:83,1,151.999992370606,0|8,0:0|0:3,0:0:0:0:
309,114,111679,1,0,0:0:0:0:
333,194,111968,2,0,P|370:173|391:135,1,75.9999961853028
449,88,112545,2,0,P|421:69|391:60,2,37.9999980926514,8|0|0,0:3|0:0|0:0,0:0:0:0:
465,170,113122,6,0,P|452:281|435:327,1,151.999992370606,0|8,0:0|0:3,0:0:0:0:
363,355,113987,2,0,P|289:361|262:371,1,75.9999961853028
214,321,114564,1,0,0:0:0:0:
179,244,114853,2,0,P|174:206|183:160,1,75.9999961853028,8|0,0:3|0:0,0:0:0:0:
255,205,115429,6,0,P|251:129|171:90,1,151.999992370606,0|8,0:0|0:3,0:0:0:0:
130,32,116295,1,0,0:0:0:0:
57,73,116583,2,0,P|48:122|49:165,1,75.9999961853028
68,229,117160,2,0,P|43:233|23:228,2,37.9999980926514,8|0|0,0:3|0:0|0:0,0:0:0:0:
129,172,117737,6,0,P|189:193|248:281,1,151.999992370606,0|8,0:0|0:3,0:0:0:0:
259,343,118603,1,0,0:0:0:0:
337,314,118891,1,0,0:0:0:0:
411,352,119179,1,0,0:0:0:0:
481,306,119468,2,0,P|478:251|468:218,1,75.9999961853028,8|0,0:3|0:0,0:0:0:0:
511,156,120045,6,0,P|438:152|392:208,1,151.999992370606,0|8,0:0|0:3,0:0:0:0:
311,231,120910,1,0,0:0:0:0:
263,162,121199,2,0,P|228:116|187:87,1,75.9999961853028
167,35,121776,2,0,B|89:49|89:49|24:103,1,151.999992370606,8|0,0:3|0:0,0:0:0:0:
