osu file format v14

[General]
AudioFilename: audio.mp3
AudioLeadIn: 0
PreviewTime: 46199
Countdown: 0
SampleSet: Soft
StackLeniency: 0.7
Mode: 0
LetterboxInBreaks: 0
WidescreenStoryboard: 1

[Editor]
Bookmarks: 45,11583,30040,85429
DistanceSpacing: 1.5
BeatDivisor: 4
GridSize: 4
TimelineZoom: 1.5

[Metadata]
Title:Hold ft. Jessica Jarrell (Candyland Remix)
TitleUnicode:Hold ft. Jessica Jarrell (Candyland Remix)
Artist:Elephante
ArtistUnicode:Elephante
Creator:Einja
Version:Mentai's Hard
Source:
Tags:trap nation elephante jessica jarrell electronica downtempo mistaken
BeatmapID:1308204
BeatmapSetID:619973

[Difficulty]
HPDrainRate:5
CircleSize:3.5
OverallDifficulty:5.5
ApproachRate:8.5
SliderMultiplier:1.59999990463257
SliderTickRate:1

[Events]
//Background and Video events
0,0,"behind_the_red_curtain_by_nanomortis-db4jme0.png",0,0
//Break Periods
//Storyboard Layer 0 (Background)
//Storyboard Layer 1 (Fail)
//Storyboard Layer 2 (Pass)
//Storyboard Layer 3 (Foreground)
//Storyboard Sound Samples

[TimingPoints]
2353,576.923076923077,4,2,1,100,1,0
43891,-90.9090909090909,4,2,1,100,0,0
48506,-80,4,2,1,80,0,1
66968,-100,4,2,1,30,0,0
99276,-90.9090909090909,4,2,1,30,0,0
103891,-80,4,2,1,80,0,1
122353,-100,4,2,1,30,0,0

[Colours]
Combo1 : 255,83,83
Combo2 : 187,187,187

[HitObjects]
56,56,11583,6,0,B|32:108|60:132|88:156|52:216,1,159.999990463257
144,344,12737,2,0,L|232:336,1,79.9999952316284
276,256,13314,2,0,L|355:263,1,79.9999952316284
424,340,13891,6,0,P|456:264|428:192,1,159.999990463257
352,140,14756,1,0,0:0:0:0:
352,140,14901,1,0,0:0:0:0:
352,140,15045,2,0,P|360:101|355:61,1,79.9999952316284
268,104,15622,2,0,P|262:143|271:182,1,79.9999952316284
272,280,16199,6,0,B|212:296|212:296|124:268,1,119.999992847443
16,308,17064,2,0,B|-1:252|-1:252|14:192,2,119.999992847443
100,356,18218,1,0,0:0:0:0:
156,278,18506,6,0,B|160:222|160:222|180:182|180:182|188:106,1,159.999990463257
120,52,19372,2,0,P|208:28|268:72,1,159.999990463257
312,144,20237,2,0,L|304:224,1,79.9999952316284
344,316,20814,6,0,B|292:340|260:316|232:288|184:320,1,159.999990463257
100,348,21679,1,0,0:0:0:0:
112,252,21968,2,0,L|104:168,1,79.9999952316284
8,156,22545,2,0,L|16:72,1,79.9999952316284
104,40,23122,6,0,B|180:56|180:56|272:36,1,159.999990463257
352,8,23987,1,0,0:0:0:0:
432,64,24276,2,0,P|440:102|435:142,1,79.9999952316284
347,184,24853,2,0,P|341:144|350:105,1,79.9999952316284
260,40,25429,6,0,B|200:24|200:24|112:52,1,119.999992847443
36,136,26294,2,0,B|18:191|18:191|34:251,2,119.999992847443
48,40,27449,1,0,0:0:0:0:
144,41,27737,6,0,P|228:57|312:37,1,159.999990463257
388,84,28603,2,0,L|416:248,1,159.999990463257
352,316,29468,2,0,P|312:328|268:316,1,79.9999952316284
192,368,30045,6,0,P|188:280|204:252,1,119.999992847443
264,204,30622,2,0,L|272:148,1,39.9999976158142
192,140,30910,2,0,L|184:84,1,39.9999976158142
252,56,31199,2,0,P|304:48|352:68,2,79.9999952316284
252,56,32353,6,0,B|216:68|216:68|128:56,1,119.999992847443
64,96,32929,2,0,P|64:136|68:152,1,39.9999976158142
136,168,33218,2,0,P|137:187|136:207,1,39.9999976158142
76,264,33506,2,0,L|84:356,2,79.9999952316284
76,264,34660,6,0,P|96:200|72:140,1,119.999992847443
20,92,35237,2,0,P|84:72|144:96,1,119.999992847443
196,140,35814,2,0,L|280:136,2,79.9999952316285
192,140,39276,6,0,L|188:216,2,39.9999976158142
264,104,39708,2,0,L|266:64,2,39.9999976158142
304,172,40141,1,0,0:0:0:0:
304,172,40285,2,0,P|336:172|364:168,1,39.9999976158142
388,248,40574,1,0,0:0:0:0:
388,248,40718,2,0,P|356:248|328:252,1,39.9999976158142
296,308,41006,2,0,P|240:316|184:292,1,79.9999952316285
196,192,41583,6,0,L|200:116,2,39.9999976158142
124,228,42015,2,0,L|122:268,2,39.9999976158142
84,160,42448,1,0,0:0:0:0:
84,160,42592,2,0,P|52:160|24:164,1,39.9999976158142
0,84,42881,1,0,0:0:0:0:
0,84,43025,2,0,P|32:84|60:80,1,39.9999976158142
108,28,43314,2,0,P|164:20|220:44,1,79.9999952316285
316,44,43891,6,0,L|320:108,1,43.9999987201691
396,132,44179,2,0,L|393:175,1,43.9999987201691
304,180,44468,2,0,L|308:244,1,43.9999987201691
384,268,44756,2,0,L|381:311,1,43.9999987201691
304,356,45045,6,0,L|240:352,1,43.9999987201691
216,276,45333,2,0,L|172:278,1,43.9999987201691
108,348,45622,1,0,0:0:0:0:
108,348,45766,1,0,0:0:0:0:
48,284,45910,1,0,0:0:0:0:
48,284,46054,1,0,0:0:0:0:
108,208,46199,6,0,L|104:144,1,43.9999987201691
28,120,46487,2,0,L|30:76,1,43.9999987201691
100,20,46776,1,0,0:0:0:0:
100,20,46920,1,0,0:0:0:0:
164,80,47064,1,0,0:0:0:0:
164,80,47208,1,0,0:0:0:0:
228,20,47353,2,0,P|288:24|320:16,2,87.9999974403381
228,20,48506,6,0,B|258:85|224:124|192:161|233:222,1,199.999988079071
308,304,49372,1,0,0:0:0:0:
404,232,49660,2,0,L|392:176,1,49.9999970197678
456,136,49949,2,0,L|466:87,1,49.9999970197678
404,36,50237,2,0,P|356:48|304:36,1,99.9999940395356
272,152,50814,6,0,B|216:152|216:152|156:172|156:172|72:172,1,199.999988079071
0,264,51679,1,0,0:0:0:0:
116,292,51968,2,0,L|170:309,1,49.9999970197678
216,251,52257,2,0,L|265:245,1,49.9999970197678
304,316,52545,2,0,P|360:308|400:320,1,99.9999940395356
444,208,53122,6,0,B|440:52|440:52|420:84|392:92|392:92,1,199.999988079071
320,164,53987,1,0,0:0:0:0:
292,48,54276,2,0,L|244:32,1,49.9999970197678
192,89,54565,2,0,L|143:95,1,49.9999970197678
76,52,54853,2,0,P|64:108|88:152,1,99.9999940395356
177,270,55429,6,0,B|242:240|281:274|318:306|379:265,1,199.999988079071
461,190,56295,1,0,0:0:0:0:
389,94,56583,2,0,L|333:106,1,49.9999970197678
293,42,56872,2,0,L|244:32,1,49.9999970197678
192,92,57160,1,0,0:0:0:0:
192,92,57737,6,0,B|204:136|188:156|188:156|224:180|224:180|200:212|200:212|228:244|216:288|216:288,1,199.999988079071
140,352,58603,1,0,0:0:0:0:
56,264,58891,2,0,L|44:208,1,49.9999970197678
108,168,59180,2,0,L|118:119,1,49.9999970197678
68,56,59468,2,0,P|113:37|161:50,1,99.9999940395356
240,140,60045,6,0,B|308:136|308:136|360:116|360:116|436:112,1,199.999988079071
500,216,60910,1,0,0:0:0:0:
400,284,61199,2,0,P|400:344|416:380,2,99.9999940395356
300,220,62064,1,0,0:0:0:0:
276,336,62353,6,0,B|120:332|120:332|152:312|160:284|160:284,1,199.999988079071
128,184,63218,1,0,0:0:0:0:
252,204,63507,2,0,L|300:220,1,49.9999970197678
352,163,63796,2,0,L|401:157,1,49.9999970197678
466,207,64084,2,0,P|484:161|471:113,1,99.9999940395356
360,72,64660,6,0,P|280:96|205:67,1,149.999991059303
144,4,65237,2,0,P|119:83|148:158,1,149.999991059303
220,204,65814,2,0,L|224:303,2,99.9999940395356
212,44,66968,6,0,B|264:20|288:48|312:76|372:40,1,159.999990463257
448,96,67833,1,0,0:0:0:0:
448,96,67978,1,0,0:0:0:0:
448,96,68122,2,0,L|440:184,1,79.9999952316284
352,208,68699,2,0,L|359:287,1,79.9999952316284
437,340,69276,6,0,P|373:376|285:348,1,159.999990463257
228,284,70141,1,0,0:0:0:0:
156,348,70429,2,0,P|117:356|77:351,1,79.9999952316284
32,268,71006,2,0,P|71:262|110:271,1,79.9999952316284
180,204,71583,6,0,L|216:88,2,119.999992847443
244,332,72881,2,0,B|300:356|300:356|392:344,1,119.999992847443
436,288,73603,1,0,0:0:0:0:
348,248,73891,5,0,0:0:0:0:
348,248,76199,6,0,B|364:192|364:192|344:128,1,119.999992847443
220,64,77064,2,0,B|204:120|204:120|224:184,1,119.999992847443
216,324,77929,1,0,0:0:0:0:
216,324,78506,6,0,B|160:340|160:340|96:320,2,119.999992847443
396,256,79949,1,0,0:0:0:0:
328,188,80237,2,0,L|332:100,1,79.9999952316285
372,20,80814,6,0,L|493:14,2,119.999992847443
220,136,82256,1,0,0:0:0:0:
152,68,82544,2,0,L|64:72,1,79.9999952316285
12,148,83122,5,0,0:0:0:0:
256,192,83410,12,0,84853,0:0:0:0:
128,192,85429,6,0,P|216:196|244:180,1,119.999992847443
292,120,86006,2,0,L|348:112,1,39.9999976158142
356,192,86294,2,0,L|412:200,1,39.9999976158142
440,132,86583,2,0,P|448:80|428:32,2,79.9999952316284
440,132,87737,6,0,B|428:192|428:192|464:276,1,119.999992847443
404,304,88314,2,0,P|364:304|348:308,1,39.9999976158142
332,376,88603,2,0,P|313:377|293:376,1,39.9999976158142
244,314,88891,2,0,L|152:322,2,79.9999952316284
244,314,90045,6,0,L|393:300,1,119.999992847443
424,364,90622,2,0,P|444:300|420:240,1,119.999992847443
376,188,91199,2,0,L|380:104,2,79.9999952316285
376,188,94660,6,0,L|452:184,2,39.9999976158142
344,116,95092,2,0,L|304:118,2,39.9999976158142
420,76,95526,1,0,0:0:0:0:
420,76,95670,2,0,L|416:24,1,39.9999976158142
344,4,95958,1,0,0:0:0:0:
344,4,96102,2,0,L|340:56,1,39.9999976158142
304,117,96391,2,0,P|296:169|316:209,1,79.9999952316285
212,272,96968,6,0,L|208:348,2,39.9999976158142
140,240,97400,2,0,L|142:200,2,39.9999976158142
100,316,97834,1,0,0:0:0:0:
100,316,97978,2,0,L|48:312,1,39.9999976158142
28,240,98266,1,0,0:0:0:0:
28,240,98410,2,0,L|80:236,1,39.9999976158142
141,200,98699,2,0,P|193:192|233:212,1,79.9999952316285
352,312,99276,6,0,L|356:248,1,43.9999987201691
432,224,99564,2,0,L|429:181,1,43.9999987201691
340,176,99853,2,0,L|344:112,1,43.9999987201691
420,88,100141,2,0,L|417:45,1,43.9999987201691
340,0,100430,6,0,L|276:4,1,43.9999987201691
252,80,100718,2,0,L|208:78,1,43.9999987201691
144,8,101007,1,0,0:0:0:0:
144,8,101151,1,0,0:0:0:0:
84,72,101295,1,0,0:0:0:0:
84,72,101439,1,0,0:0:0:0:
144,136,101583,6,0,L|140:200,1,43.9999987201691
64,224,101871,2,0,L|67:267,1,43.9999987201691
128,332,102160,1,0,0:0:0:0:
128,332,102304,1,0,0:0:0:0:
188,268,102448,1,0,0:0:0:0:
188,268,102592,1,0,0:0:0:0:
256,324,102737,2,0,L|360:328,2,87.9999974403381
256,324,103891,6,0,B|220:272|252:235|286:196|256:131,1,199.999988079071
344,48,104756,1,0,0:0:0:0:
400,156,105045,2,0,L|412:208,1,49.9999970197678
340,240,105333,2,0,L|328:292,1,49.9999970197678
374,354,105622,2,0,P|298:362|278:350,1,99.9999940395356
248,236,106199,6,0,B|156:212|156:212|52:244,1,199.999988079071
0,136,107064,1,0,0:0:0:0:
100,68,107353,2,0,L|151:55,1,49.9999970197678
185,126,107641,2,0,L|237:137,1,49.9999970197678
272,68,107929,2,0,P|328:76|372:68,1,99.9999940395356
480,20,108506,6,0,B|488:88|488:88|468:136|468:136|476:232,1,199.999988079071
424,324,109372,1,0,0:0:0:0:
344,232,109660,2,0,L|292:219,1,49.9999970197678
259,290,109948,2,0,L|206:301,1,49.9999970197678
140,352,110237,2,0,P|124:296|140:252,1,99.9999940395356
24,300,110814,6,0,B|-11:248|20:211|54:172|24:107,1,199.999988079071
112,24,111679,1,0,0:0:0:0:
168,132,111968,2,0,L|180:184,1,49.9999970197678
108,216,112256,2,0,L|96:268,1,49.9999970197678
154,327,112545,1,0,0:0:0:0:
154,327,113122,6,0,B|310:323|310:323|278:303|270:275|270:275,1,199.999988079071
188,212,113987,1,0,0:0:0:0:
296,160,114276,2,0,L|284:108,1,49.9999970197678
356,76,114564,2,0,L|368:24,1,49.9999970197678
288,8,114853,2,0,P|236:-2|188:12,1,99.9999940395356
80,56,115429,6,0,B|72:116|72:116|92:164|92:164|84:260,1,199.999988079071
160,344,116295,1,0,0:0:0:0:
220,240,116583,2,0,P|272:230|320:244,2,99.9999940395356
144,144,117449,1,0,0:0:0:0:
216,48,117737,6,0,B|316:64|316:64|416:40,1,199.999988079071
508,116,118603,1,0,0:0:0:0:
400,168,118892,2,0,L|388:220,1,49.9999970197678
460,252,119180,2,0,L|472:304,1,49.9999970197678
400,344,119468,2,0,P|348:354|300:340,1,99.9999940395356
200,284,120045,6,0,B|204:128|204:128|224:160|252:168|252:168,1,199.999988079071
317,256,120910,1,0,0:0:0:0:
408,176,121199,2,0,P|460:166|508:180,2,99.9999940395356
320,85,122064,1,0,0:0:0:0:
440,44,122353,5,0,0:0:0:0:0
