osu file format v14

[General]
AudioFilename: audio.mp3
AudioLeadIn: 0
PreviewTime: 42723
Countdown: 0
SampleSet: Normal
StackLeniency: 0.7
Mode: 3
LetterboxInBreaks: 0
SpecialStyle: 0
WidescreenStoryboard: 1

[Editor]
DistanceSpacing: 0.7
BeatDivisor: 4
GridSize: 32
TimelineZoom: 1.1

[Metadata]
Title:Hold ft. Jessica Jarrell (Candyland Remix)
TitleUnicode:Hold ft. Jessica Jarrell (Candyland Remix)
Artist:Elephante
ArtistUnicode:Elephante
Creator:Alice RP Name
Version:Holding On
Source:
Tags:Electronic Trap English Hold Elephante Jessica Jarrell Candyland Remix
BeatmapID:1427857
BeatmapSetID:674888

[Difficulty]
HPDrainRate:7
CircleSize:4
OverallDifficulty:7
ApproachRate:5
SliderMultiplier:1.4
SliderTickRate:1

[Events]
//Background and Video events
0,0,"hold-bg.png",0,0
//Break Periods
//Storyboard Layer 0 (Background)
//Storyboard Layer 1 (Fail)
//Storyboard Layer 2 (Pass)
//Storyboard Layer 3 (Foreground)
//Storyboard Sound Samples

[TimingPoints]
2345,576.923076923077,4,1,0,30,1,0
2345,-100,4,1,0,30,0,0

[HitObjects]
448,192,2339,128,0,4646:2:0:0:0:
51,192,2339,1,0,1:0:0:0:
192,192,4652,128,0,6960:2:0:0:0:
320,192,6960,128,0,9268:2:0:0:0:
64,192,9268,128,0,11575:2:0:0:0:
320,192,10998,128,0,11143:0:0:0:0:
320,192,11287,128,0,11431:0:0:0:0:
320,192,11575,128,0,13883:0:0:0:0:
448,192,11575,1,0,1:0:0:0:
192,192,11575,1,0,1:0:0:0:
192,192,12152,1,0,3:0:0:0:
192,192,13018,1,0,1:0:0:0:
448,192,13018,1,0,1:0:0:0:
64,192,13306,1,0,3:0:0:0:
320,192,13883,1,0,1:0:0:0:
192,192,13883,128,0,16191:0:0:0:0:
320,192,14460,1,0,3:0:0:0:
320,192,15325,1,0,1:0:0:0:
64,192,15325,1,0,1:0:0:0:
448,192,15614,1,0,3:0:0:0:
64,192,15758,1,0,1:0:0:0:
320,192,15758,1,0,0:0:0:0:
448,192,16191,128,0,18498:0:0:0:0:
64,192,16191,1,0,1:0:0:0:
192,192,16768,1,0,3:0:0:0:
64,192,17633,1,0,1:0:0:0:
320,192,17633,1,0,1:0:0:0:
192,192,17921,1,0,3:0:0:0:
192,192,18498,1,0,1:0:0:0:
320,192,18498,128,0,20806:0:0:0:0:
64,192,19075,1,0,3:0:0:0:
448,192,19364,1,0,1:0:0:0:
64,192,19364,1,0,1:0:0:0:
192,192,19941,1,0,1:0:0:0:
448,192,19941,1,0,1:0:0:0:
64,192,20229,1,0,0:0:0:0:
192,192,20373,1,0,0:0:0:0:
448,192,20373,1,0,0:0:0:0:
64,192,20806,128,0,23114:0:0:0:0:
448,192,20806,1,0,1:0:0:0:
320,192,21383,1,0,3:0:0:0:
448,192,22248,1,0,1:0:0:0:
320,192,22248,1,0,1:0:0:0:
192,192,22537,1,0,3:0:0:0:
320,192,23114,1,0,1:0:0:0:
448,192,23114,128,0,25421:0:0:0:0:
64,192,23691,1,0,3:0:0:0:
192,192,24556,1,0,1:0:0:0:
320,192,24556,1,0,1:0:0:0:
64,192,24845,1,0,3:0:0:0:
320,192,25421,128,0,27729:0:0:0:0:
64,192,25421,1,0,1:0:0:0:
448,192,25998,1,0,3:0:0:0:
64,192,26864,1,0,1:0:0:0:
192,192,26864,1,0,1:0:0:0:
448,192,27152,1,0,3:0:0:0:
64,192,27729,128,0,29604:0:0:0:0:
192,192,27729,1,0,1:0:0:0:
320,192,28306,1,0,3:0:0:0:
192,192,28595,1,0,1:0:0:0:
448,192,28595,1,0,1:0:0:0:
320,192,29171,1,0,1:0:0:0:
192,192,29171,1,0,1:0:0:0:
448,192,29460,128,0,29604:0:0:0:0:
192,192,29460,1,0,3:0:0:0:
448,192,29748,128,0,29893:0:0:0:0:
64,192,30037,1,0,0:0:0:0:
192,192,30037,128,0,32345:0:0:0:0:
320,192,32345,128,0,34652:0:0:0:0:
64,192,32345,1,0,0:0:0:0:
64,192,34652,128,0,36960:0:0:0:0:
320,192,36960,128,0,39268:0:0:0:0:
192,192,39268,1,0,0:0:0:0:
64,192,39268,1,0,0:0:0:0:
192,192,39700,1,0,0:0:0:0:
320,192,39700,1,0,0:0:0:0:
448,192,40133,1,0,0:0:0:0:
192,192,40133,1,0,0:0:0:0:
320,192,40566,1,0,0:0:0:0:
64,192,40566,1,0,0:0:0:0:
192,192,40998,1,0,0:0:0:0:
320,192,40998,1,0,0:0:0:0:
64,192,41287,1,0,0:0:0:0:
448,192,41287,1,0,0:0:0:0:
192,192,41431,1,0,0:0:0:0:
320,192,41503,1,0,0:0:0:0:
448,192,41575,1,0,0:0:0:0:
320,192,42008,1,0,0:0:0:0:
192,192,42008,1,0,0:0:0:0:
64,192,42441,1,0,0:0:0:0:
192,192,42441,1,0,0:0:0:0:
448,192,42873,1,0,0:0:0:0:
320,192,42873,1,0,0:0:0:0:
64,192,43306,128,0,46551:0:0:0:0:
320,192,43306,1,0,0:0:0:0:
192,192,43595,1,0,0:0:0:0:
448,192,43739,1,0,0:0:0:0:
320,192,43811,1,0,0:0:0:0:
192,192,43883,1,0,0:0:0:0:
448,192,44027,1,0,0:0:0:0:
192,192,44171,1,0,0:0:0:0:
192,192,44316,1,0,0:0:0:0:
448,192,44460,1,0,0:0:0:0:
448,192,44604,1,0,0:0:0:0:
320,192,44748,1,0,0:0:0:0:
320,192,44893,1,0,0:0:0:0:
192,192,45037,1,0,0:0:0:0:
320,192,45181,1,0,0:0:0:0:
192,192,45325,1,0,0:0:0:0:
448,192,45470,1,0,0:0:0:0:
320,192,45614,1,0,0:0:0:0:
320,192,45758,1,0,0:0:0:0:
448,192,45902,1,0,0:0:0:0:
192,192,46046,1,0,0:0:0:0:
320,192,46119,1,0,0:0:0:0:
448,192,46191,1,0,0:0:0:0:
192,192,46335,1,0,0:0:0:0:
320,192,46479,1,0,0:0:0:0:
448,192,46623,128,0,46768:2:0:0:0:
192,192,46768,128,0,46912:2:0:0:0:
320,192,46912,128,0,47056:2:0:0:0:
64,192,47056,128,0,47200:2:0:0:0:
448,192,47200,128,0,47345:2:0:0:0:
192,192,47345,128,0,47489:2:0:0:0:
320,192,47489,128,0,47633:2:0:0:0:
64,192,47633,128,0,47777:2:0:0:0:
448,192,48498,128,0,48643:2:0:0:0:
192,192,48498,1,0,0:0:0:0:
64,192,48931,1,0,0:0:0:0:
448,192,49075,128,0,49220:2:0:0:0:
192,192,49364,128,0,49508:2:0:0:0:
320,192,49652,128,0,49796:2:0:0:0:
448,192,49796,1,0,0:0:0:0:
64,192,49941,128,0,50085:2:0:0:0:
320,192,50085,1,0,0:0:0:0:
192,192,50229,1,0,0:0:0:0:
448,192,50229,128,0,50518:2:0:0:0:
320,192,50518,1,0,3:0:0:0:
448,192,50806,1,0,0:0:0:0:
192,192,50806,128,0,50950:2:0:0:0:
64,192,51239,1,0,0:0:0:0:
320,192,51383,128,0,51527:2:0:0:0:
64,192,51671,128,0,51816:2:0:0:0:
448,192,51960,128,0,52104:2:0:0:0:
320,192,52104,1,0,0:0:0:0:
64,192,52248,128,0,52393:2:0:0:0:
448,192,52393,1,0,0:0:0:0:
320,192,52537,128,0,52825:2:0:0:0:
192,192,52825,1,0,3:0:0:0:
448,192,53114,1,0,0:0:0:0:
192,192,53114,128,0,53258:2:0:0:0:
192,192,53546,1,0,0:0:0:0:
320,192,53691,128,0,53835:2:0:0:0:
64,192,53979,128,0,54123:2:0:0:0:
448,192,54268,128,0,54412:2:0:0:0:
320,192,54412,1,0,0:0:0:0:
192,192,54556,128,0,54700:2:0:0:0:
448,192,54700,1,0,0:0:0:0:
320,192,54845,128,0,55133:2:0:0:0:
448,192,55133,1,0,3:0:0:0:
320,192,55421,1,0,0:0:0:0:
64,192,55421,128,0,55566:2:0:0:0:
192,192,55854,1,0,0:0:0:0:
320,192,55998,128,0,56143:2:0:0:0:
192,192,56287,128,0,56431:2:0:0:0:
448,192,56575,128,0,56720:2:0:0:0:
320,192,56720,1,0,0:0:0:0:
64,192,56864,128,0,57008:2:0:0:0:
448,192,57008,1,0,0:0:0:0:
320,192,57152,128,0,57441:2:0:0:0:
192,192,57441,1,0,3:0:0:0:
448,192,57729,128,0,57873:2:0:0:0:
64,192,57729,1,0,0:0:0:0:
320,192,58162,1,0,0:0:0:0:
64,192,58306,128,0,58450:2:0:0:0:
320,192,58595,128,0,58739:2:0:0:0:
448,192,58883,128,0,59027:2:0:0:0:
320,192,59027,1,0,0:0:0:0:
192,192,59171,128,0,59316:2:0:0:0:
64,192,59316,1,0,0:0:0:0:
320,192,59460,128,0,59748:2:0:0:0:
448,192,59748,1,0,3:0:0:0:
64,192,60037,128,0,60181:2:0:0:0:
320,192,60037,1,0,0:0:0:0:
448,192,60470,1,0,0:0:0:0:
320,192,60614,128,0,60758:2:0:0:0:
192,192,60902,1,0,0:0:0:0:
64,192,60902,128,0,61046:2:0:0:0:
448,192,61191,128,0,61335:2:0:0:0:
320,192,61335,1,0,0:0:0:0:
64,192,61479,1,0,0:0:0:0:
192,192,61623,128,0,61912:2:0:0:0:
320,192,61912,1,0,3:0:0:0:
64,192,62056,1,0,0:0:0:0:
64,192,62345,128,0,62489:2:0:0:0:
320,192,62345,1,0,0:0:0:0:
64,192,62777,1,0,0:0:0:0:
320,192,62921,128,0,63066:2:0:0:0:
192,192,63210,128,0,63354:2:0:0:0:
64,192,63498,128,0,63643:2:0:0:0:
192,192,63643,1,0,0:0:0:0:
448,192,63787,128,0,63931:2:0:0:0:
192,192,63931,1,0,0:0:0:0:
64,192,64075,128,0,64364:2:0:0:0:
192,192,64364,1,0,3:0:0:0:
64,192,64652,128,0,65229:2:0:0:0:
320,192,65229,128,0,65806:2:0:0:0:
192,192,65806,128,0,66095:2:0:0:0:
64,192,66383,128,0,66960:2:0:0:0:
448,192,66383,128,0,66671:2:0:0:0:
320,192,66671,1,0,3:0:0:0:
64,192,67248,1,0,0:0:0:0:
192,192,67393,1,0,0:0:0:0:
320,192,67825,1,0,0:0:0:0:
448,192,67970,1,0,0:0:0:0:
64,192,68114,128,0,68330:0:0:0:0:
320,192,68402,128,0,68691:0:0:0:0:
192,192,68691,128,0,68835:0:0:0:0:
320,192,68835,128,0,69268:2:0:0:0:
192,192,70133,128,0,70421:2:0:0:0:
448,192,70421,128,0,70710:2:0:0:0:
64,192,70710,128,0,70998:2:0:0:0:
192,192,70998,128,0,71575:2:0:0:0:
320,192,71575,128,0,71864:0:0:0:0:
448,192,71575,128,0,71864:0:0:0:0:
64,192,72008,128,0,72296:0:0:0:0:
192,192,72008,128,0,72296:0:0:0:0:
448,192,72441,128,0,72729:0:0:0:0:
320,192,72441,128,0,72729:0:0:0:0:
192,192,72873,128,0,73162:0:0:0:0:
64,192,72873,128,0,73162:0:0:0:0:
320,192,73162,128,0,73595:0:0:0:0:
320,192,73739,128,0,74027:0:0:0:0:
192,192,73739,128,0,74027:0:0:0:0:
320,192,74316,128,0,74604:2:0:0:0:
320,192,74748,128,0,75037:2:0:0:0:
320,192,75181,128,0,75470:2:0:0:0:
320,192,75614,128,0,75902:2:0:0:0:
448,192,76191,128,0,76623:0:0:0:0:
64,192,76191,128,0,78498:2:0:0:0:
320,192,76623,128,0,77056:0:0:0:0:
192,192,77056,128,0,77489:0:0:0:0:
448,192,77489,128,0,77921:0:0:0:0:
320,192,77921,128,0,78354:0:0:0:0:
448,192,78498,128,0,80806:2:0:0:0:
192,192,78498,128,0,78931:0:0:0:0:
64,192,78931,128,0,79364:0:0:0:0:
320,192,79364,128,0,79724:0:0:0:0:
64,192,79941,128,0,80229:0:0:0:0:
192,192,80229,128,0,80518:0:0:0:0:
320,192,80518,128,0,80806:0:0:0:0:
64,192,80806,128,0,80950:0:0:0:0:
192,192,80806,128,0,83114:2:0:0:0:
320,192,81239,128,0,81383:0:0:0:0:
448,192,81671,128,0,81960:0:0:0:0:
320,192,82248,128,0,82537:0:0:0:0:
64,192,82537,128,0,82825:0:0:0:0:
448,192,82970,128,0,84484:0:0:0:0:
192,192,84556,128,0,84845:2:0:0:0:
320,192,84845,128,0,85133:2:0:0:0:
64,192,85133,128,0,85421:2:0:0:0:
192,192,85421,1,0,0:0:0:0:
320,192,85421,1,0,2:0:0:0:
192,192,85998,1,0,0:0:0:0:
320,192,85998,1,0,2:0:0:0:
192,192,86575,1,0,0:0:0:0:
320,192,86575,1,0,2:0:0:0:
192,192,87152,1,0,0:0:0:0:
320,192,87152,1,0,2:0:0:0:
64,192,87729,1,0,0:0:0:0:
192,192,87729,1,0,2:0:0:0:
64,192,88306,1,0,0:0:0:0:
192,192,88306,1,0,2:0:0:0:
64,192,88883,1,0,0:0:0:0:
192,192,88883,1,0,2:0:0:0:
64,192,89460,1,0,0:0:0:0:
192,192,89460,1,0,2:0:0:0:
320,192,90037,1,0,0:0:0:0:
192,192,90037,128,0,90614:2:0:0:0:
448,192,90037,1,0,2:0:0:0:
64,192,90614,128,0,91191:2:0:0:0:
320,192,90614,1,0,0:0:0:0:
448,192,90614,1,0,2:0:0:0:
192,192,91191,128,0,91768:2:0:0:0:
320,192,91191,1,0,0:0:0:0:
448,192,91191,1,0,2:0:0:0:
320,192,91768,1,0,0:0:0:0:
64,192,91768,128,0,92345:2:0:0:0:
448,192,91768,1,0,2:0:0:0:
192,192,92345,1,0,0:0:0:0:
320,192,92345,1,0,2:0:0:0:
192,192,92921,1,0,0:0:0:0:
320,192,92921,1,0,2:0:0:0:
192,192,93498,1,0,0:0:0:0:
320,192,93498,1,0,2:0:0:0:
192,192,94075,1,0,0:0:0:0:
320,192,94075,1,0,2:0:0:0:
64,192,94652,1,0,3:0:0:0:
192,192,94652,1,0,0:0:0:0:
320,192,94652,1,0,2:0:0:0:
64,192,95085,1,0,0:0:0:0:
192,192,95229,1,0,0:0:0:0:
320,192,95229,1,0,2:0:0:0:
192,192,95518,1,0,3:0:0:0:
192,192,95806,1,0,0:0:0:0:
320,192,95806,1,0,2:0:0:0:
448,192,95950,1,0,0:0:0:0:
64,192,96383,1,0,3:0:0:0:
192,192,96383,1,0,0:0:0:0:
320,192,96383,1,0,2:0:0:0:
448,192,96671,1,0,3:0:0:0:
64,192,96960,1,0,0:0:0:0:
448,192,96960,1,0,3:0:0:0:
192,192,96960,1,0,2:0:0:0:
320,192,97393,1,0,0:0:0:0:
64,192,97537,1,0,0:0:0:0:
192,192,97537,1,0,2:0:0:0:
192,192,97825,1,0,3:0:0:0:
64,192,98114,1,0,0:0:0:0:
192,192,98114,1,0,2:0:0:0:
448,192,98258,1,0,0:0:0:0:
64,192,98691,1,0,0:0:0:0:
448,192,98691,1,0,3:0:0:0:
192,192,98691,1,0,2:0:0:0:
320,192,98979,1,0,3:0:0:0:
320,192,99268,1,0,0:0:0:0:
192,192,99268,1,0,3:0:0:0:
448,192,99268,1,0,2:0:0:0:
448,192,99412,1,0,3:0:0:0:
64,192,99556,1,0,3:0:0:0:
320,192,99700,1,0,3:0:0:0:
320,192,99845,1,0,0:0:0:0:
192,192,99845,1,0,3:0:0:0:
448,192,99845,1,0,2:0:0:0:
448,192,99989,1,0,3:0:0:0:
64,192,100133,1,0,3:0:0:0:
320,192,100277,1,0,3:0:0:0:
320,192,100421,1,0,0:0:0:0:
192,192,100421,1,0,3:0:0:0:
448,192,100421,1,0,2:0:0:0:
448,192,100566,1,0,3:0:0:0:
320,192,100710,1,0,3:0:0:0:
64,192,100854,1,0,3:0:0:0:
320,192,100998,1,0,0:0:0:0:
192,192,100998,1,0,3:0:0:0:
448,192,100998,1,0,2:0:0:0:
448,192,101143,1,0,3:0:0:0:
320,192,101287,1,0,3:0:0:0:
448,192,101575,1,0,3:0:0:0:
192,192,101575,1,0,0:0:0:0:
320,192,101575,1,0,2:0:0:0:
64,192,101720,1,0,3:0:0:0:
320,192,101864,1,0,3:0:0:0:
192,192,102008,1,0,3:0:0:0:
448,192,102152,1,0,3:0:0:0:
192,192,102152,1,0,0:0:0:0:
320,192,102152,1,0,2:0:0:0:
64,192,102296,1,0,3:0:0:0:
320,192,102441,1,0,0:0:0:0:
448,192,102729,1,0,3:0:0:0:
192,192,102729,1,0,0:0:0:0:
320,192,102729,1,0,2:0:0:0:
64,192,102873,1,0,3:0:0:0:
320,192,103018,1,0,3:0:0:0:
192,192,103162,1,0,3:0:0:0:
192,192,103306,1,0,0:0:0:0:
448,192,103306,1,0,3:0:0:0:
320,192,103306,1,0,2:0:0:0:
192,192,103883,1,0,0:0:0:0:
64,192,103883,128,0,104027:2:0:0:0:
320,192,104171,1,0,0:0:0:0:
64,192,104316,1,0,0:0:0:0:
448,192,104460,128,0,104604:2:0:0:0:
192,192,104748,128,0,104893:2:0:0:0:
448,192,105037,128,0,105181:2:0:0:0:
64,192,105325,128,0,105470:2:0:0:0:
448,192,105470,1,0,0:0:0:0:
192,192,105614,128,0,105902:2:0:0:0:
64,192,105902,1,0,2:0:0:0:
320,192,106191,1,0,0:0:0:0:
448,192,106191,128,0,106335:2:0:0:0:
320,192,106623,1,0,0:0:0:0:
192,192,106768,128,0,106912:2:0:0:0:
448,192,107056,128,0,107200:2:0:0:0:
320,192,107345,128,0,107489:2:0:0:0:
64,192,107513,1,0,0:0:0:0:
448,192,107633,1,0,0:0:0:0:
320,192,107777,1,0,0:0:0:0:
64,192,107921,1,0,0:0:0:0:
192,192,107921,128,0,108210:2:0:0:0:
320,192,108210,1,0,3:0:0:0:
320,192,108498,1,0,0:0:0:0:
448,192,108498,128,0,108643:2:0:0:0:
64,192,108787,1,0,0:0:0:0:
320,192,108931,1,0,0:0:0:0:
448,192,109075,128,0,109220:2:0:0:0:
192,192,109364,1,0,0:0:0:0:
64,192,109364,128,0,109508:2:0:0:0:
192,192,109652,128,0,109796:2:0:0:0:
320,192,109796,1,0,0:0:0:0:
64,192,109941,128,0,110085:2:0:0:0:
448,192,110085,1,0,0:0:0:0:
320,192,110229,128,0,110518:2:0:0:0:
192,192,110518,1,0,3:0:0:0:
192,192,110806,1,0,0:0:0:0:
64,192,110806,128,0,110950:2:0:0:0:
192,192,111239,1,0,0:0:0:0:
320,192,111383,128,0,111527:2:0:0:0:
64,192,111671,128,0,111816:2:0:0:0:
448,192,111960,128,0,112104:2:0:0:0:
192,192,112248,128,0,112393:2:0:0:0:
64,192,112393,1,0,0:0:0:0:
320,192,112537,128,0,112825:2:0:0:0:
448,192,112825,1,0,3:0:0:0:
320,192,113114,1,0,0:0:0:0:
192,192,113114,128,0,113258:2:0:0:0:
448,192,113546,1,0,0:0:0:0:
192,192,113691,128,0,113835:2:0:0:0:
64,192,113979,128,0,114123:2:0:0:0:
320,192,114268,128,0,114412:2:0:0:0:
192,192,114556,128,0,114700:2:0:0:0:
64,192,114700,1,0,0:0:0:0:
448,192,114845,128,0,115133:2:0:0:0:
320,192,115133,1,0,3:0:0:0:
192,192,115421,1,0,0:0:0:0:
64,192,115421,128,0,115566:2:0:0:0:
192,192,115854,1,0,0:0:0:0:
448,192,115998,128,0,116143:2:0:0:0:
64,192,116287,128,0,116431:2:0:0:0:
320,192,116575,128,0,116720:2:0:0:0:
448,192,116864,128,0,117008:2:0:0:0:
64,192,117008,1,0,0:0:0:0:
192,192,117152,128,0,117441:2:0:0:0:
64,192,117441,1,0,3:0:0:0:
320,192,117729,1,0,0:0:0:0:
448,192,117729,128,0,117873:2:0:0:0:
320,192,118162,1,0,0:0:0:0:
64,192,118306,128,0,118450:2:0:0:0:
448,192,118595,128,0,118739:2:0:0:0:
192,192,118883,128,0,119027:2:0:0:0:
320,192,119171,128,0,119316:2:0:0:0:
64,192,119316,1,0,0:0:0:0:
192,192,119460,128,0,119748:2:0:0:0:
64,192,119748,1,0,3:0:0:0:
320,192,120037,1,0,0:0:0:0:
448,192,120037,128,0,120181:2:0:0:0:
64,192,120470,1,0,0:0:0:0:
320,192,120614,128,0,120758:2:0:0:0:
448,192,120902,128,0,121046:2:0:0:0:
64,192,121191,128,0,121335:2:0:0:0:
320,192,121479,128,0,121623:2:0:0:0:
64,192,121623,1,0,0:0:0:0:
448,192,121768,128,0,122056:2:0:0:0:
320,192,122056,1,0,3:0:0:0:
64,192,122345,128,0,124652:0:0:0:0:
320,192,124652,128,0,126960:0:0:0:0:
448,192,126960,128,0,129268:0:0:0:0:
192,192,129268,128,0,131575:0:0:0:0:
