osu file format v14

[General]
AudioFilename: audio.mp3
AudioLeadIn: 0
PreviewTime: 39090
Countdown: 0
SampleSet: Soft
StackLeniency: 0.2
Mode: 0
LetterboxInBreaks: 0
WidescreenStoryboard: 1

[Editor]
DistanceSpacing: 2.6
BeatDivisor: 4
GridSize: 4
TimelineZoom: 1.6

[Metadata]
Title:Hold [Candyland Remix]
TitleUnicode:Hold [Candyland Remix]
Artist:Elephante
ArtistUnicode:Elephante
Creator:VINXIS
Version:Hold
Source:
Tags:hold
BeatmapID:1175515
BeatmapSetID:555402

[Difficulty]
HPDrainRate:6
CircleSize:4
OverallDifficulty:10
ApproachRate:9
SliderMultiplier:1.8
SliderTickRate:1

[Events]
//Background and Video events
0,0,"pp.jpg",0,0
//Break Periods
2,37126,38634
//Storyboard Layer 0 (Background)
//Storyboard Layer 1 (Fail)
//Storyboard Layer 2 (Pass)
//Storyboard Layer 3 (Foreground)
//Storyboard Sound Samples

[TimingPoints]
4,576.923076923077,4,2,1,40,1,0
2311,-125,4,2,1,40,0,0
6927,-200,4,2,1,40,0,0
10965,-100,4,2,1,40,0,0
11542,-71.4285714285714,4,2,1,40,0,0
30004,-100,4,2,1,40,0,0
47888,1153.84615384615,4,2,1,40,1,0
47888,-200,4,2,1,40,0,0
48466,288.461538461538,4,2,1,40,1,0
52792,1153.84615384615,4,2,1,40,1,0
52792,-200,4,2,1,40,0,0
53080,288.461538461538,4,2,1,40,1,0
62022,1153.84615384615,4,2,1,40,1,0
62022,-200,4,2,1,40,0,0
62310,288.461538461538,4,2,1,40,1,0
66060,-71.4285714285714,4,2,1,40,0,0
66348,-55.5555555555556,4,2,1,40,0,0
66925,576.923076923077,4,2,1,40,1,0
66925,-71.4285714285714,4,2,1,40,0,0
85386,-100,4,2,1,40,0,0
103271,2790.6976744186,4,2,1,40,1,0
103271,-200,4,2,1,40,0,0
103848,288.461538461538,4,2,1,40,1,0

[HitObjects]
486,170,2311,6,0,L|315:177,1,144,2|0,0:0|0:0,0:0:0:0:
104,244,3177,2,0,L|275:251,1,144,2|0,0:0|0:0,0:0:0:0:
242,77,4042,2,0,L|237:149,1,72,2|0,0:0|0:0,0:0:0:0:
220,346,4619,6,0,B|288:317|358:353|358:353|429:387|496:346,1,288,2|0,0:0|0:0,0:0:0:0:
423,226,6061,2,0,L|428:131,2,72
320,381,6927,6,0,L|340:21,1,360,2|2,0:0|0:0,0:0:0:0:
305,240,10965,6,0,L|314:251,4,11.25
207,144,11254,2,0,L|197:132,4,11.25
336,106,11542,6,0,P|388:93|464:107,1,125.999996154785,2|0,0:0|0:0,0:0:0:0:
409,334,12119,2,0,L|398:209,1,125.999996154785,8|0,0:0|0:0,0:0:0:0:
193,265,12696,6,0,L|189:192,1,62.9999980773926
266,46,12984,2,0,L|262:108,1,62.9999980773926
147,52,13273,1,8,0:0:0:0:
147,52,13561,2,0,L|158:107,2,41.9999987182618,0|0|0,3:0|3:0|3:0,0:0:0:0:
81,137,13850,6,0,P|67:188|81:333,1,188.999994232178,2|0,0:0|0:0,0:0:0:0:
181,369,14427,2,0,L|186:231,1,125.999996154785,8|0,0:0|0:0,0:0:0:0:
291,294,14859,1,0,0:0:0:0:
360,205,15004,6,0,P|364:154|363:117,1,62.9999980773926
275,322,15292,2,0,P|275:353|279:384,1,62.9999980773926
414,278,15580,1,8,0:0:0:0:
190,213,15725,1,0,0:0:0:0:
251,123,15869,2,0,L|245:62,2,41.9999987182618,0|0|0,3:0|3:0|3:0,0:0:0:0:
129,303,16157,6,0,P|60:313|1:299,1,125.999996154785,2|0,0:0|0:0,0:0:0:0:
230,306,16590,1,0,0:0:0:0:
190,213,16734,2,0,L|212:62,1,125.999996154785,8|0,0:0|0:0,0:0:0:0:
425,190,17455,5,0,0:0:0:0:
343,256,17600,2,0,L|361:380,1,125.999996154785,0|8,0:0|0:0,0:0:0:0:
271,156,18177,2,0,L|266:209,1,31.4999990386963
473,96,18321,2,0,L|470:64,1,31.4999990386963
408,222,18465,6,0,P|311:202|159:254,1,251.999992309571,2|8,0:0|0:0,0:0:0:0:
0,46,19330,2,0,P|116:89|239:71,1,251.999992309571
240,70,20196,5,8,0:0:0:0:
31,225,20340,1,0,0:0:0:0:
31,225,20629,2,0,L|27:274,1,31.4999990386963
46,128,20773,6,0,L|175:140,1,125.999996154785,2|0,0:0|0:0,0:0:0:0:
240,70,21205,1,0,0:0:0:0:
257,271,21350,2,0,P|285:234|283:137,1,125.999996154785,8|0,0:0|0:0,0:0:0:0:
290,156,21782,1,0,0:0:0:0:
263,303,21927,6,0,P|319:319|388:316,2,125.999996154785,0|0|8,0:0|0:0|0:0,0:0:0:0:
154,93,22792,2,0,L|169:19,2,41.9999987182618,0|0|0,3:0|3:0|3:0,0:0:0:0:
165,200,23080,6,0,P|104:186|60:142,2,125.999996154785,2|0|8,0:0|0:0|0:0,0:0:0:0:
386,316,23946,2,0,L|396:243,1,62.9999980773926
505,154,24234,6,0,P|473:149|442:151,1,62.9999980773926
274,167,24523,2,0,P|305:171|336:169,1,62.9999980773926
427,13,24811,1,8,0:0:0:0:
427,13,25100,2,0,L|441:73,2,41.9999987182618,0|0|0,3:0|3:0|3:0,0:0:0:0:
352,75,25388,6,0,P|261:74|204:51,1,125.999996154785,2|0,0:0|0:0,0:0:0:0:
170,9,25821,1,0,0:0:0:0:
22,81,25965,2,0,P|113:82|170:105,1,125.999996154785,8|0,0:0|0:0,0:0:0:0:
156,331,26686,1,0,0:0:0:0:
125,217,26830,2,0,L|145:92,1,125.999996154785,0|8,0:0|0:0,0:0:0:0:
288,338,27407,6,0,L|299:287,1,31.4999990386963
334,91,27552,2,0,L|340:121,1,31.4999990386963
393,235,27696,5,2,0:0:0:0:
202,274,28273,2,0,P|143:278|67:267,1,125.999996154785,8|0,0:0|0:0,0:0:0:0:
95,76,28850,1,0,0:0:0:0:
76,269,29138,1,0,0:0:0:0:
277,147,29427,6,0,L|307:152,4,15.7499995193482,8|0|0|0|0,0:0|0:0|0:0|0:0|0:0,0:0:0:0:
240,357,29715,2,0,L|210:362,4,15.7499995193482
341,260,30004,6,0,P|387:263|437:282,1,90,2|0,0:0|0:0,0:0:0:0:
501,174,30436,1,0,0:0:0:0:
501,174,30580,2,0,P|499:151|496:129,1,45
406,166,30869,2,0,P|393:147|380:129,1,45
243,139,31157,6,0,P|191:138|140:115,1,90,2|0,0:0|0:0,0:0:0:0:
156,125,31734,2,0,L|172:272,1,135
171,260,32311,6,0,P|125:263|75:282,1,90,2|0,0:0|0:0,0:0:0:0:
11,174,32743,1,0,0:0:0:0:
11,174,32887,2,0,P|13:151|16:129,1,45
106,166,33176,2,0,P|119:147|132:129,1,45
269,139,33465,6,0,P|321:138|372:115,1,90,2|0,0:0|0:0,0:0:0:0:
356,125,34042,2,0,L|340:272,1,135
341,259,34619,6,0,L|326:124,1,135,2|0,0:0|0:0,0:0:0:0:
326,125,35196,2,0,L|311:259,1,135
311,259,35773,5,2,0:0:0:0:
193,77,36061,1,0,0:0:0:0:
479,70,36350,2,0,P|390:64|325:4,1,180,0|2,0:0|0:0,0:0:0:0:
382,172,39234,6,0,P|389:216|392:261,1,90,10|0,0:0|0:0,0:0:0:0:
257,331,39667,2,0,P|259:286|267:241,1,90,8|0,0:0|0:0,0:0:0:0:
217,118,40100,2,0,P|154:113|115:122,1,90,8|2,0:0|0:0,0:0:0:0:
324,60,40532,2,0,P|368:65|412:59,1,90,8|0,0:0|0:0,0:0:0:0:
475,12,40965,5,8,0:0:0:0:
505,223,41254,1,8,0:0:0:0:
428,275,41398,1,8,0:0:0:0:
410,268,41470,1,8,0:0:0:0:
392,261,41542,6,0,L|405:362,1,90,10|0,0:0|0:0,0:0:0:0:
312,149,41975,2,0,L|324:60,1,90,8|0,0:0|0:0,0:0:0:0:
232,260,42407,2,0,L|243:349,1,90,8|2,0:0|0:0,0:0:0:0:
152,148,42840,2,0,L|163:58,1,90,8|0,0:0|0:0,0:0:0:0:
110,0,43273,5,8,0:0:0:0:
292,152,43561,1,8,0:0:0:0:
344,62,43705,1,8,0:0:0:0:
366,70,43778,1,8,0:0:0:0:
388,78,43850,6,0,L|397:140,1,45,10|8,0:0|0:0,0:0:0:0:
358,281,44138,2,0,L|364:236,1,45,8|8,0:0|0:0,0:0:0:0:
366,70,44427,6,0,L|375:132,1,45,10|8,0:0|0:0,0:0:0:0:
336,289,44715,2,0,L|345:227,1,45,8|8,0:0|0:0,0:0:0:0:
344,62,45004,6,0,L|353:124,1,45,10|8,0:0|0:0,0:0:0:0:
314,297,45292,2,0,L|323:235,1,45,8|8,0:0|0:0,0:0:0:0:
278,172,45580,5,10,0:0:0:0:
278,172,45725,1,8,0:0:0:0:
457,183,45869,5,8,0:0:0:0:
457,183,46014,1,8,0:0:0:0:
381,356,46157,5,10,0:0:0:0:
372,359,46302,1,8,0:0:0:0:
354,362,46446,1,8,0:0:0:0:
327,367,46590,1,8,0:0:0:0:
291,370,46734,1,10,0:0:0:0:
246,365,46879,1,8,0:0:0:0:
196,342,47023,1,8,0:0:0:0:
151,297,47167,1,8,0:0:0:0:
129,228,47311,1,10,0:0:0:0:
129,147,47455,1,8,0:0:0:0:
157,61,47600,1,8,0:0:0:0:
245,17,47744,1,8,0:0:0:0:
352,20,47888,6,0,L|338:58,1,33.75,2|0,0:0|0:0,0:0:0:0:
347,311,48466,6,0,B|347:267|347:267|328:285|328:285|336:311|336:311|361:299|361:299|348:270|348:270|346:316,1,180,6|0,0:0|0:0,0:0:0:0:
276,122,48898,1,2,0:0:0:0:
187,296,49042,6,0,B|160:293|174:272|197:268|226:301|179:316|142:282|164:238|201:240|223:272|205:320|161:319|135:274|162:254|209:238|227:284|219:332|174:334|141:305|137:265|178:246|216:254|246:313|183:332,1,180,8|2,0:0|0:0,0:0:0:0:
148,94,49619,6,0,B|103:92|103:92|128:93|128:93|71:91|71:91|78:91,1,135
284,215,49908,2,0,B|329:213|329:213|304:214|304:214|361:212|361:212|354:212,1,135
60,199,50196,2,0,L|78:378,1,180,8|0,0:0|0:0,0:0:0:0:
353,212,50773,6,0,B|366:208|366:208|343:208|343:208|360:220|360:220|354:197|354:197|348:222|348:222|354:196|354:196|360:221|360:221|354:198|354:198|349:220,1,195
320,51,51206,1,2,0:0:0:0:
173,137,51350,6,0,B|175:137|175:137|173:137|173:137|174:137|174:137|174:136|175:136|175:136|173:135|173:135|173:137|173:137|173:137|173:137|174:135|174:135|174:136|174:136|175:137|175:137|173:137|173:137|173:136|173:136|173:137|173:137|177:137|177:137|173:137|173:137|172:136|172:136|173:137|173:137|178:137|178:137|170:138|170:138|177:136|177:136|172:137|172:137|176:137|176:137|170:140|170:140|177:133|177:133|172:141|172:141|171:136|171:136|173:137|173:137|169:138|169:138|175:141|175:141|172:139|172:139|174:135|174:135|172:139|172:139|177:139|177:139|173:138|173:138|179:138|179:138|171:141|171:141|172:134|172:134|177:140|177:140|172:136|172:136|175:137|175:137|169:137|169:137|173:133|173:133|175:137|175:137|174:136,1,180,8|2,0:0|0:0,0:0:0:0:
372,287,51927,6,0,B|372:315|372:315|381:314|381:314|369:315|369:315|384:313|384:313|378:314|378:314|368:315|368:315|373:315|373:315|363:315|363:315|377:314|377:314|372:287,1,135
272,185,52215,2,0,B|272:157|272:157|281:158|281:158|269:157|269:157|284:159|284:159|278:158|278:158|268:157|268:157|273:157|273:157|263:157|263:157|277:158|277:158|272:185,1,135
199,303,52504,5,8,0:0:0:0:
75,140,52648,1,0,0:0:0:0:
291,67,52792,6,0,L|312:67,1,11.25
291,67,53080,6,0,B|324:66|293:111|249:72|277:6|355:36|329:84|265:126|230:36,1,180,2|0,0:0|0:0,0:0:0:0:
380,219,53512,1,2,0:0:0:0:
480,75,53656,6,0,B|482:59|482:59|465:64|465:64|492:70|492:70|473:79|473:79|482:58|482:58|466:63|466:63|495:73|495:73|476:81|476:81|473:74,1,180,8|2,0:0|0:0,0:0:0:0:
498,362,54233,6,0,B|500:316|500:316|495:315|495:315|473:314|473:314|487:314|487:314|475:311|475:311|484:314|484:314|493:344,1,135
380,219,54522,2,0,B|382:265|382:265|377:266|377:266|355:267|355:267|369:267|369:267|357:270|357:270|366:267|366:267|375:237,1,135
209,196,54810,6,0,B|194:232|222:237|239:188|207:163|194:156|162:153|132:164|109:191,1,180,8|0,0:0|0:0,0:0:0:0:
109,190,55387,6,0,B|128:162|128:162|105:144|66:186|85:217|85:217|129:222|109:191,1,180,2|2,0:0|0:0,0:0:0:0:
216,363,55820,1,0,0:0:0:0:
313,184,55964,6,0,B|333:153|343:121|366:130|378:139|408:146|381:187|313:184,1,180,8|0,0:0|0:0,0:0:0:0:
218,95,56541,6,0,B|223:32|223:32|221:69,1,90
205,335,56829,1,0,0:0:0:0:
424,183,56974,1,0,0:0:0:0:
147,191,57118,5,0,0:0:0:0:
379,330,57262,1,0,0:0:0:0:
368,60,57406,5,0,3:0:0:0:
333,36,57503,5,0,3:0:0:0:
329,86,57599,5,0,3:0:0:0:
368,60,57695,6,0,B|333:36|333:36|329:86|329:86|368:60|368:60|333:36|333:36|329:86|329:86,1,180,6|0,0:0|0:0,0:0:0:0:
200,188,58128,1,2,0:0:0:0:
391,206,58272,6,0,B|426:182|426:182|430:232|430:232|391:206|391:206|426:182|426:182|430:232|430:232,1,180,8|2,0:0|0:0,0:0:0:0:
157,33,58849,6,0,B|154:10|154:10|144:30,2,45,2|0|0,0:0|0:0|0:0,0:0:0:0:
379,106,59137,2,0,B|376:129|376:129|366:109,2,45
173,203,59426,2,0,L|158:384,1,180,8|2,0:0|0:0,0:0:0:0:
413,157,60003,6,0,B|413:148|413:148|404:167|428:163|414:136|414:136|396:173|438:167|414:125|414:125|387:182|446:172,1,180,2|0,0:0|0:0,0:0:0:0:
214,281,60435,1,2,0:0:0:0:
152,72,60579,6,0,B|157:35|157:35|172:69|172:69|158:43|158:43|152:72|152:72|159:50|159:50|172:69,1,180,8|2,0:0|0:0,0:0:0:0:
326,93,61156,6,0,B|338:4|338:4|332:48,1,135
214,281,61445,2,0,P|187:235|237:252,1,135
285,327,61733,5,8,0:0:0:0:
74,187,61878,1,0,0:0:0:0:
451,181,62022,6,0,L|453:202,1,11.25
457,208,62310,6,0,B|461:117|461:117|425:202|452:192,1,180,2|0,0:0|0:0,0:0:0:0:
326,291,62742,1,0,0:0:0:0:
273,142,62886,6,0,B|262:153|262:153|292:142|292:142|267:126|267:126|255:160|255:160|297:147|297:147|264:142,1,180,8|2,0:0|0:0,0:0:0:0:
206,300,63463,6,0,B|174:310|174:310|202:297,2,45
130,197,63752,2,0,B|97:189|97:189|128:192,2,45
115,69,64040,2,0,B|90:46|90:46|115:64,2,45,8|0|0,0:0|0:0|0:0,0:0:0:0:
274,136,64329,6,0,B|303:141|334:136|347:112|336:98|318:96|305:107|304:152|310:159,1,135
392,277,64617,6,0,B|403:311|403:311|405:320|405:320|395:293|395:293|403:315|403:315|398:302|398:302|398:295|398:295|403:317|403:317|399:308|399:308|396:288|396:288|398:308|398:308|398:291|398:291|399:301|399:301|398:302|404:314|404:314|398:298|398:298|402:316|402:316|398:303|398:303,1,270,2|2,0:0|0:0,0:0:0:0:
310,159,65194,6,0,B|321:125|321:125|323:116|323:116|313:143|313:143|321:121|321:121|316:134|316:134|316:141|316:141|321:119|321:119|317:128|317:128|314:148|314:148|316:128|316:128|316:145|316:145|317:135|317:135|316:134|322:122|322:122|316:138|316:138|320:120|320:120|316:133|316:133,1,270,8|0,0:0|0:0,0:0:0:0:
175,285,65771,6,0,P|139:283|174:266,1,90
434,171,66060,6,0,P|470:169|426:152,1,125.999996154785
169,119,66348,6,0,P|145:111|189:111,1,161.999995056153,8|0,0:0|0:0,0:0:0:0:
355,256,66636,5,0,3:0:0:0:
346,310,66733,5,0,0:0:0:0:
337,363,66829,6,0,L|360:228,1,107.999996704102,0|6,3:0|0:0,0:0:0:0:
136,120,67213,5,0,0:0:0:0:
136,120,67357,1,0,0:0:0:0:
256,338,67790,1,0,0:0:0:0:
256,338,67935,1,0,0:0:0:0:
193,265,68079,2,0,L|189:192,1,62.9999980773926
266,46,68367,2,0,L|262:108,1,62.9999980773926
97,108,68656,1,0,0:0:0:0:
97,108,68800,2,0,L|263:129,1,125.999996154785
81,137,69233,6,0,P|67:188|81:333,1,188.999994232178,2|0,0:0|0:0,0:0:0:0:
77,322,70098,2,0,P|107:315|135:300,1,62.9999980773926
314,209,70387,2,0,P|318:158|317:121,1,62.9999980773926
227,316,70675,2,0,P|227:347|231:378,1,62.9999980773926
414,278,70963,1,0,0:0:0:0:
190,213,71107,2,0,P|254:203|336:216,1,125.999996154785
129,303,71540,6,0,P|60:313|1:299,1,125.999996154785,2|0,0:0|0:0,0:0:0:0:
190,213,71973,2,0,L|212:62,1,125.999996154785
383,303,72405,2,0,P|452:313|511:299,1,125.999996154785
322,213,72838,2,0,L|300:62,1,125.999996154785
256,312,73271,2,0,L|256:380,2,62.9999980773926
408,222,73703,1,0,0:0:0:0:
408,222,73848,6,0,P|311:202|159:254,1,251.999992309571,2|0,0:0|0:0,0:0:0:0:
0,46,74713,2,0,P|116:89|239:71,1,251.999992309571
114,58,76156,6,0,L|243:70,1,125.999996154785,2|0,0:0|0:0,0:0:0:0:
458,116,76588,2,0,L|332:127,1,125.999996154785
114,174,77021,2,0,L|239:185,1,125.999996154785
458,232,77453,2,0,L|332:243,1,125.999996154785
230,154,77886,2,0,P|222:84|314:0,1,188.999994232178
239,185,78463,6,0,L|114:174,1,125.999996154785,2|0,0:0|0:0,0:0:0:0:
332,243,78896,2,0,L|458:232,1,125.999996154785
239,301,79328,2,0,L|114:290,1,125.999996154785
114,290,79905,2,0,P|83:313|56:367,1,62.9999980773926
122,188,80194,2,0,P|83:192|33:225,1,62.9999980773926
179,103,80482,2,0,P|143:87|83:91,1,62.9999980773926
383,303,80771,6,0,P|452:313|511:299,1,125.999996154785,2|0,0:0|0:0,0:0:0:0:
322,213,81204,2,0,L|300:62,1,125.999996154785
129,303,81636,2,0,P|60:313|1:299,1,125.999996154785
5,300,82213,2,0,L|27:149,1,125.999996154785
95,50,82646,2,0,L|95:113,2,62.9999980773926
104,222,83079,6,0,P|201:202|411:382,1,377.999988464356,2|0,0:0|0:0,0:0:0:0:
180,255,84521,6,0,P|170:165|191:98,2,125.999996154785
180,255,85386,6,0,P|134:258|84:277,1,90,2|0,0:0|0:0,0:0:0:0:
20,169,85818,1,0,0:0:0:0:
20,169,85962,2,0,P|22:146|25:124,1,45
115,161,86251,2,0,P|128:142|141:124,1,45
278,134,86539,6,0,P|330:133|381:110,1,90,2|0,0:0|0:0,0:0:0:0:
365,120,87117,2,0,L|349:267,1,135
350,255,87693,6,0,P|396:258|446:277,1,90,2|0,0:0|0:0,0:0:0:0:
510,169,88125,1,0,0:0:0:0:
510,169,88271,2,0,P|508:146|505:124,1,45
415,161,88559,2,0,P|402:142|389:124,1,45
252,134,88847,6,0,P|200:133|149:110,1,90,2|0,0:0|0:0,0:0:0:0:
165,120,89424,2,0,L|181:267,1,135
267,0,90001,6,0,L|252:134,1,135,2|0,0:0|0:0,0:0:0:0:
224,384,90578,2,0,L|209:250,1,135
209,250,91155,5,2,0:0:0:0:
327,68,91443,1,0,0:0:0:0:
42,65,91732,2,0,P|131:59|196:-1,2,180,0|2|0,0:0|0:0|0:0,0:0:0:0:
480,133,93463,2,0,P|391:127|326:67,1,180
130,172,94617,6,0,P|123:216|120:261,1,90,10|0,0:0|0:0,0:0:0:0:
245,240,95050,2,0,P|253:285|255:330,1,90,8|0,0:0|0:0,0:0:0:0:
320,141,95482,2,0,P|257:136|218:145,1,90,8|2,0:0|0:0,0:0:0:0:
188,60,95915,2,0,P|144:65|100:59,1,90,8|0,0:0|0:0,0:0:0:0:
37,12,96348,5,8,0:0:0:0:
7,223,96637,1,8,0:0:0:0:
84,275,96781,1,8,0:0:0:0:
102,268,96853,1,8,0:0:0:0:
120,261,96925,6,0,L|107:362,1,90,10|0,0:0|0:0,0:0:0:0:
200,149,97358,2,0,L|188:60,1,90,8|0,0:0|0:0,0:0:0:0:
280,260,97790,2,0,L|269:349,1,90,8|2,0:0|0:0,0:0:0:0:
360,148,98223,2,0,L|349:58,1,90,8|0,0:0|0:0,0:0:0:0:
402,0,98656,5,8,0:0:0:0:
220,152,98944,1,8,0:0:0:0:
168,62,99088,1,8,0:0:0:0:
146,70,99161,1,8,0:0:0:0:
124,78,99233,6,0,L|115:140,1,45,10|8,0:0|0:0,0:0:0:0:
154,281,99521,2,0,L|148:236,1,45,8|8,0:0|0:0,0:0:0:0:
366,70,99810,6,0,L|375:132,1,45,10|8,0:0|0:0,0:0:0:0:
336,289,100098,2,0,L|345:227,1,45,8|8,0:0|0:0,0:0:0:0:
168,62,100387,6,0,L|159:124,1,45,10|8,0:0|0:0,0:0:0:0:
198,297,100675,2,0,L|189:235,1,45,8|8,0:0|0:0,0:0:0:0:
322,54,100963,6,0,L|331:116,1,45,10|8,0:0|0:0,0:0:0:0:
292,289,101251,2,0,L|301:227,1,45,8|8,0:0|0:0,0:0:0:0:
131,356,101540,5,10,0:0:0:0:
140,359,101685,1,8,0:0:0:0:
158,362,101829,1,8,0:0:0:0:
185,367,101973,1,8,0:0:0:0:
221,370,102117,1,10,0:0:0:0:
266,365,102262,1,8,0:0:0:0:
316,342,102406,1,8,0:0:0:0:
361,297,102550,1,8,0:0:0:0:
383,228,102694,1,10,0:0:0:0:
383,147,102838,1,8,0:0:0:0:
355,61,102983,1,8,0:0:0:0:
267,17,103127,1,8,0:0:0:0:
160,20,103271,6,0,L|164:39,1,15,6|0,0:0|0:0,0:0:0:0:
205,169,103848,6,0,B|231:172|231:172|227:171|227:171|234:173|234:173|234:172|234:172|229:173|229:173|234:173|234:173|233:173|233:173|234:171|234:171|231:171|231:171|236:172|236:172|240:170|240:170|247:171|247:171|218:171|218:171|223:173|223:173|238:171|238:171|232:171|232:171|243:172|243:172|228:172|228:172|259:172|291:155,1,180,6|0,0:0|0:0,0:0:0:0:
95,266,104280,1,2,0:0:0:0:
252,343,104424,6,0,B|258:318|258:318|238:383,1,90,8|0,0:0|0:0,0:0:0:0:
345,295,104713,2,0,L|375:155,1,135,2|0,0:0|0:0,0:0:0:0:
382,138,105001,6,0,B|393:121|393:121|354:124|354:124|407:150,1,90
438,319,105290,2,0,P|440:297|437:273,2,45
239,379,105578,2,0,B|214:379|214:379|239:379|239:379|214:379|214:379|239:379|239:379|214:379|214:379|239:379|239:379|214:379|214:379|239:379,1,180,8|0,0:0|0:0,0:0:0:0:
50,177,106155,6,0,B|86:157|107:157|107:157|106:159|95:158|95:158|82:159|90:157|90:157|99:157|99:157|156:162|115:132|42:122,1,180
109,248,106588,1,2,0:0:0:0:
257,192,106732,6,0,B|265:143|265:143|255:204,1,90,8|0,0:0|0:0,0:0:0:0:
223,355,107021,2,0,B|241:356|230:328|180:328|153:373,1,90,2|0,0:0|0:0,0:0:0:0:
369,302,107309,6,0,B|386:296|386:296|346:288,1,45
294,39,107598,2,0,B|281:27|281:27|294:66,1,45
292,174,107886,5,8,0:0:0:0:
26,180,108030,1,0,0:0:0:0:
181,259,108174,2,0,B|186:257|179:258|180:258|179:259|181:261|181:261|182:257|182:258|181:262|181:262|182:231|180:243|181:252,3,45
407,149,108463,6,0,B|410:117|410:117|410:129|410:129|409:144|409:144|409:137|409:137|410:123|410:123|408:149|408:149|414:55,1,180,2|0,0:0|0:0,0:0:0:0:
276,189,108896,1,2,0:0:0:0:
143,82,109040,6,0,B|91:71|55:81|119:91,1,90,8|0,0:0|0:0,0:0:0:0:
292,174,109328,2,0,P|290:231|261:305,1,135,2|0,0:0|0:0,0:0:0:0:
146,297,109617,6,0,P|119:297|156:278,1,90
214,118,109905,2,0,P|224:80|225:58,2,45
73,164,110194,2,0,B|20:161|20:161|73:164|73:164|-16:159,1,180,8|0,0:0|0:0,0:0:0:0:
391,177,110771,6,0,B|443:195|391:150|368:158|369:172|346:172|371:219|402:222|440:259|440:189|424:146|412:142|386:223|390:158|390:158|391:177,1,180,2|0,0:0|0:0,0:0:0:0:
305,279,111203,1,2,0:0:0:0:
204,167,111347,6,0,B|172:158|172:158|169:189|210:195|251:173,1,90,8|0,0:0|0:0,0:0:0:0:
99,200,111636,2,0,P|91:155|102:112,1,90,2|0,0:0|0:0,0:0:0:0:
177,332,111924,6,0,B|184:352|184:352|195:263,1,90
391,177,112213,2,0,B|363:163|363:163|401:182,2,45
305,279,112501,2,0,B|333:265|333:265|295:284,2,45,8|0|0,0:0|0:0|0:0,0:0:0:0:
188,153,112790,5,0,3:0:0:0:
202,109,112886,5,0,3:0:0:0:
216,65,112982,5,0,3:0:0:0:
230,21,113078,6,0,B|202:109|202:109|215:67|215:67|194:133,1,180,6|0,0:0|0:0,0:0:0:0:
344,148,113511,1,2,0:0:0:0:
269,290,113655,6,0,B|225:280|225:280|269:290,1,90
445,228,113944,2,0,B|510:245|510:245|445:228,1,135,2|0,0:0|0:0,0:0:0:0:
287,80,114232,6,0,P|332:60|378:64,1,90
220,187,114521,2,0,P|190:188|167:185,2,45
345,136,114809,2,8,B|360:200|360:200|347:182|347:182|360:200|360:200|355:178|355:178|360:200|360:200|366:178|366:178|360:200|360:200|375:183,1,180
160,83,115386,6,0,B|112:59|112:59|113:40|113:40|111:58|111:58|107:62|107:62|108:36|108:36|100:62|100:62|110:2,1,180,2|0,0:0|0:0,0:0:0:0:
97,158,115819,1,2,0:0:0:0:
229,199,115963,6,0,B|280:207|280:207|267:205|267:205|292:210,1,90,8|0,0:0|0:0,0:0:0:0:
97,158,116251,2,0,B|83:195|108:222|160:132,1,90
38,281,116540,6,0,B|21:275|21:275|61:267,1,45
113,18,116829,2,0,B|126:6|126:6|113:45,1,45
115,153,117117,5,8,0:0:0:0:
381,159,117261,1,0,0:0:0:0:
226,238,117405,2,0,B|221:236|228:237|227:237|228:238|226:240|226:240|225:236|225:237|226:241|226:241|225:210|227:222|226:231,3,45
327,284,117694,6,0,B|329:303|329:303|329:296|329:296|329:319|329:319|328:292|328:292|329:319|329:319|329:293|329:293|331:338|321:348,1,180,2|0,0:0|0:0,0:0:0:0:
419,243,118126,1,2,0:0:0:0:
260,119,118271,6,0,B|232:105|232:105|206:105|206:105|253:108,1,90,8|0,0:0|0:0,0:0:0:0:
139,222,118559,2,0,B|121:219|121:219|122:204|122:204|112:204|112:204|114:220|114:220|122:112,1,135,2|0,0:0|0:0,0:0:0:0:
39,289,118847,6,0,P|78:309|123:317,1,90,2|0,0:0|0:0,0:0:0:0:
246,298,119136,2,0,P|290:290|330:269,1,90
404,170,119424,2,0,B|413:147|418:117|418:117|413:147|404:170|404:170|413:147|418:117|418:117|413:147|404:170,1,180,8|0,0:0|0:0,0:0:0:0:
434,335,120001,6,0,P|477:338|422:297,1,180,2|0,0:0|0:0,0:0:0:0:
253,192,120434,1,2,0:0:0:0:
253,192,120578,1,8,0:0:0:0:
253,192,120867,2,0,B|251:131|251:131|255:238,1,135,2|0,0:0|0:0,0:0:0:0:
278,320,121155,6,0,P|222:316|189:304,1,90,2|0,0:0|0:0,0:0:0:0:
404,170,121444,2,0,P|460:166|493:154,1,90
299,0,121732,2,0,L|278:369,1,360,8|0,0:0|0:0,0:0:0:0:
