osu file format v14

[General]
AudioFilename: audio.mp3
AudioLeadIn: 0
PreviewTime: 40403
Countdown: 0
SampleSet: Soft
StackLeniency: 0.4
Mode: 0
LetterboxInBreaks: 0
WidescreenStoryboard: 1

[Editor]
Bookmarks: 11179,33248,41524,63593,74627,85662,107731,129710,140744,151779,173848,176434
DistanceSpacing: 0.7
BeatDivisor: 4
GridSize: 8
TimelineZoom: 2.899999

[Metadata]
Title:2019 S' Agapo
TitleUnicode:2019 Σ' Αγαπώ
Artist:Eleni Foureira
ArtistUnicode:Ελένη Φουρέιρα
Creator:Riven
Version:Nokashi's Insane
Source:
Tags:nikakis lcfc lowcombofc nokashi christmas greek pop
BeatmapID:1870558
BeatmapSetID:887376

[Difficulty]
HPDrainRate:5
CircleSize:3.8
OverallDifficulty:8.3
ApproachRate:9
SliderMultiplier:1.6
SliderTickRate:1

[Events]
//Background and Video events
0,0,"2019.jpg",0,0
//Break Periods
//Storyboard Layer 0 (Background)
//Storyboard Layer 1 (Fail)
//Storyboard Layer 2 (Pass)
//Storyboard Layer 3 (Foreground)
//Storyboard Sound Samples

[TimingPoints]
145,344.827586206897,4,2,1,30,1,0
145,-250,4,2,1,30,0,0
11179,-100,4,2,1,50,0,0
11524,-90.9090909090909,4,2,1,50,0,0
40145,-76.9230769230769,4,2,1,60,0,0
41524,-83.3333333333333,4,2,1,70,0,1
63593,-90.9090909090909,4,2,1,50,0,0
69110,-83.3333333333333,4,2,1,50,0,0
73248,-76.9230769230769,4,2,1,60,0,0
85662,-83.3333333333333,4,2,1,70,0,1
107731,-86.9565217391305,4,2,1,50,0,0

[Colours]
Combo1 : 241,243,171
Combo2 : 247,106,149
Combo3 : 105,214,130
Combo4 : 241,180,226

[HitObjects]
463,181,11179,6,0,L|471:85,1,80,2|0,0:0|0:0,0:0:0:0:
294,217,11524,2,0,L|393:225,1,88.000002685547,10|0,0:0|0:0,0:0:0:0:
281,121,11869,1,2,0:0:0:0:
204,184,12041,1,0,0:0:0:0:
371,144,12213,2,0,L|379:43,1,88.000002685547,10|0,0:0|0:0,0:0:0:0:
189,9,12558,6,0,L|205:195,1,176.000005371094,2|10,0:0|0:0,0:0:0:0:
305,313,13076,2,0,P|382:341|457:296,1,176.000005371094,2|2,0:0|0:0,0:0:0:0:
384,171,13593,2,0,L|286:179,1,88.000002685547,8|0,0:0|0:0,0:0:0:0:
167,365,13938,6,0,L|286:376,1,88.000002685547,2|0,0:0|0:0,0:0:0:0:
87,229,14282,2,0,L|-20:238,1,88.000002685547,10|0,0:0|0:0,0:0:0:0:
51,361,14627,1,2,0:0:0:0:
124,299,14800,1,0,0:0:0:0:
245,366,14972,2,0,L|343:374,1,88.000002685547,10|0,0:0|0:0,0:0:0:0:
204,189,15317,6,0,L|213:288,1,88.000002685547,2|0,0:0|0:0,0:0:0:0:
312,205,15662,1,10,0:0:0:0:
220,98,15834,2,0,L|40:113,1,176.000005371094,2|2,0:0|0:0,0:0:0:0:
37,248,16351,2,0,L|136:255,1,88.000002685547,8|0,0:0|0:0,0:0:0:0:
356,276,16696,6,0,P|394:208|334:124,2,176.000005371094,2|10|2,0:0|0:0|0:0,0:0:0:0:
263,341,17558,1,0,0:0:0:0:
163,228,17731,2,0,L|262:236,1,88.000002685547,10|0,0:0|0:0,0:0:0:0:
83,372,18076,6,0,L|73:264,1,88.000002685547,2|0,0:0|0:0,0:0:0:0:
170,140,18420,2,0,L|162:230,1,88.000002685547,10|0,0:0|0:0,0:0:0:0:
84,138,18765,1,2,0:0:0:0:
200,33,18938,1,0,0:0:0:0:
248,135,19110,2,0,L|335:127,1,88.000002685547,10|0,0:0|0:0,0:0:0:0:
385,21,19455,6,0,L|373:168,1,132.00000402832,2|0,0:0|0:0,0:0:0:0:
360,178,19800,2,0,P|287:192|212:155,1,132.00000402832,10|0,0:0|0:0,0:0:0:0:
203,180,20145,2,0,L|187:321,1,132.00000402832,2|0,0:0|0:0,0:0:0:0:
183,342,20489,1,10,0:0:0:0:
480,262,20834,6,8,L|491:119,1,132.00000402832,2|0,0:0|0:0,0:0:0:0:
478,99,21179,2,0,P|417:75|341:93,1,132.00000402832,10|0,0:0|0:0,0:0:0:0:
328,114,21524,2,0,P|262:137|189:108,1,132.00000402832,2|0,0:0|0:0,0:0:0:0:
175,100,21869,1,10,0:0:0:0:
494,25,22213,6,0,L|484:134,1,88.000002685547,6|0,0:0|0:0,0:0:0:0:
331,244,22558,2,0,L|323:147,1,88.000002685547,10|0,0:0|0:0,0:0:0:0:
311,39,22903,1,2,0:0:0:0:
405,133,23076,1,0,0:0:0:0:
242,178,23248,2,0,L|137:169,1,88.000002685547,10|0,0:0|0:0,0:0:0:0:
31,33,23593,6,0,L|136:24,1,88.000002685547,2|0,0:0|0:0,0:0:0:0:
228,21,23938,1,10,0:0:0:0:
46,208,24110,2,0,L|28:9,1,176.000005371094
252,55,24627,2,0,L|243:157,1,88.000002685547,8|0,0:0|0:0,0:0:0:0:
51,293,24972,6,0,L|40:169,1,88.000002685547,2|0,0:0|0:0,0:0:0:0:
165,49,25317,2,0,L|266:57,1,88.000002685547,10|0,0:0|0:0,0:0:0:0:
116,126,25662,1,2,0:0:0:0:
54,43,25834,1,0,0:0:0:0:
42,251,26007,2,0,L|33:153,1,88.000002685547,10|0,0:0|0:0,0:0:0:0:
211,278,26351,6,0,L|203:378,1,88.000002685547,2|0,0:0|0:0,0:0:0:0:
124,268,26696,1,10,0:0:0:0:
302,194,26869,2,0,L|286:376,1,176.000005371094,2|2,0:0|0:0,0:0:0:0:
221,172,27386,2,0,P|260:123|340:119,1,132.00000402832,8|0,0:0|0:0,0:0:0:0:
368,135,27731,6,0,L|376:39,1,88.000002685547,2|0,0:0|0:0,0:0:0:0:
238,8,28076,2,0,L|138:15,1,88.000002685547,10|0,0:0|0:0,0:0:0:0:
22,127,28420,2,8,L|142:137,1,88.000002685547,2|0,0:0|0:0,0:0:0:0:
286,155,28765,1,10,0:0:0:0:
208,81,28938,1,0,0:0:0:0:
193,259,29110,6,0,L|371:243,2,176.000005371094,2|10|2,0:0|0:0|0:0,0:0:0:0:
66,273,29972,1,0,0:0:0:0:
192,374,30145,2,8,L|289:382,1,88.000002685547,10|0,0:0|0:0,0:0:0:0:
412,244,30489,6,0,L|267:256,1,132.00000402832,2|0,0:0|0:0,0:0:0:0:
240,260,30834,2,0,P|206:200|225:137,1,132.00000402832,10|0,0:0|0:0,0:0:0:0:
251,119,31179,2,0,L|400:105,1,132.00000402832,2|0,0:0|0:0,0:0:0:0:
422,103,31524,1,10,0:0:0:0:
52,36,31869,6,0,L|65:187,1,132.00000402832,2|0,0:0|0:0,0:0:0:0:
89,195,32213,2,0,P|161:214|231:182,1,132.00000402832,10|0,0:0|0:0,0:0:0:0:
246,176,32558,2,0,P|310:158|381:184,1,132.00000402832,2|0,0:0|0:0,0:0:0:0:
404,196,32903,1,10,0:0:0:0:
112,358,33248,6,0,L|96:168,1,176.000005371094,4|2,0:0|0:0,0:0:0:0:
83,51,33765,1,6,0:0:0:0:
425,363,34627,6,0,L|443:167,1,176.000005371094,4|2,0:0|0:0,0:0:0:0:
458,56,35145,1,6,0:0:0:0:
30,303,36007,6,0,L|205:318,1,176.000005371094,4|2,0:0|0:0,0:0:0:0:
381,335,36524,1,6,0:0:0:0:
33,64,37386,6,0,L|237:46,1,176.000005371094,4|2,0:0|0:0,0:0:0:0:
384,27,37903,1,6,0:0:0:0:
75,219,38765,5,8,0:0:0:0:
202,368,39455,1,8,0:0:0:0:
147,188,40145,5,8,0:0:0:0:
127,329,40317,1,8,0:0:0:0:
50,128,40489,1,10,0:0:0:0:
248,247,40662,1,8,0:0:0:0:
249,61,40834,6,0,L|244:-1,3,51.999997619629,10|8|8|8,0:0|0:0|0:0|0:0,0:0:0:0:
330,129,41179,2,0,L|321:214,1,51.999997619629,10|8,0:0|0:0,0:0:0:0:
156,212,41351,2,0,L|149:135,1,51.999997619629,8|8,0:0|0:0,0:0:0:0:
153,53,41524,6,0,L|254:61,1,95.9999970703126,6|0,0:0|0:0,0:0:0:0:
410,136,41869,2,0,L|290:146,1,95.9999970703126,10|0,0:0|0:0,0:0:0:0:
400,42,42213,1,2,0:0:0:0:
503,128,42386,1,2,0:0:0:0:
306,239,42558,2,0,L|314:137,1,95.9999970703126,8|2,0:0|0:0,0:0:0:0:
254,22,42903,5,0,0:0:0:0:
163,130,43076,1,2,0:0:0:0:
364,26,43248,1,10,0:0:0:0:
151,22,43420,1,2,0:0:0:0:
400,121,43593,2,0,L|499:129,1,95.9999970703126,0|0,0:0|0:0,0:0:0:0:
256,23,43938,1,8,0:0:0:0:
238,31,44282,6,0,L|220:221,1,191.999994140625,6|10,0:0|0:0,0:0:0:0:
245,358,44800,1,0,0:0:0:0:
408,215,44972,2,0,L|307:223,1,95.9999970703126,2|2,0:0|0:0,0:0:0:0:
479,290,45317,1,8,0:0:0:0:
432,130,45489,2,0,L|318:139,1,95.9999970703126,2|0,0:0|0:0,0:0:0:0:
170,36,45834,2,0,L|275:45,1,95.9999970703126,2|8,0:0|0:0,0:0:0:0:
173,262,46179,5,0,0:0:0:0:
8,69,46351,1,0,0:0:0:0:
276,129,46524,1,0,0:0:0:0:
60,203,46696,1,8,0:0:0:0:
40,223,47041,6,0,L|29:341,1,95.9999970703126,4|2,0:0|0:0,0:0:0:0:
234,253,47386,1,10,0:0:0:0:
131,238,47558,1,2,0:0:0:0:
265,357,47731,1,2,0:0:0:0:
337,270,47903,1,2,0:0:0:0:
146,336,48076,1,8,0:0:0:0:
426,365,48248,6,0,L|416:258,1,95.9999970703126,2|0,0:0|0:0,0:0:0:0:
247,121,48593,2,0,L|237:226,1,95.9999970703126,2|8,0:0|0:0,0:0:0:0:
459,110,48938,2,0,L|451:-1,1,95.9999970703126,2|0,0:0|0:0,0:0:0:0:
349,116,49282,1,0,0:0:0:0:
449,292,49455,2,0,L|456:192,1,95.9999970703126,10|0,0:0|0:0,0:0:0:0:
373,38,49800,6,0,P|290:56|279:160,1,191.999994140625,6|10,0:0|0:0,0:0:0:0:
358,211,50317,1,0,0:0:0:0:
261,373,50489,2,0,L|251:261,1,95.9999970703126,2|2,0:0|0:0,0:0:0:0:
163,196,50834,1,8,0:0:0:0:
60,310,51007,2,0,L|169:319,2,95.9999970703126,2|0|2,0:0|0:0|0:0,0:0:0:0:
126,128,51524,6,0,P|174:119|233:159,1,95.9999970703126,10|0,0:0|0:0,0:0:0:0:
265,336,51869,2,0,P|233:299|238:228,1,95.9999970703126,2|0,0:0|0:0,0:0:0:0:
376,111,52213,2,0,P|360:157|296:188,1,95.9999970703126,10|0,0:0|0:0,0:0:0:0:
275,40,52558,6,0,L|482:21,2,191.999994140625,6|10|2,0:0|0:0|0:0,0:0:0:0:
188,113,53420,1,2,0:0:0:0:
286,250,53593,2,0,L|295:136,1,95.9999970703126,8|2,0:0|0:0,0:0:0:0:
164,25,53938,5,0,0:0:0:0:
206,198,54110,1,2,0:0:0:0:
249,50,54282,1,10,0:0:0:0:
121,171,54455,1,2,0:0:0:0:
295,224,54627,2,0,L|419:211,1,95.9999970703126,0|0,0:0|0:0,0:0:0:0:
190,113,54972,1,8,0:0:0:0:
170,123,55317,6,0,L|151:332,1,191.999994140625,6|10,0:0|0:0,0:0:0:0:
251,367,55834,1,0,0:0:0:0:
342,260,56007,2,0,L|238:269,1,95.9999970703126,2|2,0:0|0:0,0:0:0:0:
397,341,56351,1,8,0:0:0:0:
325,177,56524,6,0,L|217:186,1,95.9999970703126,2|0,0:0|0:0,0:0:0:0:
85,313,56869,2,0,L|180:321,1,95.9999970703126,2|8,0:0|0:0,0:0:0:0:
323,342,57213,1,0,0:0:0:0:
226,208,57386,1,0,0:0:0:0:
248,382,57558,1,0,0:0:0:0:
304,164,57731,1,8,0:0:0:0:
325,157,58076,6,0,L|317:258,1,95.9999970703126,4|2,0:0|0:0,0:0:0:0:
241,113,58420,1,10,0:0:0:0:
413,193,58593,1,2,0:0:0:0:
345,27,58765,1,2,0:0:0:0:
325,157,58938,1,2,0:0:0:0:
446,73,59110,1,8,0:0:0:0:
241,113,59282,6,0,L|249:209,1,95.9999970703126,2|0,0:0|0:0,0:0:0:0:
345,27,59627,2,0,L|248:19,1,95.9999970703126,2|8,0:0|0:0,0:0:0:0:
145,121,59972,2,0,L|250:111,1,95.9999970703126,2|0,0:0|0:0,0:0:0:0:
84,41,60317,1,0,0:0:0:0:
32,212,60489,2,0,L|18:327,1,95.9999970703126,10|0,0:0|0:0,0:0:0:0:
222,352,60834,6,0,L|418:335,1,191.999994140625,6|10,0:0|0:0,0:0:0:0:
500,261,61351,1,0,0:0:0:0:
369,172,61524,2,0,L|359:287,1,95.9999970703126,2|2,0:0|0:0,0:0:0:0:
458,137,61869,1,8,0:0:0:0:
274,202,62041,1,2,0:0:0:0:
321,38,62213,6,0,L|512:21,2,191.999994140625,0|10|0,0:0|0:0|0:0,0:0:0:0:
230,51,63076,1,0,0:0:0:0:
72,141,63248,2,0,L|59:294,1,143.999995605469,8|0,0:0|0:0,0:0:0:0:
82,314,63593,6,0,P|156:347|259:321,1,176.000005371094,6|0,0:0|0:0,0:0:0:0:
193,68,64110,2,0,L|177:251,1,176.000005371094,2|0,0:0|0:0,0:0:0:0:
246,329,64627,2,0,L|333:321,1,88.000002685547,0|0,0:0|0:0,0:0:0:0:
455,250,64972,6,0,L|470:66,1,176.000005371094,0|0,0:0|0:0,0:0:0:0:
332,11,65489,2,0,L|350:207,1,176.000005371094,0|0,0:0|0:0,0:0:0:0:
243,290,66007,2,0,L|231:180,1,88.000002685547,0|0,0:0|0:0,0:0:0:0:
55,96,66351,6,0,P|32:171|97:240,1,176.000005371094,6|0,0:0|0:0,0:0:0:0:
244,33,66869,2,0,L|63:18,1,176.000005371094,6|0,0:0|0:0,0:0:0:0:
151,181,67386,2,0,L|256:170,1,88.000002685547,0|0,0:0|0:0,0:0:0:0:
23,186,67731,5,8,0:0:0:0:
103,320,67903,1,8,0:0:0:0:
77,117,68076,1,8,0:0:0:0:
27,273,68248,1,8,0:0:0:0:
29,45,68420,2,0,L|88:36,3,44.0000013427735,8|8|8|8,0:0|0:0|0:0|0:0,0:0:0:0:
163,121,68765,2,0,L|206:124,1,44.0000013427735,8|8,0:0|0:0,0:0:0:0:
263,224,68938,2,0,L|306:220,1,44.0000013427735,8|8,0:0|0:0,0:0:0:0:
438,203,69110,6,0,L|455:1,1,191.999994140625,4|8,0:0|0:0,0:0:0:0:
322,111,69627,2,0,L|338:305,1,191.999994140625,2|2,0:0|0:0,0:0:0:0:
438,203,70145,2,0,L|447:107,1,95.9999970703126,10|2,0:0|0:0,0:0:0:0:
318,19,70489,6,0,L|121:36,1,191.999994140625,2|8,0:0|0:0,0:0:0:0:
27,135,71007,2,0,L|243:153,1,191.999994140625,2|2,0:0|0:0,0:0:0:0:
318,19,71524,2,0,L|217:27,1,95.9999970703126,10|2,0:0|0:0,0:0:0:0:
51,193,71869,6,0,L|38:309,1,95.9999970703126,6|0,0:0|0:0,0:0:0:0:
146,243,72213,2,0,L|137:338,1,95.9999970703126,10|0,0:0|0:0,0:0:0:0:
230,96,72558,2,0,L|240:220,1,95.9999970703126,2|0,0:0|0:0,0:0:0:0:
139,147,72903,2,0,L|147:267,1,95.9999970703126,10|0,0:0|0:0,0:0:0:0:
129,34,73248,5,10,0:0:0:0:
230,96,73420,1,8,0:0:0:0:
47,77,73593,1,8,0:0:0:0:
210,7,73765,1,8,0:0:0:0:
247,180,73938,2,0,L|239:255,3,51.999997619629,8|8|8|8,0:0|0:0|0:0|0:0,0:0:0:0:
327,294,74282,2,0,L|322:360,1,51.999997619629,8|8,0:0|0:0,0:0:0:0:
180,380,74455,2,0,L|174:310,1,51.999997619629,8|8,0:0|0:0,0:0:0:0:
247,180,74627,6,0,L|455:198,1,207.999990478516,6|8,0:0|0:0,0:0:0:0:
137,272,75145,2,0,L|118:50,1,207.999990478516,2|2,0:0|0:0,0:0:0:0:
341,127,75662,2,0,L|324:346,1,207.999990478516,10|2,0:0|0:0,0:0:0:0:
144,286,76179,2,0,L|133:175,1,103.999995239258,2|8,0:0|0:0,0:0:0:0:
116,51,76524,1,2,0:0:0:0:
277,155,76696,5,2,0:0:0:0:
215,63,76869,1,2,0:0:0:0:
222,236,77041,1,10,0:0:0:0:
339,81,77213,1,2,0:0:0:0:
182,152,77386,5,6,0:0:0:0:
324,246,77558,1,2,0:0:0:0:
215,63,77731,1,10,0:0:0:0:
222,236,77903,1,2,0:0:0:0:
287,11,78076,5,2,0:0:0:0:
126,81,78248,1,2,0:0:0:0:
299,97,78420,1,10,0:0:0:0:
66,14,78593,1,2,0:0:0:0:
215,138,78765,6,0,L|206:24,1,103.999995239258,2|0,0:0|0:0,0:0:0:0:
42,96,79110,1,8,0:0:0:0:
135,230,79282,1,2,0:0:0:0:
135,230,79369,1,2,0:0:0:0:
135,230,79455,2,0,L|253:220,1,103.999995239258,2|0,0:0|0:0,0:0:0:0:
42,96,79800,1,8,0:0:0:0:
58,116,80145,6,0,L|47:224,1,103.999995239258,4|2,0:0|0:0,0:0:0:0:
129,342,80489,1,10,0:0:0:0:
231,189,80662,1,2,0:0:0:0:
212,378,80834,1,2,0:0:0:0:
131,213,81007,1,2,0:0:0:0:
328,164,81179,1,8,0:0:0:0:
121,109,81351,6,0,L|130:217,1,103.999995239258,2|0,0:0|0:0,0:0:0:0:
301,72,81696,2,0,L|202:25,1,103.999995239258,2|8,0:0|0:0,0:0:0:0:
242,223,82041,2,0,L|331:160,1,103.999995239258,2|0,0:0|0:0,0:0:0:0:
212,121,82386,1,0,0:0:0:0:
152,256,82558,2,0,L|161:377,1,103.999995239258,10|0,0:0|0:0,0:0:0:0:
212,121,82903,6,0,L|5:138,1,207.999990478516,6|10,0:0|0:0,0:0:0:0:
66,45,83420,1,0,0:0:0:0:
179,202,83593,2,0,L|168:319,1,103.999995239258,2|2,0:0|0:0,0:0:0:0:
12,241,83938,2,0,L|2:115,1,103.999995239258,8|2,0:0|0:0,0:0:0:0:
146,116,84282,1,0,0:0:0:0:
95,224,84455,1,2,0:0:0:0:
52,24,84627,6,0,L|161:33,1,103.999995239258,10|0,0:0|0:0,0:0:0:0:
249,125,84972,2,0,L|139:115,1,103.999995239258,2|0,0:0|0:0,0:0:0:0:
345,13,85317,2,0,L|334:129,1,103.999995239258,10|0,0:0|0:0,0:0:0:0:
151,251,85662,6,0,L|37:260,1,95.9999970703126,6|0,0:0|0:0,0:0:0:0:
248,150,86007,2,0,L|237:273,1,95.9999970703126,10|0,0:0|0:0,0:0:0:0:
155,120,86351,1,2,0:0:0:0:
309,71,86524,1,2,0:0:0:0:
129,17,86696,1,8,0:0:0:0:
91,164,86869,2,0,P|126:193|185:190,1,95.9999970703126
309,71,87213,5,2,0:0:0:0:
155,120,87386,1,10,0:0:0:0:
240,14,87558,1,2,0:0:0:0:
372,136,87731,1,0,0:0:0:0:
147,27,87903,1,0,0:0:0:0:
398,57,88076,1,8,0:0:0:0:
426,75,88420,6,0,L|408:269,1,191.999994140625,6|10,0:0|0:0,0:0:0:0:
394,362,88938,1,0,0:0:0:0:
229,239,89110,2,0,L|335:229,1,95.9999970703126,2|2,0:0|0:0,0:0:0:0:
211,359,89455,1,8,0:0:0:0:
131,223,89627,2,0,L|140:116,1,95.9999970703126,2|0,0:0|0:0,0:0:0:0:
282,22,89972,2,0,L|291:131,1,95.9999970703126,2|8,0:0|0:0,0:0:0:0:
229,239,90317,5,0,0:0:0:0:
139,127,90489,1,0,0:0:0:0:
159,322,90662,1,0,0:0:0:0:
210,70,90834,1,8,0:0:0:0:
237,89,91179,6,0,L|227:199,1,95.9999970703126,4|2,0:0|0:0,0:0:0:0:
353,53,91524,1,10,0:0:0:0:
177,25,91696,1,2,0:0:0:0:
330,139,91869,1,2,0:0:0:0:
272,11,92041,1,2,0:0:0:0:
135,134,92213,1,8,0:0:0:0:
357,223,92386,6,0,P|399:198|418:154,1,95.9999970703126,2|0,0:0|0:0,0:0:0:0:
222,120,92731,2,0,P|222:168|251:207,1,95.9999970703126,2|8,0:0|0:0,0:0:0:0:
401,30,93076,2,0,L|291:39,1,95.9999970703126,2|0,0:0|0:0,0:0:0:0:
155,54,93420,1,0,0:0:0:0:
249,205,93593,2,0,L|258:92,1,95.9999970703126,10|0,0:0|0:0,0:0:0:0:
42,156,93938,6,0,L|58:359,1,191.999994140625,6|10,0:0|0:0,0:0:0:0:
181,267,94455,1,0,0:0:0:0:
286,365,94627,2,0,L|406:374,1,95.9999970703126,2|2,0:0|0:0,0:0:0:0:
485,295,94972,1,8,0:0:0:0:
341,189,95145,2,0,L|330:305,2,95.9999970703126,2|0|2,0:0|0:0|0:0,0:0:0:0:
473,23,95662,6,0,L|482:142,1,95.9999970703126,10|0,0:0|0:0,0:0:0:0:
252,227,96007,2,0,L|260:131,1,95.9999970703126,2|0,0:0|0:0,0:0:0:0:
482,288,96351,2,0,L|499:404,1,95.9999970703126,10|0,0:0|0:0,0:0:0:0:
341,189,96696,6,0,L|443:196,1,95.9999970703126,6|0,0:0|0:0,0:0:0:0:
298,327,97041,2,0,L|189:336,1,95.9999970703126,10|0,0:0|0:0,0:0:0:0:
393,262,97386,1,2,0:0:0:0:
364,382,97558,1,2,0:0:0:0:
256,214,97731,2,0,L|245:110,2,95.9999970703126,8|2|0,0:0|0:0|0:0,0:0:0:0:
450,346,98248,5,2,0:0:0:0:
349,211,98420,1,10,0:0:0:0:
325,375,98593,1,2,0:0:0:0:
446,179,98765,2,0,L|455:63,1,95.9999970703126,0|0,0:0|0:0,0:0:0:0:
339,290,99110,1,8,0:0:0:0:
317,277,99455,6,0,L|298:74,1,191.999994140625,6|10,0:0|0:0,0:0:0:0:
428,145,99972,1,0,0:0:0:0:
233,218,100145,2,0,L|121:208,1,95.9999970703126,2|2,0:0|0:0,0:0:0:0:
20,94,100489,1,8,0:0:0:0:
173,18,100662,6,0,L|164:120,1,95.9999970703126,2|0,0:0|0:0,0:0:0:0:
40,286,101007,2,0,L|30:175,1,95.9999970703126,2|8,0:0|0:0,0:0:0:0:
20,94,101351,1,0,0:0:0:0:
199,263,101524,1,0,0:0:0:0:
117,95,101696,1,0,0:0:0:0:
83,344,101869,1,8,0:0:0:0:
105,374,102213,6,0,L|204:365,1,95.9999970703126,4|2,0:0|0:0,0:0:0:0:
346,259,102558,1,10,0:0:0:0:
250,212,102731,1,2,0:0:0:0:
374,345,102903,1,2,0:0:0:0:
326,168,103076,1,2,0:0:0:0:
174,261,103248,1,8,0:0:0:0:
44,120,103420,6,0,L|34:17,1,95.9999970703126,2|0,0:0|0:0,0:0:0:0:
181,165,103765,2,0,L|172:277,1,95.9999970703126,2|8,0:0|0:0,0:0:0:0:
49,357,104110,2,0,L|40:245,1,95.9999970703126,2|0,0:0|0:0,0:0:0:0:
52,122,104455,1,0,0:0:0:0:
230,214,104627,2,0,L|130:205,1,95.9999970703126,10|0,0:0|0:0,0:0:0:0:
220,82,104972,6,0,L|415:64,1,191.999994140625,6|10,0:0|0:0,0:0:0:0:
493,145,105489,1,0,0:0:0:0:
345,250,105662,2,0,L|353:143,1,95.9999970703126,2|2,0:0|0:0,0:0:0:0:
432,310,106007,1,8,0:0:0:0:
334,375,106179,1,2,0:0:0:0:
213,220,106351,6,0,L|194:13,2,191.999994140625,0|10|0,0:0|0:0|0:0,0:0:0:0:
294,316,107213,1,0,0:0:0:0:
155,368,107386,2,0,L|59:359,1,95.9999970703126,8|0,0:0|0:0,0:0:0:0:
130,162,107731,6,0,P|196:186|278:150,1,138.000002632141,6|0,0:0|0:0,0:0:0:0:
287,148,108076,2,0,P|352:131|421:160,1,138.000002632141,10|0,0:0|0:0,0:0:0:0:
434,181,108420,2,0,L|421:324,1,138.000002632141,2|0,0:0|0:0,0:0:0:0:
419,347,108765,1,10,0:0:0:0:
54,228,109110,6,0,L|68:67,1,138.000002632141,2|0,0:0|0:0,0:0:0:0:
85,67,109455,2,0,P|148:41|218:62,1,138.000002632141,10|0,0:0|0:0,0:0:0:0:
237,78,109800,2,0,P|298:101|371:75,1,138.000002632141,2|0,0:0|0:0,0:0:0:0:
395,59,110145,5,10,0:0:0:0:
451,216,110317,1,10,0:0:0:0:
