osu file format v14

[General]
AudioFilename: audio.mp3
AudioLeadIn: 0
PreviewTime: 40403
Countdown: 0
SampleSet: Soft
StackLeniency: 0.5
Mode: 0
LetterboxInBreaks: 0
WidescreenStoryboard: 1

[Editor]
Bookmarks: 11179,33248,41524,63593,74627,85662,107731,129710,140744,151779,173848,176434
DistanceSpacing: 0.3
BeatDivisor: 4
GridSize: 8
TimelineZoom: 2.699999

[Metadata]
Title:2019 S' Agapo
TitleUnicode:2019 Σ' Αγαπώ
Artist:Eleni Foureira
ArtistUnicode:Ελένη Φουρέιρα
Creator:Riven
Version:LCFC's Insane
Source:
Tags:nikakis lcfc lowcombofc nokashi christmas greek pop
BeatmapID:1855012
BeatmapSetID:887376

[Difficulty]
HPDrainRate:6
CircleSize:4
OverallDifficulty:8.5
ApproachRate:9
SliderMultiplier:2.3
SliderTickRate:1

[Events]
//Background and Video events
0,0,"2019.jpg",0,0
//Break Periods
//Storyboard Layer 0 (Background)
//Storyboard Layer 1 (Fail)
//Storyboard Layer 2 (Pass)
//Storyboard Layer 3 (Foreground)
//Storyboard Sound Samples

[TimingPoints]
145,344.827586206897,4,2,1,60,1,0
11179,-133.333333333333,4,2,1,60,0,0
19455,-100,4,2,1,60,0,0
22213,-133.333333333333,4,2,1,60,0,0
30489,-100,4,2,1,60,0,0
33248,-133.333333333333,4,2,1,60,0,0
41524,-100,4,2,1,75,0,1
63593,-133.333333333333,4,2,1,50,0,0
69110,-100,4,2,1,70,0,0
85662,-100,4,2,1,80,0,1
107731,-100,4,2,1,60,0,0

[Colours]
Combo1 : 241,243,171
Combo2 : 247,106,149
Combo3 : 105,214,130
Combo4 : 241,180,226

[HitObjects]
45,26,11179,6,0,P|78:61|161:47,1,129.375004935265,2|0,0:0|0:0,0:0:0:0:
163,44,11524,2,0,P|191:82|186:130,1,86.2500032901765,10|0,0:0|0:0,0:0:0:0:
76,288,11869,1,2,0:0:0:0:
147,241,12041,1,0,0:0:0:0:
43,151,12213,2,0,P|85:145|123:166,1,86.2500032901765,10|0,0:0|0:0,0:0:0:0:
241,338,12558,6,0,P|323:344|373:279,1,172.500006580353,2|10,0:0|0:0,0:0:0:0:
490,201,13076,2,0,P|407:207|357:142,1,172.500006580353,2|2,0:0|0:0,0:0:0:0:
396,65,13593,2,0,P|350:61|310:50,1,86.2500032901765,8|0,0:0|0:0,0:0:0:0:
165,8,13938,6,0,P|113:40|114:102,1,129.375004935265,2|0,0:0|0:0,0:0:0:0:
109,113,14282,2,0,P|151:121|190:102,1,86.2500032901765,10|0,0:0|0:0,0:0:0:0:
24,60,14627,1,2,0:0:0:0:
15,160,14800,1,0,0:0:0:0:
182,259,14972,2,0,P|209:226|212:183,1,86.2500032901765,10|0,0:0|0:0,0:0:0:0:
4,251,15317,6,0,P|36:326|118:328,1,172.500006580353,2|10,0:0|0:0,0:0:0:0:
237,382,15834,2,0,P|268:306|350:304,1,172.500006580353,2|2,0:0|0:0,0:0:0:0:
429,371,16351,2,0,P|429:327|432:284,1,86.2500032901765,8|0,0:0|0:0,0:0:0:0:
487,115,16696,6,0,P|433:80|371:92,1,129.375004935265,2|0,0:0|0:0,0:0:0:0:
380,100,17041,2,0,P|348:130|307:137,1,86.2500032901765,10|0,0:0|0:0,0:0:0:0:
152,94,17386,1,2,0:0:0:0:
247,55,17558,1,0,0:0:0:0:
302,219,17731,2,0,P|261:206|233:174,1,86.2500032901765,10|0,0:0|0:0,0:0:0:0:
112,8,18076,6,0,P|114:95|96:179,1,172.500006580353,2|10,0:0|0:0,0:0:0:0:
90,262,18593,1,0,0:0:0:0:
90,262,18765,2,0,L|0:250,1,86.2500032901765,2|0,0:0|0:0,0:0:0:0:
233,174,19110,2,0,L|318:162,1,86.2500032901765,10|0,0:0|0:0,0:0:0:0:
219,360,19455,6,0,P|190:310|192:253,1,115,2|0,0:0|0:0,0:0:0:0:
292,23,19800,2,0,P|321:73|319:130,1,115,10|0,0:0|0:0,0:0:0:0:
139,318,20145,6,0,P|140:262|169:213,1,115,2|0,0:0|0:0,0:0:0:0:
372,65,20489,2,0,P|371:121|342:170,1,115,10|0,0:0|0:0,0:0:0:0:
92,243,20834,6,0,P|120:194|170:167,1,115,2|0,0:0|0:0,0:0:0:0:
419,140,21179,2,0,P|391:189|341:216,1,115,10|0,0:0|0:0,0:0:0:0:
87,155,21524,6,0,P|137:126|194:128,1,115,2|0,0:0|0:0,0:0:0:0:
424,228,21869,2,0,P|374:257|317:255,1,115,10|0,0:0|0:0,0:0:0:0:
129,75,22213,6,0,P|185:76|237:129,1,129.375004935265,6|0,0:0|0:0,0:0:0:0:
230,137,22558,2,0,P|273:141|308:118,1,86.2500032901765,10|0,0:0|0:0,0:0:0:0:
149,321,22903,1,2,0:0:0:0:
184,244,23076,1,0,0:0:0:0:
288,336,23248,2,0,P|264:370|223:383,1,86.2500032901765,10|0,0:0|0:0,0:0:0:0:
43,255,23593,6,0,P|21:175|75:113,1,172.500006580353,2|10,0:0|0:0,0:0:0:0:
221,55,24110,2,0,P|199:134|253:196,1,172.500006580353,2|2,0:0|0:0,0:0:0:0:
336,173,24627,2,0,P|376:164|433:166,1,86.2500032901765,8|0,0:0|0:0,0:0:0:0:
364,318,24972,6,0,P|303:331|251:296,1,129.375004935265,2|0,0:0|0:0,0:0:0:0:
258,284,25317,2,0,P|217:267|159:280,1,86.2500032901765,10|0,0:0|0:0,0:0:0:0:
22,382,25662,1,2,0:0:0:0:
114,346,25834,1,0,0:0:0:0:
134,192,26007,2,0,P|128:147|87:104,1,86.2500032901765,10|0,0:0|0:0,0:0:0:0:
258,284,26351,6,0,P|324:335|407:326,1,172.500006580353,2|10,0:0|0:0,0:0:0:0:
187,107,26869,2,0,P|120:158|37:149,1,172.500006580353,2|2,0:0|0:0,0:0:0:0:
279,54,27386,2,0,P|285:90|285:148,1,86.2500032901765,8|0,0:0|0:0,0:0:0:0:
129,352,27731,6,0,P|114:291|148:238,1,129.375004935265,2|0,0:0|0:0,0:0:0:0:
161,235,28076,2,0,P|194:262|248:259,1,86.2500032901765,10|0,0:0|0:0,0:0:0:0:
418,176,28420,1,2,0:0:0:0:
285,139,28593,1,0,0:0:0:0:
252,346,28765,2,0,P|291:330|316:282,1,86.2500032901765,10|0,0:0|0:0,0:0:0:0:
339,43,29110,6,0,P|328:129|329:215,1,172.500006580353,2|10,0:0|0:0,0:0:0:0:
399,276,29627,1,0,0:0:0:0:
399,276,29800,2,0,L|421:378,1,86.2500032901765,2|0,0:0|0:0,0:0:0:0:
236,263,30145,2,0,L|258:161,1,86.2500032901765,10|0,0:0|0:0,0:0:0:0:
143,39,30489,6,0,P|132:94|154:146,1,115,2|0,0:0|0:0,0:0:0:0:
369,345,30834,2,0,P|381:289|359:237,1,115,10|0,0:0|0:0,0:0:0:0:
82,115,31179,6,0,P|100:169|145:204,1,115,2|0,0:0|0:0,0:0:0:0:
431,268,31524,2,0,P|413:214|368:179,1,115,10|0,0:0|0:0,0:0:0:0:
67,213,31869,6,0,P|110:251|166:258,1,115,2|0,0:0|0:0,0:0:0:0:
446,170,32214,2,0,P|403:132|347:125,1,115,10|0,0:0|0:0,0:0:0:0:
103,305,32559,6,0,P|159:316|211:294,1,115,2|0,0:0|0:0,0:0:0:0:
409,79,32903,2,0,P|354:67|302:89,1,115,10|0,0:0|0:0,0:0:0:0:
256,192,33248,5,4,0:0:0:0:
256,192,33765,2,0,L|266:280,1,86.2500032901765,6|2,0:0|0:0,0:0:0:0:
236,117,34627,5,4,0:0:0:0:
236,117,35144,2,0,L|226:205,1,86.2500032901765,6|2,0:0|0:0,0:0:0:0:
311,56,36007,5,4,0:0:0:0:
311,56,36524,2,0,L|321:144,1,86.2500032901765,6|2,0:0|0:0,0:0:0:0:
156,0,37386,5,4,0:0:0:0:
156,0,37903,2,0,L|146:88,1,86.2500032901765,6|2,0:0|0:0,0:0:0:0:
488,192,38765,5,8,0:0:0:0:
24,192,39455,1,8,0:0:0:0:
368,256,40145,5,8,0:0:0:0:
144,128,40317,1,8,0:0:0:0:
268,321,40489,5,10,0:0:0:0:
243,62,40662,1,8,0:0:0:0:
76,303,40834,5,10,0:0:0:0:
62,273,40921,1,8,0:0:0:0:
59,241,41007,1,8,0:0:0:0:
68,210,41093,1,8,0:0:0:0:
87,185,41180,1,10,0:0:0:0:
107,147,41266,1,8,0:0:0:0:
106,104,41352,1,8,0:0:0:0:
86,66,41438,1,8,0:0:0:0:
52,42,41524,6,0,P|106:105|188:92,1,172.5,6|0,0:0|0:0,0:0:0:0:
201,81,41869,2,0,P|239:132|234:186,1,115,10|0,0:0|0:0,0:0:0:0:
128,364,42213,1,2,0:0:0:0:
304,231,42386,2,0,P|360:222|409:251,1,115,2|8,0:0|0:0,0:0:0:0:
110,283,42731,6,0,P|67:179|85:67,1,230,2|2,0:0|0:0,0:0:0:0:
304,231,43248,1,10,0:0:0:0:
408,250,43420,2,0,P|426:138|383:34,1,230,2|0,0:0|0:0,0:0:0:0:
295,40,43938,2,0,L|275:153,1,115,8|2,0:0|0:0,0:0:0:0:
401,372,44282,6,0,P|346:308|262:310,1,172.5,6|0,0:0|0:0,0:0:0:0:
277,318,44627,2,0,P|235:363|181:360,1,115,10|0,0:0|0:0,0:0:0:0:
0,246,44972,1,2,0:0:0:0:
169,165,45145,2,0,P|186:223|157:269,1,115,2|8,0:0|0:0,0:0:0:0:
0,109,45489,6,0,L|113:92,1,115,2|0,0:0|0:0,0:0:0:0:
340,43,45834,1,2,0:0:0:0:
169,165,46007,2,0,L|282:181,1,115,8|0,0:0|0:0,0:0:0:0:
427,119,46351,1,0,0:0:0:0:
326,268,46524,1,0,0:0:0:0:
245,24,46696,1,8,0:0:0:0:
245,24,47041,6,0,P|246:89|226:149,1,115,4|2,0:0|0:0,0:0:0:0:
416,306,47386,1,10,0:0:0:0:
173,199,47558,1,2,0:0:0:0:
427,119,47731,1,2,0:0:0:0:
242,303,47903,2,0,P|177:304|117:284,1,115,2|8,0:0|0:0,0:0:0:0:
17,118,48248,6,0,P|70:53|153:56,1,172.5,2|0,0:0|0:0,0:0:0:0:
163,69,48593,2,0,P|135:105|149:182,1,115,2|8,0:0|0:0,0:0:0:0:
341,350,48938,1,2,0:0:0:0:
416,306,49110,2,0,P|443:269|429:192,1,115,0|0,0:0|0:0,0:0:0:0:
275,115,49455,2,0,L|287:229,1,115,10|0,0:0|0:0,0:0:0:0:
98,381,49800,6,0,P|43:317|55:234,1,172.5,6|0,0:0|0:0,0:0:0:0:
69,225,50145,2,0,P|115:259|171:255,1,115,10|0,0:0|0:0,0:0:0:0:
376,100,50489,1,2,0:0:0:0:
309,36,50662,2,0,P|252:31|207:65,1,115,2|8,0:0|0:0,0:0:0:0:
260,272,51007,2,0,P|305:305|361:301,1,115,2|0,0:0|0:0,0:0:0:0:
429,243,51351,1,2,0:0:0:0:
376,100,51524,6,0,L|207:64,1,172.5,10|0,0:0|0:0,0:0:0:0:
154,1,51869,2,0,L|207:164,1,172.5,2|0,0:0|0:0,0:0:0:0:
180,243,52213,2,0,L|294:114,1,172.5,10|0,0:0|0:0,0:0:0:0:
376,100,52558,6,0,P|421:170|402:252,1,172.5,6|0,0:0|0:0,0:0:0:0:
410,267,52903,2,0,P|348:297|299:273,1,115,10|0,0:0|0:0,0:0:0:0:
108,149,53248,1,2,0:0:0:0:
142,338,53420,2,0,P|181:298|179:242,1,115,2|8,0:0|0:0,0:0:0:0:
13,92,53765,6,0,L|239:130,1,230,2|2,0:0|0:0,0:0:0:0:
410,267,54282,1,10,0:0:0:0:
437,178,54455,2,0,L|210:216,1,230,2|0,0:0|0:0,0:0:0:0:
64,284,54972,2,0,L|177:303,1,115,8|2,0:0|0:0,0:0:0:0:
396,102,55317,6,0,P|340:39|257:44,1,172.5,6|0,0:0|0:0,0:0:0:0:
272,53,55662,2,0,P|230:104|170:111,1,115,10|0,0:0|0:0,0:0:0:0:
43,22,56007,1,2,0:0:0:0:
105,153,56179,2,0,P|144:192|201:198,1,115,2|8,0:0|0:0,0:0:0:0:
396,102,56524,6,0,L|380:222,1,115,2|0,0:0|0:0,0:0:0:0:
252,305,56869,1,2,0:0:0:0:
363,331,57041,2,0,L|347:211,1,115,8|0,0:0|0:0,0:0:0:0:
479,155,57386,1,0,0:0:0:0:
274,134,57558,1,0,0:0:0:0:
449,276,57731,1,8,0:0:0:0:
448,275,58076,6,0,P|394:258|337:251,1,115,4|2,0:0|0:0,0:0:0:0:
116,358,58420,1,10,0:0:0:0:
281,168,58593,1,2,0:0:0:0:
19,238,58765,1,2,0:0:0:0:
159,53,58938,2,0,P|213:35|270:28,1,115,2|8,0:0|0:0,0:0:0:0:
511,204,59282,6,0,P|431:225|368:171,1,172.5,2|0,0:0|0:0,0:0:0:0:
370,153,59627,2,0,P|399:202|390:257,1,115,2|8,0:0|0:0,0:0:0:0:
163,368,59972,1,2,0:0:0:0:
77,336,60145,2,0,P|48:287|57:232,1,115,0|0,0:0|0:0,0:0:0:0:
270,28,60489,2,0,P|298:76|289:131,1,115,10|0,0:0|0:0,0:0:0:0:
8,154,60834,6,0,P|46:97|150:116,1,172.5,6|0,0:0|0:0,0:0:0:0:
124,114,61179,2,0,P|179:125|223:90,1,115,10|0,0:0|0:0,0:0:0:0:
428,250,61524,1,2,0:0:0:0:
412,170,61696,2,0,P|368:135|313:145,1,115,2|8,0:0|0:0,0:0:0:0:
127,275,62041,2,0,P|181:285|225:250,1,115,2|0,0:0|0:0,0:0:0:0:
270,28,62386,1,0,0:0:0:0:
412,170,62558,6,0,L|394:342,1,172.5,10|0,0:0|0:0,0:0:0:0:
295,316,62903,2,0,L|313:144,1,172.5,0|0,0:0|0:0,0:0:0:0:
213,118,63248,2,0,L|195:290,1,172.5,8|0,0:0|0:0,0:0:0:0:
227,362,63593,6,0,P|163:309|86:340,1,172.500006580353,6|0,0:0|0:0,0:0:0:0:
227,362,64110,2,0,P|303:331|367:383,1,172.500006580353,2|0,0:0|0:0,0:0:0:0:
451,373,64627,2,0,L|440:287,1,86.2500032901765,0|0,0:0|0:0,0:0:0:0:
318,213,64972,6,0,P|381:160|458:191,1,172.500006580353,0|0,0:0|0:0,0:0:0:0:
318,213,65489,2,0,P|241:182|177:234,1,172.500006580353,0|0,0:0|0:0,0:0:0:0:
94,224,66006,2,0,L|104:138,1,86.2500032901765,0|0,0:0|0:0,0:0:0:0:
319,43,66351,6,0,P|332:127|317:212,1,172.500006580353,6|0,0:0|0:0,0:0:0:0:
193,341,66869,2,0,P|179:256|194:171,1,172.500006580353,6|0,0:0|0:0,0:0:0:0:
403,223,67386,2,0,P|387:264|356:293,1,86.2500032901765,0|0,0:0|0:0,0:0:0:0:
100,345,67731,5,8,0:0:0:0:
194,171,67903,1,8,0:0:0:0:
289,353,68076,5,8,0:0:0:0:
221,91,68248,1,8,0:0:0:0:
464,281,68420,5,8,0:0:0:0:
440,245,68506,1,8,0:0:0:0:
403,223,68592,1,8,0:0:0:0:
361,219,68678,1,8,0:0:0:0:
321,234,68765,1,8,0:0:0:0:
267,268,68851,1,8,0:0:0:0:
203,270,68937,1,8,0:0:0:0:
147,240,69023,1,8,0:0:0:0:
113,185,69110,6,0,P|180:102|277:146,1,230,4|8,0:0|0:0,0:0:0:0:
464,281,69627,2,0,P|396:198|299:242,1,230,2|2,0:0|0:0,0:0:0:0:
327,325,70145,1,10,0:0:0:0:
327,325,70317,1,2,0:0:0:0:
91,290,70489,6,0,P|68:177|83:64,1,230,2|8,0:0|0:0,0:0:0:0:
291,17,71007,2,0,P|313:129|298:242,1,230,2|2,0:0|0:0,0:0:0:0:
157,356,71524,1,10,0:0:0:0:
157,356,71696,1,2,0:0:0:0:
298,242,71869,6,0,L|412:229,1,115,6|0,0:0|0:0,0:0:0:0:
197,76,72213,2,0,L|82:63,1,115,10|0,0:0|0:0,0:0:0:0:
332,129,72558,2,0,L|446:141,1,115,2|0,0:0|0:0,0:0:0:0:
271,343,72903,2,0,L|156:355,1,115,10|0,0:0|0:0,0:0:0:0:
28,255,73248,5,10,0:0:0:0:
260,169,73420,1,8,0:0:0:0:
1,170,73593,5,8,0:0:0:0:
272,253,73765,1,8,0:0:0:0:
173,21,73938,5,8,0:0:0:0:
138,45,74024,1,8,0:0:0:0:
119,83,74110,1,8,0:0:0:0:
121,126,74196,1,8,0:0:0:0:
144,162,74282,1,8,0:0:0:0:
179,206,74368,1,8,0:0:0:0:
186,262,74454,1,8,0:0:0:0:
164,314,74540,1,8,0:0:0:0:
118,348,74627,6,0,B|60:358|60:358|12:327,1,115,6|0,0:0|0:0,0:0:0:0:
211,103,74972,1,8,0:0:0:0:
278,187,75145,2,0,B|199:199|199:199|165:254|165:254|80:269,1,230,2|2,0:0|0:0,0:0:0:0:
332,370,75662,2,0,L|343:255,1,115,10|0,0:0|0:0,0:0:0:0:
268,29,76007,5,2,0:0:0:0:
78,70,76179,2,0,B|47:127|47:127|210:102,1,230,2|2,0:0|0:0,0:0:0:0:
305,118,76696,5,2,0:0:0:0:
153,218,76869,1,2,0:0:0:0:
343,255,77041,5,10,0:0:0:0:
115,81,77213,1,2,0:0:0:0:
79,366,77386,5,6,0:0:0:0:
153,218,77558,1,2,0:0:0:0:
430,369,77731,5,10,0:0:0:0:
282,295,77903,1,2,0:0:0:0:
433,18,78076,5,2,0:0:0:0:
359,166,78248,1,2,0:0:0:0:
82,15,78420,5,10,0:0:0:0:
230,89,78592,1,2,0:0:0:0:
256,192,78765,6,0,P|224:248|64:232,1,230,2|8,0:0|0:0,0:0:0:0:
43,161,79282,1,2,0:0:0:0:
43,161,79369,1,2,0:0:0:0:
43,161,79455,2,0,L|63:33,2,115,2|0|8,0:0|0:0|0:0,0:0:0:0:
43,161,80145,6,0,P|100:139|168:129,1,115,4|2,0:0|0:0,0:0:0:0:
391,207,80489,1,10,0:0:0:0:
221,55,80662,1,2,0:0:0:0:
322,320,80834,1,2,0:0:0:0:
474,150,81007,2,0,P|463:93|442:40,1,115,2|8,0:0|0:0,0:0:0:0:
130,115,81351,6,0,B|206:158|206:158|290:138,1,172.5,2|0,0:0|0:0,0:0:0:0:
298,123,81696,2,0,L|281:242,1,115,2|8,0:0|0:0,0:0:0:0:
92,364,82041,1,2,0:0:0:0:
35,300,82213,2,0,L|18:186,1,115,0|0,0:0|0:0,0:0:0:0:
146,1,82558,2,0,L|129:120,1,115,10|0,0:0|0:0,0:0:0:0:
340,329,82903,5,6,0:0:0:0:
340,329,82989,1,0,0:0:0:0:
340,329,83076,2,0,L|327:249,1,57.5,0|0,0:0|0:0,0:0:0:0:
192,211,83248,1,10,0:0:0:0:
192,211,83334,1,0,0:0:0:0:
192,211,83421,2,0,L|205:131,1,57.5,0|0,0:0|0:0,0:0:0:0:
228,19,83593,1,2,0:0:0:0:
146,1,83765,2,0,L|32:17,1,115,2|8,0:0|0:0,0:0:0:0:
192,211,84110,2,0,L|311:228,1,115,2|0,0:0|0:0,0:0:0:0:
395,60,84455,1,2,0:0:0:0:
157,343,84627,6,0,L|325:305,1,172.5,10|0,0:0|0:0,0:0:0:0:
305,227,84972,2,0,L|136:264,1,172.5,2|0,0:0|0:0,0:0:0:0:
326,306,85317,2,0,L|494:268,1,172.5,10|0,0:0|0:0,0:0:0:0:
499,190,85662,6,0,P|459:150|338:162,1,172.5,6|0,0:0|0:0,0:0:0:0:
362,165,86007,2,0,P|326:197|254:200,1,115,10|0,0:0|0:0,0:0:0:0:
83,121,86351,1,2,0:0:0:0:
288,115,86524,2,0,P|314:65|305:9,1,115,2|8,0:0|0:0,0:0:0:0:
30,193,86869,6,0,P|69:286|185:280,1,230,2|2,0:0|0:0,0:0:0:0:
442,367,87386,1,10,0:0:0:0:
377,265,87558,2,0,P|338:358|222:352,1,230,2|0,0:0|0:0,0:0:0:0:
340,191,88076,2,0,L|353:76,1,115,8|2,0:0|0:0,0:0:0:0:
72,1,88420,6,0,P|103:76|185:80,1,172.5,6|0,0:0|0:0,0:0:0:0:
174,66,88765,2,0,P|222:35|309:51,1,115,10|0,0:0|0:0,0:0:0:0:
435,147,89110,1,2,0:0:0:0:
248,124,89282,2,0,P|219:172|222:229,1,115,2|8,0:0|0:0,0:0:0:0:
408,358,89627,6,0,L|385:245,1,115,2|0,0:0|0:0,0:0:0:0:
376,39,89972,1,2,0:0:0:0:
435,147,90145,2,0,L|412:259,1,115,8|0,0:0|0:0,0:0:0:0:
298,327,90489,1,0,0:0:0:0:
509,253,90662,1,0,0:0:0:0:
248,124,90834,1,8,0:0:0:0:
248,124,91179,6,0,P|261:191|259:249,1,115,4|2,0:0|0:0,0:0:0:0:
163,307,91524,1,10,0:0:0:0:
377,245,91696,1,2,0:0:0:0:
110,180,91869,1,2,0:0:0:0:
360,113,92041,2,0,P|373:46|371:-12,1,115,2|8,0:0|0:0,0:0:0:0:
23,27,92386,6,0,P|81:85|164:74,1,172.5,2|0,0:0|0:0,0:0:0:0:
153,58,92731,2,0,P|129:125|153:190,1,115,2|8,0:0|0:0,0:0:0:0:
279,300,93076,1,2,0:0:0:0:
359,326,93248,2,0,P|383:259|359:194,1,115,0|0,0:0|0:0,0:0:0:0:
248,104,93593,2,0,L|267:226,1,115,10|0,0:0|0:0,0:0:0:0:
159,381,93938,6,0,P|82:375|38:270,1,172.5,6|0,0:0|0:0,0:0:0:0:
51,305,94282,2,0,P|80:252|67:190,1,115,10|0,0:0|0:0,0:0:0:0:
1,66,94627,1,2,0:0:0:0:
164,252,94800,2,0,P|224:250|271:208,1,115,2|8,0:0|0:0,0:0:0:0:
319,55,95145,2,0,P|273:20|217:20,1,115,2|0,0:0|0:0,0:0:0:0:
120,115,95489,1,2,0:0:0:0:
265,216,95662,6,0,L|435:193,1,172.5,10|0,0:0|0:0,0:0:0:0:
497,144,96007,2,0,L|431:303,1,172.5,2|0,0:0|0:0,0:0:0:0:
443,380,96351,2,0,L|337:243,1,172.5,10|0,0:0|0:0,0:0:0:0:
345,159,96696,6,0,P|397:95|376:15,1,172.5,6|0,0:0|0:0,0:0:0:0:
357,8,97041,2,0,P|318:47|262:50,1,115,10|0,0:0|0:0,0:0:0:0:
89,0,97386,1,2,0:0:0:0:
265,134,97558,2,0,P|210:119|180:72,1,115,2|8,0:0|0:0,0:0:0:0:
493,2,97903,6,0,L|461:240,1,230,2|2,0:0|0:0,0:0:0:0:
188,197,98420,1,10,0:0:0:0:
265,134,98593,2,0,L|297:372,1,230,2|0,0:0|0:0,0:0:0:0:
484,318,99110,2,0,L|371:294,1,115,8|2,0:0|0:0,0:0:0:0:
68,268,99455,6,0,P|105:195|187:196,1,172.5,6|0,0:0|0:0,0:0:0:0:
204,189,99800,2,0,P|218:246|170:304,1,115,10|0,0:0|0:0,0:0:0:0:
19,353,100145,1,2,0:0:0:0:
290,157,100317,2,0,P|261:108|207:94,1,115,2|8,0:0|0:0,0:0:0:0:
20,135,100662,6,0,L|37:248,1,115,2|0,0:0|0:0,0:0:0:0:
214,369,101007,1,2,0:0:0:0:
114,169,101179,2,0,L|131:55,1,115,8|0,0:0|0:0,0:0:0:0:
209,8,101524,1,0,0:0:0:0:
20,135,101696,1,0,0:0:0:0:
290,157,101869,1,8,0:0:0:0:
290,156,102213,6,0,P|306:101|308:44,1,115,4|2,0:0|0:0,0:0:0:0:
114,169,102558,1,10,0:0:0:0:
303,319,102731,1,2,0:0:0:0:
391,114,102903,1,2,0:0:0:0:
202,264,103076,2,0,P|185:319|183:376,1,115,2|8,0:0|0:0,0:0:0:0:
511,300,103420,6,0,P|474:227|391:225,1,172.5,2|0,0:0|0:0,0:0:0:0:
379,238,103765,2,0,P|352:187|377:112,1,115,2|8,0:0|0:0,0:0:0:0:
459,26,104110,1,2,0:0:0:0:
269,179,104282,2,0,P|211:176|158:117,1,115,0|0,0:0|0:0,0:0:0:0:
94,21,104627,2,0,L|208:7,1,115,10|0,0:0|0:0,0:0:0:0:
361,132,104972,6,0,P|364:216|303:281,1,172.5,6|0,0:0|0:0,0:0:0:0:
295,290,105317,2,0,P|247:259|190:261,1,115,10|0,0:0|0:0,0:0:0:0:
15,102,105662,1,2,0:0:0:0:
64,169,105834,2,0,P|120:171|168:140,1,115,2|8,0:0|0:0,0:0:0:0:
331,35,106179,2,0,P|387:32|435:63,1,115,2|0,0:0|0:0,0:0:0:0:
473,166,106524,1,0,0:0:0:0:
253,354,106696,6,0,L|232:182,1,172.5,10|0,0:0|0:0,0:0:0:0:
317,200,107041,2,0,L|337:371,1,172.5,0|0,0:0|0:0,0:0:0:0:
168,336,107386,2,0,L|147:164,1,172.5,8|0,0:0|0:0,0:0:0:0:
7,115,107731,6,0,L|120:133,1,115,6|0,0:0|0:0,0:0:0:0:
505,269,108076,2,0,L|391:250,1,115,10|0,0:0|0:0,0:0:0:0:
137,7,108420,6,0,L|204:100,1,115,2|0,0:0|0:0,0:0:0:0:
375,377,108765,2,0,L|307:283,1,115,10|0,0:0|0:0,0:0:0:0:
305,22,109110,6,0,L|286:135,1,115,2|0,0:0|0:0,0:0:0:0:
207,362,109455,2,0,L|225:248,1,115,10|0,0:0|0:0,0:0:0:0:
413,151,109800,5,2,0:0:0:0:
99,233,110145,5,10,0:0:0:0:
413,151,110317,1,10,0:0:0:0:
