osu file format v14

[General]
AudioFilename: audio.mp3
AudioLeadIn: 0
PreviewTime: 61618
Countdown: 0
SampleSet: Normal
StackLeniency: 0.4
Mode: 0
LetterboxInBreaks: 0
WidescreenStoryboard: 0

[Editor]
Bookmarks: 17270,48053,112227
DistanceSpacing: 3.5
BeatDivisor: 4
GridSize: 4
TimelineZoom: 2.4

[Metadata]
Title:Archangel
TitleUnicode:Archangel
Artist:Elena Siegman ft. Malukah & Clark S. Nova
ArtistUnicode:Elena Siegman ft. Malukah & Clark S. Nova
Creator:Violet-Fox
Version:The End
Source:Call of Duty: Black Ops II
Tags:Call of Duty Zombies Easter Egg Origins
BeatmapID:1383340
BeatmapSetID:652399

[Difficulty]
HPDrainRate:6
CircleSize:4.2
OverallDifficulty:9.7
ApproachRate:10
SliderMultiplier:2
SliderTickRate:1

[Events]
//Background and Video events
0,0,"Giant_mech_Origins_BOII.png",0,0
//Break Periods
//Storyboard Layer 0 (Background)
//Storyboard Layer 1 (Fail)
//Storyboard Layer 2 (Pass)
//Storyboard Layer 3 (Foreground)
//Storyboard Sound Samples

[TimingPoints]
184,260.869565217391,4,3,0,100,1,0
444,-100,4,3,0,80,0,0
1227,-100,4,3,0,60,0,0
1488,-100,4,3,0,80,0,0
2270,-100,4,3,0,70,0,0
5662,-100,4,3,0,50,0,0
6444,-100,4,3,0,70,0,0
7227,-100,4,3,0,50,0,0
8270,-100,4,3,0,70,0,0
10618,-100,4,3,0,100,0,0
10683,-100,4,3,0,70,0,0
14140,-100,4,3,0,50,0,0
14531,-100,4,3,0,80,0,0
14792,-100,4,3,0,70,0,0
16879,-100,4,3,0,80,0,0
17531,-100,4,3,0,60,0,0
17923,-100,4,3,0,50,0,0
18444,-100,4,3,0,65,0,0
18966,-100,4,3,0,80,0,0
19749,-100,4,3,0,70,0,0
20792,-100,4,3,0,80,0,0
22097,-133.333333333333,4,3,0,80,0,0
22879,-111.111111111111,4,3,0,60,0,0
23140,-100,4,3,0,80,0,0
23792,-100,4,3,0,65,0,0
24183,-100,4,3,0,70,0,0
26270,-100,4,3,0,50,0,0
27314,-83.3333333333333,4,1,0,80,0,0
28488,-83.3333333333333,4,1,0,60,0,0
28618,-100,4,3,0,80,0,0
31488,-83.3333333333333,4,1,0,80,0,0
32662,-83.3333333333333,4,1,0,60,0,0
32792,-100,4,3,0,80,0,0
35662,-83.3333333333333,4,1,0,80,0,0
36966,-100,4,3,0,80,0,0
39836,-83.3333333333333,4,1,0,80,0,0
42183,-133.333333333333,4,3,0,80,0,0
44010,-100,4,3,0,50,0,0
44531,-100,4,3,0,50,0,0
52357,-100,4,3,0,80,0,0
52488,-100,4,3,0,60,0,0
57053,-200,4,3,0,40,0,0
57836,-133.333333333333,4,3,0,60,0,0
58097,-100,4,3,0,70,0,0
58357,-80,4,3,0,80,0,0
58618,-80,4,3,0,90,0,0
58879,-80,4,3,0,70,0,0
59140,-100,4,3,0,70,0,0
59988,-100,4,3,0,40,0,0
60183,-100,4,3,0,70,0,0
60705,-100,4,1,0,50,0,0
61749,-100,4,3,0,50,0,0
64097,-100,4,3,0,30,0,0
64879,-100,4,3,0,60,0,0
69053,-100,4,1,0,70,0,0
70097,-100,4,3,0,60,0,0
75314,-125,4,3,0,60,0,0
77401,-100,4,1,0,80,0,0
78444,-100,4,3,0,60,0,0
81575,-100,4,1,0,80,0,0
82618,-100,4,3,0,45,0,0
85749,-100,4,1,0,80,0,0
86792,-100,4,3,0,45,0,0
87966,-100,4,3,0,60,0,0
88879,-100,4,3,0,75,0,0
90183,-100,4,3,0,100,0,0
93836,-100,4,3,0,75,0,0
94879,-100,4,3,0,80,0,0
95140,-125,4,3,0,70,0,0
96183,-100,4,3,0,70,0,0
97227,-125,4,3,0,70,0,0
105053,-125,4,3,0,50,0,0
105314,-125,4,3,0,60,0,0
105575,-125,4,3,0,70,0,0
108966,-100,4,1,0,80,0,0
110662,-100,4,2,0,30,0,0
110792,-100,4,3,0,70,0,0
115488,-100,4,3,0,50,0,0
117053,-100,4,3,0,70,0,0
117575,-100,4,3,0,80,0,0
118097,-100,4,3,0,90,0,0
119140,-100,4,3,0,60,0,0
122270,-142.857142857143,4,3,0,70,0,0
122597,-142.857142857143,4,3,0,10,0,0
122662,-142.857142857143,4,3,0,70,0,0
123053,-100,4,3,0,70,0,0
127488,-100,4,1,0,80,0,0
128792,-100,4,1,0,40,0,0
129575,-100,4,3,0,60,0,0
131662,-100,4,1,0,80,0,0
132966,-100,4,1,0,40,0,0
133749,-100,4,3,0,80,0,0
134792,-100,4,3,0,70,0,0
135053,-100,4,3,0,60,0,0
135314,-100,4,3,0,50,0,0
135575,-100,4,3,0,40,0,0
135836,-100,4,1,0,80,0,0
137140,-100,4,1,0,40,0,0
137923,-100,4,3,0,60,0,0
140010,-100,4,1,0,80,0,0
142097,-100,4,3,0,60,0,0
146270,-100,4,3,0,50,0,1
153575,-100,4,3,0,70,0,1
154618,-100,4,3,0,50,0,1
161923,-100,4,3,0,70,0,1
162966,-100,4,1,0,80,0,0
164010,-100,4,1,0,40,0,0
164792,-100,4,3,0,50,0,0
167140,-100,4,1,0,80,0,0
168183,-100,4,1,0,40,0,0
168966,-100,4,3,0,60,0,0
170270,-100,4,3,0,40,0,0
171314,-100,4,1,0,80,0,0
172357,-100,4,3,0,70,0,0
175749,-100,4,3,0,80,0,0
177575,-100,4,3,0,60,0,0
194531,-100,4,1,0,80,0,0
196357,-100,4,2,0,50,0,0
197401,-133.333333333333,4,2,0,50,0,0
198444,-133.333333333333,4,3,0,60,0,0
208879,-111.111111111111,4,3,0,50,0,0
211227,-111.111111111111,4,3,0,60,0,0
214357,-133.333333333333,4,3,0,50,0,0
214879,-83.3333333333333,4,3,0,50,0,0
217227,-200,4,3,0,70,0,0
219510,-200,4,3,0,30,0,0
219836,-200,4,1,0,70,0,0
222966,-200,4,3,0,80,0,0
223879,-200,4,2,0,5,0,0
224010,-200,4,1,0,70,0,0
227140,-100,4,3,0,80,0,0
227923,-100,4,2,0,5,0,0
228183,-100,4,1,0,70,0,0
231314,-100,4,3,0,80,0,0
232227,-100,4,2,0,5,0,0
232357,-100,4,1,0,70,0,0
235488,-100,4,3,0,50,0,0
236531,-117.647058823529,4,3,0,40,0,0
244879,-117.647058823529,4,3,0,60,0,0
252705,-100,4,1,0,80,0,0
253749,-100,4,1,0,40,0,0
254531,-100,4,3,0,70,0,0
256879,-100,4,1,0,80,0,0
257923,-100,4,1,0,40,0,0
258705,-100,4,3,0,70,0,0
261053,-100,4,1,0,80,0,0
262097,-100,4,1,0,50,0,0
263140,-100,4,3,0,70,0,0
265488,-100,4,3,0,80,0,0
270444,-117.647058823529,4,3,0,50,0,1
271488,-117.647058823529,4,3,0,80,0,1
272140,-117.647058823529,4,3,0,60,0,1
272401,-117.647058823529,4,3,0,50,0,1
273575,-117.647058823529,4,3,0,80,0,1
274227,-117.647058823529,4,3,0,70,0,1
274618,-117.647058823529,4,3,0,50,0,1
275662,-117.647058823529,4,3,0,70,0,1
277749,-117.647058823529,4,3,0,90,0,1
278792,-117.647058823529,4,3,0,60,0,1
284010,-100,4,1,0,70,0,1
286097,-100,4,3,0,70,0,1
287140,-117.647058823529,4,3,0,50,0,1
291314,-133.333333333333,4,3,0,70,0,1
292357,-100,4,3,0,60,0,1
296010,-100,4,3,0,40,0,1
296270,-100,4,3,0,50,0,1
296662,-100,4,3,0,60,0,1
297053,-100,4,3,0,40,0,1
297314,-100,4,3,0,50,0,1
297705,-100,4,3,0,60,0,1
298097,-100,4,3,0,40,0,1
298357,-100,4,3,0,50,0,1
298749,-100,4,3,0,60,0,1
299140,-100,4,3,0,40,0,1
300966,-100,4,1,0,60,0,1
301749,-100,4,1,0,70,0,1
302531,-100,4,1,0,90,0,1
302792,-100,4,3,0,60,0,0
308270,-100,4,3,0,40,0,0
308531,-100,4,3,0,60,0,0
309053,-100,4,3,0,80,0,0

[HitObjects]
328,98,184,5,2,0:0:0:0:
314,128,249,1,0,0:0:0:0:
294,156,314,2,0,P|275:175|242:188,1,50
180,233,444,1,2,0:0:0:0:
194,263,509,1,0,0:0:0:0:
213,291,574,2,0,P|232:310|266:324,1,50
329,295,705,5,2,0:0:0:0:
369,282,770,1,0,0:0:0:0:
411,286,836,1,2,0:0:0:0:
447,308,900,1,0,0:0:0:0:
472,342,966,5,2,0:0:0:0:
449,329,1031,1,0,0:0:0:0:
432,311,1096,1,2,0:0:0:0:
421,287,1161,1,0,0:0:0:0:
422,265,1227,5,2,0:0:0:0:
424,241,1292,1,0,0:0:0:0:
420,218,1357,1,2,0:0:0:0:
410,198,1422,1,0,0:0:0:0:
394,181,1487,5,0,0:0:0:0:
365,162,1553,1,0,0:0:0:0:
331,156,1618,1,0,0:0:0:0:
297,162,1683,1,0,0:0:0:0:
270,184,1749,1,2,0:0:0:0:
303,186,1814,1,0,0:0:0:0:
324,159,1879,1,2,0:0:0:0:
333,126,1944,1,0,0:0:0:0:
324,92,2010,1,6,0:0:0:0:
21,225,2270,5,4,1:2:0:0:
216,204,2401,1,0,0:0:0:0:
47,187,2531,1,0,0:0:0:0:
193,234,2662,1,0,0:0:0:0:
31,269,2792,1,0,0:0:0:0:
195,177,2923,1,0,0:0:0:0:
57,295,3053,2,0,L|138:237,1,100,4|0,1:2|0:0,0:0:0:0:
251,125,3314,6,0,L|299:177,1,50,4|0,1:2|0:0,0:0:0:0:
411,298,3444,1,0,0:0:0:0:
334,69,3575,1,0,0:0:0:0:
290,284,3705,1,0,0:0:0:0:
460,140,3836,1,0,0:0:0:0:
302,291,3966,1,0,0:0:0:0:
431,31,4097,2,0,L|378:127,1,100,4|0,1:2|0:0,0:0:0:0:
200,326,4357,6,0,L|243:280,1,50,4|0,1:2|0:0,0:0:0:0:
357,163,4488,1,0,0:0:0:0:
118,251,4618,1,0,0:0:0:0:
373,237,4749,1,0,0:0:0:0:
101,331,4879,2,0,B|145:332|145:332|156:326|156:326|218:326,1,100,4|0,1:2|0:0,0:0:0:0:
39,249,5140,5,0,0:0:0:0:
29,284,5205,1,0,0:0:0:0:
29,322,5270,2,0,P|31:346|51:374,1,50
118,251,5401,5,0,0:0:0:0:
128,216,5466,1,0,0:0:0:0:
128,178,5531,2,0,P|126:154|108:125,1,50
46,28,5662,5,0,0:0:0:0:
54,40,5727,1,0,0:0:0:0:
64,51,5792,1,0,0:0:0:0:
74,62,5857,1,0,0:0:0:0:
85,72,5922,1,0,0:0:0:0:
97,81,5988,1,0,0:0:0:0:
109,89,6053,1,0,0:0:0:0:
122,97,6118,1,0,0:0:0:0:
135,103,6183,1,0,0:0:0:0:
149,109,6248,1,0,0:0:0:0:
163,113,6314,1,0,0:0:0:0:
178,117,6379,1,0,0:0:0:0:
192,120,6444,5,6,1:2:0:0:
405,109,6575,1,0,0:0:0:0:
209,27,6705,2,0,L|248:81,1,50
357,245,6836,1,0,0:0:0:0:
332,34,6966,1,0,0:0:0:0:
267,237,7097,1,0,0:0:0:0:
205,122,7227,5,0,1:0:0:0:
217,122,7292,1,0,0:0:0:0:
229,120,7357,2,0,P|257:114|284:99,1,50
394,175,7488,5,0,1:0:0:0:
382,175,7553,1,0,0:0:0:0:
370,173,7618,2,0,P|342:167|313:151,1,50
197,211,7749,5,0,1:0:0:0:
221,219,7814,1,0,0:0:0:0:
245,228,7879,1,0,0:0:0:0:
270,237,7944,1,0,0:0:0:0:
294,246,8009,1,0,1:0:0:0:
318,254,8075,1,0,0:0:0:0:
343,263,8140,1,0,0:0:0:0:
367,272,8205,1,0,0:0:0:0:
392,282,8270,6,0,L|438:300,4,50,0|0|0|0|4,0:0|0:0|0:0|0:0|0:1,0:0:0:0:
312,343,8792,2,0,L|259:324,3,50
251,321,9053,5,0,0:0:0:0:
230,316,9118,1,0,0:0:0:0:
208,318,9183,1,0,0:0:0:0:
188,327,9249,1,0,0:0:0:0:
172,341,9314,1,0,0:0:0:0:
158,357,9379,1,0,0:0:0:0:
138,365,9444,1,0,0:0:0:0:
116,365,9510,1,0,0:0:0:0:
91,347,9575,5,0,0:0:0:0:
77,320,9640,1,0,0:0:0:0:
78,290,9705,1,0,0:0:0:0:
96,267,9770,1,0,0:0:0:0:
123,255,9836,1,0,0:0:0:0:
152,257,9901,1,0,0:0:0:0:
173,277,9966,1,0,0:0:0:0:
180,305,10031,1,0,0:0:0:0:
149,304,10097,5,0,0:0:0:0:
126,285,10162,1,0,0:0:0:0:
107,261,10227,1,0,0:0:0:0:
96,233,10292,1,0,0:0:0:0:
90,203,10357,1,0,0:0:0:0:
94,173,10423,1,0,0:0:0:0:
106,146,10488,1,0,0:0:0:0:
290,58,10618,6,0,L|234:86,1,50,4|0,0:1|0:0,0:0:0:0:
106,146,10749,1,0,0:0:0:0:
330,187,10879,1,0,0:0:0:0:
138,58,11010,1,0,0:0:0:0:
271,243,11140,1,0,0:0:0:0:
295,278,11205,1,0,0:0:0:0:
319,313,11270,1,0,0:0:0:0:
423,96,11401,6,0,P|357:116|330:193,1,150
453,282,11662,2,0,L|441:224,1,50
404,0,11792,2,0,L|423:99,1,100
319,313,12053,6,0,L|325:211,1,100
226,49,12314,1,0,0:0:0:0:
210,280,12444,2,0,L|220:119,1,150
89,17,12705,2,0,L|84:75,1,50
70,249,12836,1,0,0:0:0:0:
226,49,12966,1,0,0:0:0:0:
122,315,13097,6,0,L|146:268,1,50
219,150,13227,1,0,0:0:0:0:
16,293,13357,1,0,0:0:0:0:
296,272,13488,1,0,0:0:0:0:
253,274,13553,1,0,0:0:0:0:
211,277,13618,1,0,0:0:0:0:
24,194,13749,6,0,L|127:240,1,100
32,114,14010,1,0,0:0:0:0:
82,355,14140,5,0,0:0:0:0:
87,334,14205,1,0,0:0:0:0:
92,313,14270,1,0,0:0:0:0:
98,293,14335,1,0,0:0:0:0:
103,272,14400,1,0,0:0:0:0:
109,252,14466,1,0,0:0:0:0:
115,234,14531,6,0,L|131:173,1,50
246,48,14662,2,0,L|232:112,1,50
296,272,14792,1,0,0:0:0:0:
303,237,14857,1,0,0:0:0:0:
310,203,14922,1,0,0:0:0:0:
465,47,15053,6,0,L|419:97,1,50
378,280,15183,2,0,L|448:201,1,100
313,59,15444,1,0,0:0:0:0:
330,77,15509,1,0,0:0:0:0:
347,95,15574,1,0,0:0:0:0:
285,320,15705,2,0,L|298:259,1,50
163,80,15836,2,0,L|235:185,1,100
355,344,16097,1,0,0:0:0:0:
151,245,16227,5,0,0:0:0:0:
151,245,16292,1,0,0:0:0:0:
151,245,16357,2,0,L|203:277,1,50
420,306,16488,1,0,0:0:0:0:
420,306,16553,1,0,0:0:0:0:
420,306,16618,2,0,L|368:274,1,50
164,340,16749,1,0,0:0:0:0:
294,202,16879,5,0,0:0:0:0:
311,193,16944,1,0,0:0:0:0:
330,186,17010,1,0,0:0:0:0:
349,183,17075,1,0,0:0:0:0:
368,184,17140,2,0,P|403:196|422:215,1,50
503,79,17270,5,0,0:0:0:0:
484,76,17335,1,0,0:0:0:0:
465,77,17400,2,0,P|430:89|411:108,1,50
312,164,17531,5,0,0:0:0:0:
286,178,17596,1,0,0:0:0:0:
257,186,17661,1,0,0:0:0:0:
227,187,17726,1,0,0:0:0:0:
198,179,17791,1,0,0:0:0:0:
172,165,17857,1,0,0:0:0:0:
158,149,17923,6,0,P|146:121|150:96,1,50
245,21,18053,2,0,P|240:49|224:68,1,50
93,43,18183,2,0,P|117:26|141:24,1,50
319,25,18314,1,0,0:0:0:0:
84,131,18444,6,0,B|45:148|45:148|45:156|45:156|-20:183,1,100
0,325,18705,2,0,B|39:308|39:308|39:300|39:300|104:273,1,100
318,334,18966,2,0,L|258:287,1,50,4|0,0:1|0:0,0:0:0:0:
132,189,19097,2,0,L|229:268,1,100
401,293,19357,1,0,0:0:0:0:
245,124,19488,2,0,L|290:177,1,50
448,342,19618,1,0,0:0:0:0:
479,50,19749,6,0,L|463:210,1,150
448,342,20010,2,0,L|456:271,1,50
357,120,20140,1,0,0:0:0:0:
401,293,20270,1,0,0:0:0:0:
378,75,20401,2,0,L|345:143,1,50
265,292,20531,1,0,0:0:0:0:
409,161,20662,1,0,0:0:0:0:
193,42,20792,6,0,B|220:75|220:75|218:89|218:89|247:127,1,100,4|0,0:1|0:0,0:0:0:0:
181,254,21053,2,0,L|80:113,1,150
10,18,21314,2,0,L|52:74,1,50
244,123,21444,1,0,0:0:0:0:
0,193,21575,5,0,0:0:0:0:
49,193,21640,1,0,0:0:0:0:
99,193,21705,1,0,0:0:0:0:
244,329,21836,1,0,0:0:0:0:
194,329,21901,1,0,0:0:0:0:
144,330,21966,1,0,0:0:0:0:
313,242,22097,6,0,P|386:247|428:309,1,150.000005722046,2|0,0:0|0:0,0:0:0:0:
484,164,22488,6,0,P|439:178|415:278,1,150.000005722046,2|0,0:0|0:0,0:0:0:0:
330,81,22879,6,0,L|359:176,1,89.9999972534181
247,22,23140,6,0,L|231:154,1,100
122,298,23401,2,0,L|145:158,1,100
176,9,23662,2,0,L|164:70,1,50
97,241,23792,1,0,0:0:0:0:
292,259,23923,2,0,P|263:210|206:193,1,100
192,348,24183,6,0,L|310:348,1,100
494,200,24444,1,0,0:0:0:0:
245,350,24575,6,0,L|328:266,1,100
353,31,24836,1,0,0:0:0:0:
418,271,24966,2,0,L|383:140,1,100
189,66,25227,5,0,0:0:0:0:
189,66,25292,1,0,0:0:0:0:
189,66,25357,1,0,0:0:0:0:
189,66,25423,1,0,0:0:0:0:
181,91,25488,5,0,0:0:0:0:
181,91,25553,1,0,0:0:0:0:
181,91,25618,1,0,0:0:0:0:
181,91,25683,1,0,0:0:0:0:
174,120,25749,5,0,0:0:0:0:
174,120,25814,1,0,0:0:0:0:
174,120,25879,1,0,0:0:0:0:
174,120,25944,1,0,0:0:0:0:
164,152,26010,5,0,0:0:0:0:
164,152,26075,1,0,0:0:0:0:
164,152,26140,1,0,0:0:0:0:
164,152,26205,1,0,0:0:0:0:
155,181,26270,6,0,P|177:209|220:223,1,50
266,290,26401,2,0,P|273:255|256:213,1,50
294,116,26531,2,0,P|265:138|251:181,1,50
188,216,26662,5,0,0:0:0:0:
174,243,26727,1,0,0:0:0:0:
171,273,26792,1,0,0:0:0:0:
177,301,26857,1,0,0:0:0:0:
193,327,26922,1,0,0:0:0:0:
215,346,26988,1,0,0:0:0:0:
243,358,27053,1,0,0:0:0:0:
273,359,27118,1,0,0:0:0:0:
302,352,27183,1,0,0:0:0:0:
471,240,27314,5,0,0:0:0:0:
253,263,27444,1,0,0:0:0:0:
483,268,27575,5,0,0:0:0:0:
236,188,27705,1,0,0:0:0:0:
481,302,27836,5,0,0:0:0:0:
245,118,27966,1,0,0:0:0:0:
468,335,28097,5,0,0:0:0:0:
280,52,28227,1,0,0:0:0:0:
443,361,28357,6,0,B|407:313|407:313|376:225,1,119.999996337891
392,55,28618,5,4,0:1:0:0:
370,68,28683,1,0,0:0:0:0:
351,85,28748,1,0,0:0:0:0:
336,105,28813,1,0,0:0:0:0:
325,127,28878,1,0,0:0:0:0:
317,151,28944,1,0,0:0:0:0:
314,175,29009,1,0,0:0:0:0:
315,200,29074,1,0,0:0:0:0:
318,221,29140,6,0,P|327:251|350:273,1,50
368,373,29270,2,0,P|382:345|382:313,1,50
457,237,29401,2,0,P|427:246|405:269,1,50
311,328,29531,5,0,0:0:0:0:
281,347,29597,1,0,0:0:0:0:
247,355,29662,1,4,0:0:0:0:
212,353,29727,1,0,0:0:0:0:
179,339,29792,1,0,0:0:0:0:
154,314,29857,1,0,0:0:0:0:
136,283,29923,1,0,0:0:0:0:
128,248,29988,1,0,0:0:0:0:
130,213,30053,1,0,0:0:0:0:
146,182,30118,1,0,0:0:0:0:
171,158,30183,1,2,0:0:0:0:
204,145,30249,1,0,0:0:0:0:
238,139,30314,1,0,0:0:0:0:
271,147,30379,1,0,0:0:0:0:
256,178,30444,5,0,0:0:0:0:
230,202,30510,1,0,0:0:0:0:
199,218,30575,1,0,0:0:0:0:
164,221,30640,1,0,0:0:0:0:
130,212,30705,1,4,0:0:0:0:
101,191,30770,1,0,0:0:0:0:
85,159,30836,1,0,0:0:0:0:
84,124,30901,1,0,0:0:0:0:
95,135,30966,5,0,0:0:0:0:
102,147,31031,1,0,0:0:0:0:
111,159,31096,1,0,0:0:0:0:
121,171,31161,1,0,0:0:0:0:
130,183,31226,1,2,0:0:0:0:
139,195,31292,1,0,0:0:0:0:
148,207,31357,1,0,0:0:0:0:
298,62,31488,5,0,0:0:0:0:
165,275,31618,1,0,0:0:0:0:
344,79,31749,5,0,0:0:0:0:
114,271,31879,1,0,0:0:0:0:
381,107,32010,5,0,0:0:0:0:
70,260,32140,1,0,0:0:0:0:
409,143,32270,5,0,0:0:0:0:
23,241,32401,1,0,0:0:0:0:
424,179,32531,6,0,B|371:211|371:211|310:218,1,119.999996337891
197,82,32792,5,0,0:0:0:0:
377,67,32923,1,0,0:0:0:0:
175,187,33053,2,0,L|231:154,1,50
424,179,33183,1,0,0:0:0:0:
295,314,33314,1,0,0:0:0:0:
277,323,33379,1,0,0:0:0:0:
260,332,33444,2,0,L|207:358,1,50
23,241,33575,5,2,0:0:0:0:
62,232,33640,1,0,0:0:0:0:
101,239,33705,1,0,0:0:0:0:
135,259,33770,1,0,0:0:0:0:
155,291,33836,2,0,P|164:313|160:352,1,50,2|0,0:0|0:0,0:0:0:0:
69,318,33966,5,0,0:0:0:0:
34,297,34031,1,0,0:0:0:0:
11,264,34097,1,2,0:0:0:0:
1,227,34161,1,0,0:0:0:0:
10,190,34227,2,0,P|19:168|49:143,1,50
132,114,34357,5,2,0:0:0:0:
141,110,34422,1,0,0:0:0:0:
150,107,34487,1,0,0:0:0:0:
160,104,34552,1,0,0:0:0:0:
169,101,34618,2,0,L|219:82,1,50,4|0,0:0|0:0,0:0:0:0:
302,132,34749,5,0,0:0:0:0:
292,135,34814,1,0,0:0:0:0:
283,138,34879,1,4,0:0:0:0:
273,141,34944,1,0,0:0:0:0:
264,144,35010,2,0,L|214:163,1,50
219,235,35140,1,4,0:0:0:0:
247,225,35205,1,0,0:0:0:0:
275,216,35270,1,0,0:0:0:0:
304,206,35335,1,0,0:0:0:0:
332,197,35400,1,4,0:0:0:0:
361,187,35466,1,0,0:0:0:0:
389,178,35531,1,0,0:0:0:0:
273,57,35662,5,0,0:0:0:0:
412,251,35792,1,0,0:0:0:0:
237,67,35923,5,0,0:0:0:0:
455,253,36053,1,0,0:0:0:0:
206,86,36183,5,0,0:0:0:0:
482,280,36314,1,0,0:0:0:0:
173,96,36444,6,0,B|204:148|204:148|264:167,1,119.999996337891
483,159,36705,2,0,B|452:107|452:107|392:88,1,119.999996337891
303,279,36966,6,0,P|335:287|352:300,1,50
222,291,37097,2,0,P|199:316|161:323,1,50
252,213,37227,2,0,P|252:181|274:153,1,50
389,110,37357,2,0,L|374:173,1,50
349,296,37488,1,0,0:0:0:0:
356,261,37553,1,0,0:0:0:0:
363,227,37618,1,0,0:0:0:0:
371,193,37683,1,0,0:0:0:0:
378,159,37748,1,0,0:0:0:0:
232,31,37814,5,0,0:0:0:0:
232,31,37879,2,0,L|277:72,1,50
442,208,38010,1,0,0:0:0:0:
410,183,38075,1,0,0:0:0:0:
378,159,38140,2,0,L|329:122,1,50
159,165,38270,2,0,L|220:165,1,50
389,78,38401,1,0,0:0:0:0:
357,93,38466,1,0,0:0:0:0:
326,109,38531,2,0,L|258:142,1,50
159,165,38662,5,0,0:0:0:0:
159,165,38727,1,0,0:0:0:0:
159,165,38792,2,0,P|152:194|161:237,1,50
193,329,38923,2,0,P|200:300|191:257,1,50
36,218,39053,5,0,0:0:0:0:
36,218,39118,1,0,0:0:0:0:
36,218,39183,1,0,0:0:0:0:
57,63,39314,1,0,0:0:0:0:
96,266,39444,1,0,0:0:0:0:
168,22,39575,2,0,L|136:133,1,100
282,275,39836,5,0,0:0:0:0:
245,75,39966,1,0,0:0:0:0:
310,281,40097,5,0,0:0:0:0:
207,64,40227,1,0,0:0:0:0:
338,291,40357,5,0,0:0:0:0:
169,55,40488,1,0,0:0:0:0:
360,300,40618,5,0,0:0:0:0:
133,49,40749,1,0,0:0:0:0:
203,264,40879,5,0,0:0:0:0:
375,177,41010,1,0,0:0:0:0:
167,235,41140,5,0,0:0:0:0:
405,218,41270,1,0,0:0:0:0:
140,200,41401,5,0,0:0:0:0:
419,265,41531,1,0,0:0:0:0:
121,165,41662,6,0,B|182:168|182:168|237:212,1,119.999996337891
429,312,41923,2,0,B|368:309|368:309|313:265,1,119.999996337891
397,71,42183,5,0,0:0:0:0:
279,96,42314,1,0,0:0:0:0:
228,204,42444,2,0,L|188:295,1,75.0000028610231
51,67,42836,5,0,0:0:0:0:
185,71,42966,1,0,0:0:0:0:
285,161,43097,1,0,0:0:0:0:
51,67,43227,5,0,0:0:0:0:
51,67,43292,1,0,0:0:0:0:
51,67,43357,1,0,0:0:0:0:
285,161,43488,1,0,0:0:0:0:
185,71,43618,2,0,L|137:166,1,75.0000028610231
151,137,44010,6,0,B|233:353|-23:381|-5:97|183:166|155:266|321:236,1,500
399,68,44792,6,0,B|393:121|433:178|433:178|311:243|419:363|505:360|571:227|516:92|351:235|281:108,1,600
176,39,45705,6,0,L|225:81,1,50
241,170,45836,1,0,0:0:0:0:
245,194,45901,1,0,0:0:0:0:
250,219,45966,1,0,0:0:0:0:
255,243,46031,5,0,0:0:0:0:
259,269,46097,2,0,L|275:371,1,100
203,337,46292,1,0,0:0:0:0:
199,311,46358,2,0,L|183:209,1,100
113,186,46553,1,0,0:0:0:0:
116,211,46619,2,0,L|132:313,1,100
61,292,46814,1,0,0:0:0:0:
57,266,46880,2,0,L|41:164,1,100
235,0,47140,5,0,0:0:0:0:
272,102,47270,1,0,0:0:0:0:
168,140,47401,1,0,0:0:0:0:
131,36,47531,1,0,0:0:0:0:
272,102,47662,5,0,0:0:0:0:
303,118,47727,1,0,0:0:0:0:
334,134,47792,1,0,0:0:0:0:
468,254,47923,1,0,0:0:0:0:
443,94,48053,1,0,0:0:0:0:
411,77,48118,1,0,0:0:0:0:
378,59,48183,6,0,L|328:32,7,50
303,118,48705,2,0,L|248:134,7,50
321,203,49227,2,0,L|294:253,7,50
372,356,49749,2,0,L|336:301,1,50
176,217,49879,1,0,0:0:0:0:
404,255,50010,2,0,B|364:233|364:233|359:224|359:224|299:190,1,100
95,159,50270,5,0,0:0:0:0:
120,143,50335,1,0,0:0:0:0:
150,138,50400,1,0,0:0:0:0:
179,142,50465,1,0,0:0:0:0:
217,153,50531,5,0,0:0:0:0:
193,127,50596,1,0,0:0:0:0:
161,112,50661,1,0,0:0:0:0:
127,111,50726,1,0,0:0:0:0:
94,123,50792,5,0,0:0:0:0:
129,104,50857,1,0,0:0:0:0:
168,103,50922,1,0,0:0:0:0:
205,119,50987,1,0,0:0:0:0:
230,150,51053,5,0,0:0:0:0:
217,107,51118,1,0,0:0:0:0:
186,75,51183,1,0,0:0:0:0:
143,63,51248,1,0,0:0:0:0:
100,73,51314,5,0,0:0:0:0:
70,111,51379,1,0,0:0:0:0:
61,158,51444,1,0,0:0:0:0:
79,199,51510,1,0,0:0:0:0:
95,210,51575,1,0,0:0:0:0:
112,219,51640,1,0,0:0:0:0:
130,227,51705,1,0,0:0:0:0:
148,235,51770,1,0,0:0:0:0:
168,231,51836,5,0,0:0:0:0:
208,211,51901,1,0,0:0:0:0:
251,200,51966,1,0,0:0:0:0:
295,206,52031,1,0,0:0:0:0:
333,230,52097,2,0,P|365:272|364:332,1,100
168,312,52357,5,4,0:1:0:0:
298,133,52488,1,0,0:0:0:0:
280,351,52618,2,0,L|256:298,1,50
178,127,52749,1,0,0:0:0:0:
150,358,52879,2,0,L|170:303,1,50
246,90,53010,1,0,0:0:0:0:
57,285,53140,5,0,0:0:0:0:
57,285,53205,1,0,0:0:0:0:
57,285,53270,2,0,L|61:349,1,50
47,61,53401,1,0,0:0:0:0:
51,185,53531,1,0,0:0:0:0:
60,334,53662,2,0,L|53:215,1,100
152,37,53923,5,0,0:0:0:0:
54,234,54053,1,0,0:0:0:0:
121,115,54183,2,0,B|166:114|166:114|182:117|182:117|229:116,1,100
449,122,54444,6,0,L|402:148,1,50
245,194,54575,2,0,L|292:220,1,50
454,149,54705,2,0,L|402:162,1,50
239,166,54836,2,0,L|277:203,1,50
385,326,54966,1,0,0:0:0:0:
324,115,55097,1,0,0:0:0:0:
256,295,55227,2,0,L|231:351,1,50
218,212,55357,2,0,L|243:156,1,50
391,38,55488,5,0,0:0:0:0:
458,235,55618,1,0,0:0:0:0:
417,32,55749,5,0,0:0:0:0:
431,240,55879,1,0,0:0:0:0:
366,50,56010,5,0,0:0:0:0:
482,222,56140,1,0,0:0:0:0:
346,67,56270,5,0,0:0:0:0:
502,205,56400,1,0,0:0:0:0:
321,98,56531,6,0,L|326:160,1,50
342,307,56662,1,0,0:0:0:0:
233,138,56792,6,0,L|280:178,1,50
395,270,56923,1,0,0:0:0:0:
90,198,57053,6,0,B|145:217|165:273|165:273|191:255|191:255|207:319|265:330,1,250
267,255,57836,6,0,L|284:205,3,37.5000014305115
214,182,58097,6,0,L|193:122,3,50
279,115,58357,6,0,L|302:47,3,62.5
67,43,58618,6,0,P|131:29|197:62,1,125
305,276,58879,2,0,L|276:214,1,62.5
299,55,59010,1,0,0:0:0:0:
455,136,59140,6,0,L|397:108,1,50
197,134,59270,2,0,L|255:106,1,50
470,249,59401,2,0,L|412:221,1,50
184,50,59531,2,0,L|242:22,1,50
339,246,59662,5,0,0:0:0:0:
305,276,59727,1,0,0:0:0:0:
263,292,59792,1,0,0:0:0:0:
218,292,59857,1,0,0:0:0:0:
176,273,59923,1,0,0:0:0:0:
165,262,59988,1,0,0:0:0:0:
155,250,60053,1,0,0:0:0:0:
146,238,60118,1,0,0:0:0:0:
129,201,60183,5,0,0:0:0:0:
106,167,60249,1,0,0:0:0:0:
70,148,60314,1,0,0:0:0:0:
30,155,60379,1,0,0:0:0:0:
8,188,60444,1,0,0:0:0:0:
198,349,60705,5,0,0:0:0:0:
182,128,60836,1,0,0:0:0:0:
217,344,60966,1,0,0:0:0:0:
290,135,61097,1,0,0:0:0:0:
237,347,61227,1,0,0:0:0:0:
393,193,61357,1,0,0:0:0:0:
251,362,61488,1,0,0:0:0:0:
461,299,61618,1,0,0:0:0:0:
241,274,61749,6,0,L|118:275,1,100
293,192,62010,2,0,L|416:193,1,100
251,362,62270,1,0,0:0:0:0:
224,142,62401,1,0,0:0:0:0:
383,292,62531,1,0,0:0:0:0:
378,19,62662,6,0,L|378:137,1,100
383,292,62923,1,0,0:0:0:0:
291,92,63053,1,0,0:0:0:0:
290,350,63183,2,0,L|290:232,1,100
291,92,63444,1,0,0:0:0:0:
124,352,63575,2,0,L|230:294,1,100
413,256,63836,2,0,L|307:198,1,100
276,23,64097,6,0,B|303:17|303:17|333:24,1,50
495,68,64227,2,0,B|468:74|468:74|438:67,1,50
388,105,64357,1,0,0:0:0:0:
377,122,64423,1,0,0:0:0:0:
367,139,64488,1,0,0:0:0:0:
356,156,64553,1,0,0:0:0:0:
346,173,64618,1,0,0:0:0:0:
335,190,64683,1,0,0:0:0:0:
325,207,64749,1,0,0:0:0:0:
81,242,64879,6,0,L|206:223,1,100
388,105,65140,1,0,0:0:0:0:
199,216,65270,1,0,0:0:0:0:
284,91,65401,1,0,0:0:0:0:
170,301,65531,1,0,0:0:0:0:
126,63,65662,2,0,L|148:179,1,100
117,20,65923,2,0,L|139:136,1,100
59,255,66183,5,0,0:0:0:0:
50,240,66249,1,0,0:0:0:0:
44,222,66314,2,0,P|41:169|78:118,1,100
237,220,66575,5,0,0:0:0:0:
245,240,66641,1,0,0:0:0:0:
250,261,66706,2,0,P|252:313|216:365,1,100
218,134,66966,6,0,L|278:153,5,50
345,193,67357,2,0,L|399:166,3,50
421,289,67618,2,0,L|369:312,5,50
311,348,68010,5,0,0:0:0:0:
301,336,68075,1,0,0:0:0:0:
293,324,68140,1,0,0:0:0:0:
286,310,68205,1,0,0:0:0:0:
282,296,68270,1,0,0:0:0:0:
280,281,68336,1,0,0:0:0:0:
280,266,68401,1,0,0:0:0:0:
282,251,68466,1,0,0:0:0:0:
287,237,68531,5,0,0:0:0:0:
293,223,68596,1,0,0:0:0:0:
301,210,68662,1,0,0:0:0:0:
311,199,68727,1,0,0:0:0:0:
323,190,68792,1,0,0:0:0:0:
336,182,68857,1,0,0:0:0:0:
349,176,68923,1,0,0:0:0:0:
459,224,69053,5,0,0:0:0:0:
312,47,69183,1,0,0:0:0:0:
479,206,69314,1,0,0:0:0:0:
262,130,69444,1,0,0:0:0:0:
478,244,69575,1,0,0:0:0:0:
393,30,69705,1,0,0:0:0:0:
499,225,69836,1,0,0:0:0:0:
271,226,69966,1,0,0:0:0:0:
444,121,70097,5,0,0:0:0:0:
414,114,70162,1,0,0:0:0:0:
384,110,70227,2,0,P|336:107|275:122,1,100
157,44,70488,1,0,0:0:0:0:
187,37,70553,1,0,0:0:0:0:
217,33,70618,2,0,P|265:30|326:45,1,100
178,172,70879,1,0,0:0:0:0:
30,5,71010,5,0,0:0:0:0:
37,35,71075,1,0,0:0:0:0:
40,65,71140,2,0,P|43:113|28:174,1,100
107,292,71401,1,0,0:0:0:0:
114,262,71466,1,0,0:0:0:0:
118,232,71531,2,0,P|121:184|106:123,1,100
26,334,71792,1,0,0:0:0:0:
211,251,71923,5,0,0:0:0:0:
240,243,71988,1,0,0:0:0:0:
269,243,72053,2,0,P|321:251|388:288,1,100
295,319,72314,1,0,0:0:0:0:
203,187,72445,1,0,0:0:0:0:
334,96,72575,1,0,0:0:0:0:
426,227,72706,1,0,0:0:0:0:
203,187,72836,1,0,0:0:0:0:
334,96,72966,6,0,L|319:164,1,50
295,319,73097,1,0,0:0:0:0:
415,106,73227,6,0,P|399:50|293:23,1,150
145,103,73488,1,0,0:0:0:0:
332,94,73618,2,0,L|251:99,1,50
95,106,73749,2,0,L|176:101,1,50
278,212,73879,1,0,0:0:0:0:
45,198,74010,2,0,L|158:203,1,100
0,196,74270,2,0,L|113:201,1,100
295,319,74531,1,0,0:0:0:0:
200,128,74662,5,0,0:0:0:0:
213,156,74727,1,0,0:0:0:0:
217,185,74792,2,0,P|207:237|135:281,1,100
95,106,75053,1,0,0:0:0:0:
207,335,75183,1,0,0:0:0:0:
6,234,75314,2,0,L|103:282,1,80
287,357,75575,5,0,0:0:0:0:
306,352,75640,1,0,0:0:0:0:
324,343,75705,2,0,P|363:317|380:256,1,80
451,118,75966,5,0,0:0:0:0:
451,118,76031,1,0,0:0:0:0:
451,118,76097,2,0,L|451:175,1,40
379,152,76292,1,0,0:0:0:0:
379,152,76358,2,0,L|379:209,1,40
306,184,76553,1,0,0:0:0:0:
306,184,76619,2,0,L|306:241,1,40
324,343,76749,1,0,0:0:0:0:
302,104,76879,2,0,L|306:200,1,80
324,343,77140,1,4,0:1:0:0:
324,343,77401,5,0,0:0:0:0:
172,171,77531,1,0,0:0:0:0:
368,293,77662,1,0,0:0:0:0:
146,233,77792,1,0,0:0:0:0:
376,225,77923,1,0,0:0:0:0:
159,300,78053,1,0,0:0:0:0:
418,172,78183,1,0,0:0:0:0:
125,359,78314,1,0,0:0:0:0:
333,150,78444,5,0,0:0:0:0:
333,150,78510,1,0,0:0:0:0:
333,150,78575,2,0,P|316:171|307:205,1,50
172,171,78705,5,0,0:0:0:0:
172,171,78771,1,0,0:0:0:0:
172,171,78836,2,0,P|174:197|192:228,1,50
278,285,78966,5,0,0:0:0:0:
287,285,79031,1,0,0:0:0:0:
297,285,79096,1,0,0:0:0:0:
307,285,79161,1,0,0:0:0:0:
317,285,79226,1,0,0:0:0:0:
327,285,79292,1,0,0:0:0:0:
337,285,79357,1,0,0:0:0:0:
347,285,79422,1,0,0:0:0:0:
358,285,79488,5,4,0:0:0:0:
387,280,79553,1,0,0:0:0:0:
414,268,79618,1,0,0:0:0:0:
437,249,79683,1,0,0:0:0:0:
455,224,79748,1,0,0:0:0:0:
465,196,79814,1,0,0:0:0:0:
467,166,79879,1,0,0:0:0:0:
462,128,79944,1,0,0:0:0:0:
448,95,80010,5,2,0:0:0:0:
421,72,80075,1,0,0:0:0:0:
387,60,80140,1,0,0:0:0:0:
352,56,80205,1,0,0:0:0:0:
318,65,80270,1,0,0:0:0:0:
292,89,80336,1,0,0:0:0:0:
280,121,80401,1,0,0:0:0:0:
280,155,80466,1,0,0:0:0:0:
276,189,80531,1,4,0:0:0:0:
258,219,80597,1,0,0:0:0:0:
229,238,80662,1,0,0:0:0:0:
195,246,80727,1,0,0:0:0:0:
160,242,80792,5,0,0:0:0:0:
130,222,80857,1,0,0:0:0:0:
112,191,80923,1,0,0:0:0:0:
109,156,80988,1,0,0:0:0:0:
114,121,81053,1,2,0:0:0:0:
135,93,81118,1,0,0:0:0:0:
167,80,81183,1,0,0:0:0:0:
202,75,81249,1,0,0:0:0:0:
236,82,81314,1,0,0:0:0:0:
261,106,81379,1,0,0:0:0:0:
278,136,81444,1,0,0:0:0:0:
241,323,81575,5,0,0:0:0:0:
28,193,81705,1,0,0:0:0:0:
274,279,81836,1,0,0:0:0:0:
41,143,81966,1,0,0:0:0:0:
304,242,82097,1,0,0:0:0:0:
53,97,82227,1,0,0:0:0:0:
331,206,82357,1,0,0:0:0:0:
59,53,82488,1,0,0:0:0:0:
100,268,82618,5,0,0:0:0:0:
100,268,82683,1,0,0:0:0:0:
100,268,82749,2,0,P|90:300|95:341,1,50
194,187,82879,5,0,0:0:0:0:
194,187,82944,1,0,0:0:0:0:
194,187,83010,2,0,P|164:202|138:235,1,50
315,187,83140,6,0,P|283:177|241:182,1,50
100,268,83270,2,0,P|98:301|114:339,1,50
204,343,83401,5,2,0:0:0:0:
223,343,83466,1,0,0:0:0:0:
243,343,83531,1,0,0:0:0:0:
263,344,83596,1,0,0:0:0:0:
289,342,83662,5,0,0:0:0:0:
310,330,83727,1,0,0:0:0:0:
327,311,83792,1,0,0:0:0:0:
339,289,83857,1,0,0:0:0:0:
344,264,83923,1,2,0:0:0:0:
340,239,83988,1,0,0:0:0:0:
326,217,84053,1,0,0:0:0:0:
306,201,84118,1,0,0:0:0:0:
281,195,84183,5,2,0:0:0:0:
255,198,84249,1,0,0:0:0:0:
234,212,84314,1,0,0:0:0:0:
218,231,84379,1,0,0:0:0:0:
216,255,84444,1,2,0:0:0:0:
226,278,84510,1,0,0:0:0:0:
247,291,84575,1,0,0:0:0:0:
271,289,84640,1,0,0:0:0:0:
287,278,84705,5,4,0:0:0:0:
294,264,84770,1,0,0:0:0:0:
292,248,84836,1,0,0:0:0:0:
282,236,84901,1,0,0:0:0:0:
268,230,84966,1,4,0:0:0:0:
253,230,85031,1,0,0:0:0:0:
238,234,85097,1,0,0:0:0:0:
225,242,85162,1,0,0:0:0:0:
211,248,85227,1,4,0:0:0:0:
196,248,85292,1,0,0:0:0:0:
181,243,85357,1,0,0:0:0:0:
168,235,85423,1,0,0:0:0:0:
160,222,85488,1,4,0:0:0:0:
350,339,85749,5,0,0:0:0:0:
86,285,85879,1,0,0:0:0:0:
374,254,86010,5,0,0:0:0:0:
110,201,86140,1,0,0:0:0:0:
400,170,86270,5,0,0:0:0:0:
136,117,86400,1,0,0:0:0:0:
425,82,86531,5,0,0:0:0:0:
161,29,86661,1,0,0:0:0:0:
196,233,86792,5,0,0:0:0:0:
196,233,86857,1,0,0:0:0:0:
196,233,86923,2,0,B|224:242|224:242|263:265,1,50
400,170,87053,2,0,B|372:176|372:176|333:202,1,50
199,124,87183,2,0,B|231:132|231:132|266:156,1,50
424,42,87314,2,0,B|393:50|393:50|357:74,1,50
215,18,87444,2,0,B|247:26|247:26|282:50,1,50
400,170,87575,5,0,0:0:0:0:
415,195,87640,1,0,0:0:0:0:
422,224,87705,1,0,0:0:0:0:
419,253,87770,1,0,0:0:0:0:
405,280,87836,2,0,P|383:307|360:317,1,50
241,252,87966,5,0,0:0:0:0:
213,239,88031,1,0,0:0:0:0:
182,235,88097,1,0,0:0:0:0:
152,237,88162,1,0,0:0:0:0:
124,247,88227,1,0,0:0:0:0:
100,265,88292,1,0,0:0:0:0:
83,290,88357,2,0,P|73:305|62:342,1,50
193,349,88488,5,0,0:0:0:0:
219,334,88553,1,0,0:0:0:0:
239,311,88618,1,0,0:0:0:0:
252,284,88683,1,0,0:0:0:0:
255,253,88749,1,0,0:0:0:0:
250,223,88814,1,0,0:0:0:0:
235,196,88879,2,0,P|217:177|178:167,1,50
94,155,89010,5,0,0:0:0:0:
88,163,89075,1,0,0:0:0:0:
82,171,89140,1,0,0:0:0:0:
76,179,89205,1,0,0:0:0:0:
70,187,89270,1,0,0:0:0:0:
64,195,89336,1,0,0:0:0:0:
58,203,89401,2,0,L|19:261,1,50
31,110,89531,5,0,0:0:0:0:
37,102,89597,1,0,0:0:0:0:
43,94,89662,2,0,L|82:36,1,50
316,186,89792,2,0,L|277:128,1,50
119,105,89923,2,0,L|158:163,1,50
392,13,90053,2,0,L|353:71,1,50
235,196,90183,5,0,0:0:0:0:
227,209,90249,1,0,0:0:0:0:
220,227,90314,1,0,0:0:0:0:
221,251,90379,1,0,0:0:0:0:
235,277,90444,1,0,0:0:0:0:
265,295,90510,1,0,0:0:0:0:
304,294,90575,1,0,0:0:0:0:
335,268,90640,1,0,0:0:0:0:
341,228,90705,1,0,0:0:0:0:
348,188,90770,1,0,0:0:0:0:
376,159,90836,1,0,0:0:0:0:
411,141,90901,1,0,0:0:0:0:
450,144,90966,5,0,0:0:0:0:
483,165,91031,1,0,0:0:0:0:
495,203,91097,1,0,0:0:0:0:
489,242,91162,1,0,0:0:0:0:
464,273,91227,1,0,0:0:0:0:
426,285,91292,1,0,0:0:0:0:
387,275,91357,1,0,0:0:0:0:
355,249,91423,1,0,0:0:0:0:
316,225,91488,5,0,0:0:0:0:
271,219,91553,1,0,0:0:0:0:
227,229,91618,1,0,0:0:0:0:
193,258,91683,1,0,0:0:0:0:
177,300,91749,1,0,0:0:0:0:
426,285,91879,1,0,0:0:0:0:
193,258,92010,6,0,L|194:328,1,50
411,141,92140,2,0,L|411:211,1,50
190,27,92270,2,0,L|191:97,1,50
307,304,92401,1,0,0:0:0:0:
342,57,92531,1,0,0:0:0:0:
193,258,92662,5,0,0:0:0:0:
211,234,92727,1,0,0:0:0:0:
230,211,92792,2,0,L|297:125,1,100
49,74,93053,2,0,L|113:88,1,50
359,147,93183,1,0,0:0:0:0:
38,149,93314,2,0,L|100:129,1,50
342,57,93444,1,0,0:0:0:0:
28,217,93575,2,0,L|129:145,1,100
259,82,93836,5,0,0:0:0:0:
316,225,93966,1,0,0:0:0:0:
342,57,94097,5,0,0:0:0:0:
250,287,94227,1,0,0:0:0:0:
402,128,94357,1,0,0:0:0:0:
97,84,94488,2,0,L|176:96,1,50
402,128,94618,1,0,0:0:0:0:
402,128,94683,1,0,0:0:0:0:
402,128,94749,1,0,0:0:0:0:
204,203,94879,5,0,0:0:0:0:
204,203,95010,1,0,0:0:0:0:
437,338,95140,6,0,L|448:234,1,80
319,344,95336,1,0,0:0:0:0:
319,344,95401,2,0,L|330:240,1,80
295,94,95662,1,0,0:0:0:0:
204,307,95792,1,0,0:0:0:0:
295,94,95923,2,0,L|259:190,1,80
104,318,96183,5,0,0:0:0:0:
104,318,96314,1,0,0:0:0:0:
36,172,96444,5,0,0:0:0:0:
36,172,96575,1,0,0:0:0:0:
115,26,96705,6,0,L|84:79,1,50
36,172,96836,5,0,0:0:0:0:
36,172,96901,1,0,0:0:0:0:
36,172,96966,1,0,0:0:0:0:
104,318,97097,1,0,0:0:0:0:
213,108,97227,6,0,L|171:199,1,80
371,25,97423,1,0,0:0:0:0:
371,25,97488,2,0,L|367:123,1,80
473,264,97749,1,0,0:0:0:0:
461,54,97879,1,0,0:0:0:0:
473,264,98010,2,0,L|468:160,1,80
294,101,98270,5,0,0:0:0:0:
294,101,98401,1,0,0:0:0:0:
258,252,98531,5,0,0:0:0:0:
258,252,98662,1,0,0:0:0:0:
106,293,98792,6,0,L|166:278,1,40
258,252,98923,5,0,0:0:0:0:
258,252,98988,1,0,0:0:0:0:
258,252,99053,1,0,0:0:0:0:
294,101,99118,1,0,0:0:0:0:
106,293,99314,6,0,B|121:278|128:264|128:264|134:265|134:265|151:243|180:216,1,80
388,171,99575,2,0,B|373:186|366:200|366:200|360:199|360:199|343:221|314:248,1,80
194,347,99836,1,0,0:0:0:0:
193,132,99966,1,0,0:0:0:0:
295,322,100097,2,0,L|248:233,1,80
157,61,100357,5,0,0:0:0:0:
166,78,100422,1,0,0:0:0:0:
175,96,100487,1,0,0:0:0:0:
184,114,100552,1,0,0:0:0:0:
193,132,100617,1,0,0:0:0:0:
257,251,100749,6,0,L|229:198,1,40
78,110,100879,1,0,0:0:0:0:
36,293,101010,2,0,L|74:237,1,40
232,42,101140,1,0,0:0:0:0:
257,251,101270,1,0,0:0:0:0:
137,33,101401,6,0,L|188:128,1,80
334,63,101597,1,0,0:0:0:0:
334,63,101662,2,0,L|302:166,1,80
479,133,101923,1,0,0:0:0:0:
462,144,101988,1,0,0:0:0:0:
446,156,102053,1,0,0:0:0:0:
430,167,102118,1,0,0:0:0:0:
413,179,102183,1,0,0:0:0:0:
316,348,102314,5,0,0:0:0:0:
316,348,102444,5,0,0:0:0:0:
382,116,102575,1,0,0:0:0:0:
420,352,102705,1,0,0:0:0:0:
284,152,102836,1,0,0:0:0:0:
211,362,102966,2,0,L|241:278,1,80
184,146,103227,6,0,L|161:198,1,40
25,335,103357,2,0,L|48:283,1,40
157,61,103488,1,0,0:0:0:0:
146,82,103553,1,0,0:0:0:0:
135,104,103618,2,0,L|86:205,1,80
237,286,103879,1,0,0:0:0:0:
141,343,104010,6,0,L|105:241,1,80
59,46,104270,1,0,0:0:0:0:
21,212,104401,1,0,0:0:0:0:
209,45,104531,2,0,L|161:88,1,40
234,249,104662,2,0,L|191:201,1,40
179,71,104792,2,0,L|175:135,1,40
340,197,104923,2,0,L|275:193,1,40
175,295,105053,5,0,0:0:0:0:
201,312,105118,1,0,0:0:0:0:
231,322,105183,1,0,0:0:0:0:
263,325,105249,1,0,0:0:0:0:
294,322,105314,1,0,0:0:0:0:
324,313,105379,1,0,0:0:0:0:
351,296,105444,1,0,0:0:0:0:
377,277,105510,1,0,0:0:0:0:
176,110,105575,6,0,L|224:154,1,40
438,149,105705,2,0,L|379:182,1,40
175,295,105836,1,0,0:0:0:0:
187,310,105901,1,0,0:0:0:0:
200,326,105966,1,0,0:0:0:0:
212,341,106031,1,0,0:0:0:0:
223,353,106097,6,0,P|279:318|287:276,1,80
372,106,106292,1,0,0:0:0:0:
372,106,106357,2,0,P|316:141|308:183,1,80
426,344,106618,5,0,0:0:0:0:
420,324,106683,1,0,0:0:0:0:
414,305,106748,1,0,0:0:0:0:
409,286,106813,1,0,0:0:0:0:
403,267,106878,1,0,0:0:0:0:
429,44,107010,5,0,0:0:0:0:
337,282,107140,1,0,0:0:0:0:
327,27,107270,1,0,0:0:0:0:
173,232,107401,1,0,0:0:0:0:
185,216,107466,1,0,0:0:0:0:
197,200,107531,1,0,0:0:0:0:
209,184,107596,1,0,0:0:0:0:
221,169,107662,6,0,L|261:117,1,40
154,14,107792,2,0,L|162:79,1,40
226,208,107923,2,0,L|217:142,1,40
69,145,108053,2,0,L|120:184,1,40
286,296,108183,1,0,0:0:0:0:
238,58,108314,1,0,0:0:0:0:
46,308,108444,2,0,L|104:230,1,80
339,221,108705,6,0,L|309:184,1,40
152,343,108836,2,0,L|194:301,1,40
457,174,108966,6,0,L|412:119,1,50,4|0,0:1|0:0,0:0:0:0:
207,323,109097,2,0,L|265:261,1,50
425,135,109227,5,0,0:0:0:0:
344,357,109357,1,0,0:0:0:0:
190,97,109488,5,0,0:0:0:0:
42,357,109618,1,0,0:0:0:0:
105,32,109749,5,0,0:0:0:0:
241,286,109879,1,0,0:0:0:0:
6,119,110010,5,0,0:0:0:0:
291,31,110140,1,0,0:0:0:0:
99,260,110270,5,0,0:0:0:0:
208,8,110401,1,0,0:0:0:0:
176,353,110531,2,0,L|185:243,1,100
190,97,110792,5,0,0:0:0:0:
190,97,110857,1,0,0:0:0:0:
190,97,110923,1,0,0:0:0:0:
190,97,110988,1,0,0:0:0:0:
190,97,111053,1,0,0:0:0:0:
242,287,111183,1,0,0:0:0:0:
59,148,111314,2,0,B|79:166|99:169|99:169|100:180|100:180|123:185|148:218,1,100
266,41,111575,2,0,B|246:59|226:62|226:62|225:73|225:73|202:78|177:111,1,100
343,220,111836,5,0,0:0:0:0:
343,220,111901,1,0,0:0:0:0:
343,220,111966,1,0,0:0:0:0:
419,46,112097,2,0,L|393:104,1,50
497,274,112227,2,0,L|442:235,1,50
297,138,112357,1,0,0:0:0:0:
297,138,112423,1,0,0:0:0:0:
297,138,112488,1,0,0:0:0:0:
305,354,112618,6,0,B|305:332|297:306|297:306|307:309|307:309|296:284|300:247,1,100
453,117,112879,1,0,0:0:0:0:
453,117,112944,1,0,0:0:0:0:
453,117,113010,1,0,0:0:0:0:
453,117,113075,1,0,0:0:0:0:
453,117,113140,1,0,0:0:0:0:
401,332,113270,1,0,0:0:0:0:
347,82,113401,2,0,L|368:189,1,100
401,332,113662,5,0,0:0:0:0:
394,297,113727,1,0,0:0:0:0:
387,263,113792,1,0,0:0:0:0:
260,34,113923,2,0,P|231:68|226:157,1,100
298,269,114183,1,0,0:0:0:0:
137,70,114314,2,0,P|140:114|199:181,1,100
330,209,114574,1,0,0:0:0:0:
69,173,114705,5,0,0:0:0:0:
86,190,114770,1,0,0:0:0:0:
107,204,114835,1,0,0:0:0:0:
131,212,114900,1,0,0:0:0:0:
157,214,114966,2,0,P|182:212|215:197,1,50
163,28,115097,2,0,P|146:47|134:81,1,50
178,244,115227,2,0,P|194:224|206:190,1,50
51,108,115358,2,0,P|52:133|67:166,1,50
178,244,115488,6,0,P|197:260|231:272,1,50
398,240,115618,1,0,0:0:0:0:
355,307,115749,2,0,P|335:323|301:335,1,50
125,349,115879,1,0,0:0:0:0:
398,240,116010,6,0,P|366:213|281:209,1,100
75,296,116270,1,0,0:0:0:0:
433,329,116401,2,0,P|429:287|372:224,1,100
122,275,116662,1,0,0:0:0:0:
404,168,116792,2,0,L|294:207,1,100
67,137,117053,5,0,0:0:0:0:
95,116,117118,1,0,0:0:0:0:
127,103,117183,1,0,0:0:0:0:
162,102,117249,1,0,0:0:0:0:
195,110,117314,1,0,0:0:0:0:
223,130,117379,1,0,0:0:0:0:
239,160,117444,1,0,0:0:0:0:
244,194,117510,1,0,0:0:0:0:
231,231,117575,5,0,0:0:0:0:
221,274,117640,1,0,0:0:0:0:
242,313,117705,1,0,0:0:0:0:
277,340,117770,1,0,0:0:0:0:
321,348,117836,1,0,0:0:0:0:
364,338,117901,1,0,0:0:0:0:
397,307,117966,1,0,0:0:0:0:
410,264,118031,1,0,0:0:0:0:
392,216,118097,5,0,0:0:0:0:
351,178,118162,1,0,0:0:0:0:
296,178,118227,1,0,0:0:0:0:
248,204,118292,1,0,0:0:0:0:
212,245,118357,1,0,0:0:0:0:
156,251,118423,1,0,0:0:0:0:
113,215,118488,1,0,0:0:0:0:
96,33,118618,6,0,B|121:36|138:47|138:47|142:37|142:37|157:47|212:49,1,100
374,74,118879,2,0,B|349:77|332:88|332:88|328:78|328:78|313:88|258:90,1,100
296,178,119140,1,0,0:0:0:0:
301,207,119205,1,0,0:0:0:0:
306,237,119270,1,0,0:0:0:0:
311,266,119335,1,0,0:0:0:0:
317,296,119400,1,0,0:0:0:0:
476,350,119531,1,0,0:0:0:0:
436,130,119662,6,0,L|452:234,1,100
212,208,119923,5,0,0:0:0:0:
222,191,119988,1,0,0:0:0:0:
233,174,120053,2,0,L|292:75,1,100
93,54,120249,1,0,0:0:0:0:
93,54,120314,2,0,L|144:139,1,100
251,292,120575,1,0,0:0:0:0:
33,321,120705,2,0,L|84:235,1,100
389,238,120966,6,0,B|372:230|353:242|353:242|354:229|354:229|335:241|291:235,1,100
178,335,121227,2,0,L|351:335,1,150
439,238,121488,2,0,L|370:238,1,50
290,85,121618,1,0,0:0:0:0:
330,85,121683,1,0,0:0:0:0:
370,85,121748,1,0,0:0:0:0:
233,174,121879,1,0,0:0:0:0:
481,276,122010,2,0,L|381:234,1,100
290,85,122270,6,0,P|240:77|255:180,1,174.999994659424,2|0,0:0|0:0,0:0:0:0:
290,85,122662,6,0,P|240:77|255:180,1,174.999994659424,2|0,0:0|0:0,0:0:0:0:
173,218,123053,6,0,P|146:182|142:93,1,100
232,23,123314,2,0,L|232:184,1,150
232,347,123575,2,0,L|233:287,1,50
386,116,123705,1,0,0:0:0:0:
388,237,123836,5,0,0:0:0:0:
387,212,123901,1,0,0:0:0:0:
387,187,123966,1,0,0:0:0:0:
386,162,124031,1,0,0:0:0:0:
386,137,124096,1,0,0:0:0:0:
190,19,124227,2,0,L|232:70,1,50
257,270,124357,2,0,L|225:146,1,100
104,316,124618,1,0,0:0:0:0:
81,81,124749,6,0,L|66:150,1,50
25,337,124879,2,0,L|48:224,1,100
221,57,125140,2,0,L|139:141,1,100
191,322,125401,5,4,0:0:0:0:
204,314,125466,1,0,0:0:0:0:
218,310,125531,1,0,0:0:0:0:
233,312,125597,1,0,0:0:0:0:
237,326,125662,5,4,0:0:0:0:
250,334,125727,1,0,0:0:0:0:
264,338,125792,1,0,0:0:0:0:
279,336,125858,1,0,0:0:0:0:
288,324,125923,5,4,0:0:0:0:
301,316,125988,1,0,0:0:0:0:
315,312,126053,1,0,0:0:0:0:
330,314,126119,1,0,0:0:0:0:
343,319,126183,6,0,B|371:329|371:329|391:351,1,50,4|0,0:0|0:0,0:0:0:0:
461,163,126314,2,0,B|433:173|433:173|413:195,1,50
356,297,126444,5,8,0:0:0:0:
343,319,126509,1,0,0:0:0:0:
326,337,126574,1,0,0:0:0:0:
304,349,126639,1,0,0:0:0:0:
280,356,126705,1,8,0:0:0:0:
255,356,126770,1,0,0:0:0:0:
231,350,126835,1,0,0:0:0:0:
209,338,126900,1,0,0:0:0:0:
191,321,126965,1,8,0:0:0:0:
177,300,127030,1,0,0:0:0:0:
170,276,127096,1,0,0:0:0:0:
169,251,127161,1,0,0:0:0:0:
174,227,127226,1,8,0:0:0:0:
452,33,127488,5,0,0:0:0:0:
188,86,127618,1,0,0:0:0:0:
476,69,127749,5,0,0:0:0:0:
207,75,127879,1,0,0:0:0:0:
494,109,128010,5,0,0:0:0:0:
228,69,128140,1,0,0:0:0:0:
505,152,128270,5,0,0:0:0:0:
250,66,128400,1,0,0:0:0:0:
508,196,128531,5,0,0:0:0:0:
272,67,128661,1,0,0:0:0:0:
462,260,128792,5,0,0:0:0:0:
462,260,128857,1,0,0:0:0:0:
462,260,128923,1,0,0:0:0:0:
462,260,128988,1,0,0:0:0:0:
462,260,129053,2,0,B|445:237|445:237|405:219,1,50
342,358,129183,2,0,B|346:329|346:329|330:288,1,50
201,365,129314,2,0,B|223:347|223:347|242:307,1,50
93,271,129444,2,0,B|121:275|121:275|162:259,1,50
260,179,129575,5,4,0:0:0:0:
280,157,129640,1,0,0:0:0:0:
289,128,129705,1,0,0:0:0:0:
288,98,129770,1,0,0:0:0:0:
275,70,129836,1,0,0:0:0:0:
252,49,129901,1,0,0:0:0:0:
224,36,129966,1,0,0:0:0:0:
194,36,130031,1,0,0:0:0:0:
165,46,130097,5,2,0:0:0:0:
142,65,130162,1,0,0:0:0:0:
131,93,130227,1,0,0:0:0:0:
131,122,130292,1,0,0:0:0:0:
142,149,130357,1,0,0:0:0:0:
163,170,130423,1,0,0:0:0:0:
177,196,130488,1,0,0:0:0:0:
179,225,130553,1,0,0:0:0:0:
171,253,130618,1,4,0:0:0:0:
153,277,130683,1,0,0:0:0:0:
126,292,130749,1,0,0:0:0:0:
96,298,130814,1,0,0:0:0:0:
66,291,130879,5,0,0:0:0:0:
43,271,130944,1,0,0:0:0:0:
28,244,131010,1,0,0:0:0:0:
25,214,131075,1,0,0:0:0:0:
33,185,131140,1,2,0:0:0:0:
52,162,131205,1,0,0:0:0:0:
79,149,131270,1,0,0:0:0:0:
108,142,131336,1,0,0:0:0:0:
137,147,131401,1,0,0:0:0:0:
162,163,131466,1,0,0:0:0:0:
178,188,131531,1,0,0:0:0:0:
201,365,131662,5,0,0:0:0:0:
241,119,131792,1,0,0:0:0:0:
264,368,131923,5,0,0:0:0:0:
381,137,132053,1,0,0:0:0:0:
322,369,132183,5,0,0:0:0:0:
168,145,132314,1,0,0:0:0:0:
141,363,132444,5,0,0:0:0:0:
312,139,132575,1,0,0:0:0:0:
385,369,132705,5,0,0:0:0:0:
123,241,132836,1,0,0:0:0:0:
350,235,132966,5,0,0:0:0:0:
350,235,133031,1,0,0:0:0:0:
350,235,133097,1,0,0:0:0:0:
350,235,133162,1,0,0:0:0:0:
350,235,133227,2,0,L|295:261,1,50
187,138,133357,2,0,L|242:164,1,50
367,51,133488,2,0,L|312:77,1,50
162,3,133618,2,0,L|217:29,1,50
395,106,133749,5,2,0:0:0:0:
417,125,133814,1,0,0:0:0:0:
436,147,133879,1,0,0:0:0:0:
448,174,133944,1,0,0:0:0:0:
454,203,134010,1,2,0:0:0:0:
453,232,134075,1,0,0:0:0:0:
447,261,134140,1,0,0:0:0:0:
433,287,134205,1,0,0:0:0:0:
415,310,134270,1,2,0:0:0:0:
392,330,134336,1,0,0:0:0:0:
366,344,134401,1,0,0:0:0:0:
337,353,134466,1,0,0:0:0:0:
307,355,134531,1,2,0:0:0:0:
277,348,134597,1,0,0:0:0:0:
251,333,134662,1,0,0:0:0:0:
230,311,134727,1,0,0:0:0:0:
208,298,134792,5,4,0:0:0:0:
188,296,134857,1,0,0:0:0:0:
168,301,134923,1,0,0:0:0:0:
151,312,134988,1,0,0:0:0:0:
139,328,135053,1,4,0:0:0:0:
126,343,135118,1,0,0:0:0:0:
107,350,135183,1,0,0:0:0:0:
86,351,135249,1,0,0:0:0:0:
67,344,135314,1,4,0:0:0:0:
58,326,135379,1,0,0:0:0:0:
58,306,135444,1,0,0:0:0:0:
67,288,135510,1,0,0:0:0:0:
83,277,135575,1,4,0:0:0:0:
102,275,135640,1,0,0:0:0:0:
117,287,135705,1,0,0:0:0:0:
26,187,135836,5,0,0:0:0:0:
233,49,135966,1,0,0:0:0:0:
273,296,136097,5,0,0:0:0:0:
121,85,136227,1,0,0:0:0:0:
158,341,136357,5,0,0:0:0:0:
314,131,136488,1,0,0:0:0:0:
438,358,136618,5,0,0:0:0:0:
216,219,136749,1,0,0:0:0:0:
443,94,136879,5,0,0:0:0:0:
364,343,137010,1,0,0:0:0:0:
305,32,137140,5,0,0:0:0:0:
305,32,137205,1,0,0:0:0:0:
305,32,137270,2,0,L|317:92,1,50
216,219,137401,2,0,L|219:157,1,50
390,52,137531,2,0,L|370:109,1,50
219,169,137662,2,0,L|252:118,1,50
450,19,137792,1,0,0:0:0:0:
326,188,137923,5,4,0:0:0:0:
308,212,137988,1,0,0:0:0:0:
298,240,138053,1,0,0:0:0:0:
299,269,138118,1,0,0:0:0:0:
310,296,138183,1,0,0:0:0:0:
312,326,138249,1,0,0:0:0:0:
301,353,138314,1,0,0:0:0:0:
275,369,138379,1,0,0:0:0:0:
245,368,138444,1,2,0:0:0:0:
220,349,138510,1,0,0:0:0:0:
209,321,138575,1,0,0:0:0:0:
212,291,138640,1,0,0:0:0:0:
230,267,138705,5,0,0:0:0:0:
258,257,138770,1,0,0:0:0:0:
288,260,138836,1,0,0:0:0:0:
311,278,138901,1,0,0:0:0:0:
321,306,138966,1,4,0:0:0:0:
339,329,139031,1,0,0:0:0:0:
368,334,139097,1,0,0:0:0:0:
396,324,139162,1,0,0:0:0:0:
410,298,139227,1,0,0:0:0:0:
415,268,139292,1,0,0:0:0:0:
403,240,139357,1,0,0:0:0:0:
377,222,139423,1,0,0:0:0:0:
347,222,139488,5,2,0:0:0:0:
323,240,139553,1,0,0:0:0:0:
308,266,139618,1,0,0:0:0:0:
289,289,139683,1,0,0:0:0:0:
265,308,139749,1,0,0:0:0:0:
236,315,139814,1,0,0:0:0:0:
206,310,139879,1,0,0:0:0:0:
140,111,140010,5,0,0:0:0:0:
79,342,140140,1,0,0:0:0:0:
180,78,140270,5,0,0:0:0:0:
49,306,140400,1,0,0:0:0:0:
229,63,140531,5,0,0:0:0:0:
24,267,140661,1,0,0:0:0:0:
279,66,140792,5,0,0:0:0:0:
2,223,140922,1,0,0:0:0:0:
110,42,141053,5,0,0:0:0:0:
242,190,141183,1,0,0:0:0:0:
69,78,141314,5,0,0:0:0:0:
267,208,141444,1,0,0:0:0:0:
36,120,141575,5,0,0:0:0:0:
305,209,141705,1,0,0:0:0:0:
33,174,141836,5,0,0:0:0:0:
345,192,141966,1,0,0:0:0:0:
140,106,142097,6,0,B|142:125|158:140|158:140|153:157|153:157|181:174|176:205,1,100,4|0,0:1|0:0,0:0:0:0:
255,345,142357,1,0,0:0:0:0:
239,313,142422,1,0,0:0:0:0:
223,282,142487,1,0,0:0:0:0:
287,92,142618,1,0,0:0:0:0:
322,307,142749,2,0,L|302:195,1,100
277,23,143010,5,0,0:0:0:0:
282,57,143075,1,0,0:0:0:0:
287,92,143140,1,0,0:0:0:0:
475,267,143270,2,0,L|394:187,1,100
403,196,143466,1,0,0:0:0:0:
403,196,143531,1,0,0:0:0:0:
453,16,143662,1,0,0:0:0:0:
403,196,143792,2,0,L|433:88,1,100
200,67,144053,5,0,0:0:0:0:
200,67,144118,1,0,0:0:0:0:
200,67,144183,1,0,0:0:0:0:
101,211,144314,2,0,L|77:95,1,100
273,180,144575,5,0,0:0:0:0:
273,180,144640,1,0,0:0:0:0:
273,180,144705,1,0,0:0:0:0:
101,211,144836,2,0,L|166:112,1,100
197,291,145097,5,0,0:0:0:0:
197,291,145162,1,0,0:0:0:0:
174,316,145227,5,0,0:0:0:0:
174,316,145292,1,0,0:0:0:0:
174,316,145357,1,0,0:0:0:0:
174,316,145423,1,0,0:0:0:0:
153,341,145488,5,0,0:0:0:0:
153,341,145553,1,0,0:0:0:0:
153,341,145618,1,0,0:0:0:0:
153,341,145683,1,0,0:0:0:0:
153,341,145749,1,0,0:0:0:0:
153,341,146270,5,0,0:0:0:0:
134,310,146336,1,0,0:0:0:0:
122,276,146401,1,0,0:0:0:0:
122,241,146466,1,0,0:0:0:0:
135,208,146531,1,0,0:0:0:0:
161,183,146597,1,0,0:0:0:0:
181,154,146662,1,0,0:0:0:0:
187,119,146727,1,0,0:0:0:0:
180,84,146792,1,0,0:0:0:0:
160,54,146857,1,0,0:0:0:0:
128,37,146923,1,0,0:0:0:0:
93,31,146988,1,0,0:0:0:0:
59,41,147053,1,0,0:0:0:0:
33,64,147118,1,0,0:0:0:0:
22,97,147183,1,0,0:0:0:0:
18,132,147249,1,0,0:0:0:0:
30,167,147314,5,0,0:0:0:0:
165,230,147444,1,0,0:0:0:0:
229,94,147575,1,0,0:0:0:0:
93,31,147705,1,0,0:0:0:0:
165,230,147836,6,0,L|185:287,3,50
322,175,148097,2,0,L|338:127,3,50
440,19,148357,5,0,0:0:0:0:
457,49,148423,1,0,0:0:0:0:
464,82,148488,1,0,0:0:0:0:
460,116,148553,1,0,0:0:0:0:
440,145,148618,1,0,0:0:0:0:
416,170,148683,1,0,0:0:0:0:
401,202,148749,1,0,0:0:0:0:
398,236,148814,1,0,0:0:0:0:
409,268,148879,1,0,0:0:0:0:
431,294,148944,1,0,0:0:0:0:
459,315,149010,1,0,0:0:0:0:
493,319,149075,1,0,0:0:0:0:
486,284,149140,1,0,0:0:0:0:
460,259,149205,1,0,0:0:0:0:
425,252,149270,1,0,0:0:0:0:
395,271,149336,1,0,0:0:0:0:
372,291,149401,5,0,0:0:0:0:
319,172,149531,1,0,0:0:0:0:
437,119,149662,1,0,0:0:0:0:
490,238,149792,1,0,0:0:0:0:
350,132,149923,6,0,L|311:181,3,50
273,326,150183,2,0,L|234:277,3,50
171,141,150444,5,0,0:0:0:0:
141,155,150510,1,0,0:0:0:0:
115,180,150575,1,0,0:0:0:0:
100,213,150640,1,0,0:0:0:0:
97,247,150705,1,0,0:0:0:0:
109,279,150770,1,0,0:0:0:0:
136,301,150836,1,0,0:0:0:0:
170,307,150901,1,0,0:0:0:0:
204,299,150966,1,0,0:0:0:0:
228,273,151031,1,0,0:0:0:0:
234,238,151097,1,0,0:0:0:0:
225,204,151162,1,0,0:0:0:0:
198,180,151227,1,0,0:0:0:0:
180,149,151292,1,0,0:0:0:0:
183,114,151357,1,0,0:0:0:0:
199,82,151423,1,0,0:0:0:0:
222,56,151488,5,0,0:0:0:0:
377,14,151618,1,0,0:0:0:0:
418,169,151749,1,0,0:0:0:0:
264,210,151879,1,0,0:0:0:0:
377,14,152010,6,0,L|343:75,3,50
418,169,152270,2,0,L|452:230,3,50
325,331,152531,5,0,0:0:0:0:
293,347,152597,1,0,0:0:0:0:
259,357,152662,1,0,0:0:0:0:
224,354,152727,1,0,0:0:0:0:
193,337,152792,1,0,0:0:0:0:
171,309,152857,1,0,0:0:0:0:
164,274,152923,1,0,0:0:0:0:
172,240,152988,1,0,0:0:0:0:
191,211,153053,1,0,0:0:0:0:
220,191,153118,1,0,0:0:0:0:
254,183,153183,1,0,0:0:0:0:
288,190,153249,1,0,0:0:0:0:
316,210,153314,1,0,0:0:0:0:
340,234,153379,1,0,0:0:0:0:
372,247,153444,1,0,0:0:0:0:
407,242,153510,1,0,0:0:0:0:
440,220,153575,5,0,0:0:0:0:
453,177,153640,1,0,0:0:0:0:
441,128,153705,1,0,0:0:0:0:
395,97,153770,1,0,0:0:0:0:
335,108,153836,1,0,0:0:0:0:
307,161,153901,1,0,0:0:0:0:
319,219,153966,1,0,0:0:0:0:
316,278,154031,1,0,0:0:0:0:
286,331,154097,5,0,0:0:0:0:
233,360,154162,1,0,0:0:0:0:
173,361,154227,1,0,0:0:0:0:
121,331,154292,1,0,0:0:0:0:
89,280,154357,1,0,0:0:0:0:
85,219,154423,1,0,0:0:0:0:
114,167,154488,1,0,0:0:0:0:
250,73,154618,5,0,0:0:0:0:
231,102,154683,1,0,0:0:0:0:
218,135,154749,1,0,0:0:0:0:
221,169,154814,1,0,0:0:0:0:
238,198,154879,1,0,0:0:0:0:
264,221,154944,1,0,0:0:0:0:
298,227,155010,1,0,0:0:0:0:
330,215,155075,1,0,0:0:0:0:
351,187,155140,1,0,0:0:0:0:
352,152,155205,1,0,0:0:0:0:
335,121,155270,1,0,0:0:0:0:
302,106,155336,1,0,0:0:0:0:
267,110,155401,1,0,0:0:0:0:
239,131,155466,1,0,0:0:0:0:
227,163,155531,1,0,0:0:0:0:
229,198,155597,1,0,0:0:0:0:
242,232,155662,5,0,0:0:0:0:
321,91,155792,1,0,0:0:0:0:
182,10,155923,1,0,0:0:0:0:
101,151,156053,1,0,0:0:0:0:
182,10,156183,6,0,L|171:90,3,50
101,151,156444,2,0,L|127:214,3,50
174,325,156705,5,0,0:0:0:0:
202,345,156770,1,0,0:0:0:0:
234,358,156836,1,0,0:0:0:0:
268,361,156901,1,0,0:0:0:0:
302,353,156966,1,0,0:0:0:0:
332,336,157031,1,0,0:0:0:0:
353,307,157097,1,0,0:0:0:0:
362,273,157162,1,0,0:0:0:0:
375,241,157227,1,0,0:0:0:0:
396,213,157292,1,0,0:0:0:0:
425,194,157357,1,0,0:0:0:0:
460,195,157423,1,0,0:0:0:0:
488,215,157488,1,0,0:0:0:0:
501,247,157553,1,0,0:0:0:0:
495,281,157618,1,0,0:0:0:0:
471,306,157683,1,0,0:0:0:0:
443,318,157749,5,0,0:0:0:0:
318,353,157879,1,0,0:0:0:0:
282,228,158010,1,0,0:0:0:0:
407,193,158140,1,0,0:0:0:0:
318,353,158270,6,0,L|266:325,3,50
186,222,158531,2,0,L|141:245,3,50
41,343,158792,5,0,0:0:0:0:
30,309,158857,1,0,0:0:0:0:
29,273,158923,1,0,0:0:0:0:
41,240,158988,1,0,0:0:0:0:
66,216,159053,1,0,0:0:0:0:
89,190,159118,1,0,0:0:0:0:
100,157,159183,1,0,0:0:0:0:
97,121,159249,1,0,0:0:0:0:
75,93,159314,1,0,0:0:0:0:
47,82,159379,1,0,0:0:0:0:
18,102,159444,1,0,0:0:0:0:
20,137,159510,1,0,0:0:0:0:
51,152,159575,1,0,0:0:0:0:
84,143,159640,1,0,0:0:0:0:
111,121,159705,1,0,0:0:0:0:
144,110,159770,1,0,0:0:0:0:
181,114,159836,5,0,0:0:0:0:
299,135,159966,1,0,0:0:0:0:
275,254,160097,1,0,0:0:0:0:
158,231,160227,1,0,0:0:0:0:
299,135,160357,6,0,L|355:104,3,50
408,207,160618,2,0,L|471:217,3,50
456,41,160879,5,0,0:0:0:0:
426,21,160944,1,0,0:0:0:0:
391,13,161010,1,0,0:0:0:0:
356,17,161075,1,0,0:0:0:0:
325,33,161140,1,0,0:0:0:0:
303,60,161205,1,0,0:0:0:0:
296,94,161270,1,0,0:0:0:0:
305,128,161336,1,0,0:0:0:0:
329,153,161401,1,0,0:0:0:0:
343,184,161466,1,0,0:0:0:0:
343,218,161531,1,0,0:0:0:0:
329,250,161597,1,0,0:0:0:0:
305,275,161662,1,0,0:0:0:0:
272,286,161727,1,0,0:0:0:0:
237,283,161792,1,0,0:0:0:0:
206,266,161857,1,0,0:0:0:0:
181,233,161923,5,0,0:0:0:0:
172,188,161988,1,0,0:0:0:0:
187,140,162053,1,0,0:0:0:0:
233,111,162118,1,0,0:0:0:0:
292,118,162183,1,0,0:0:0:0:
331,164,162249,1,0,0:0:0:0:
329,223,162314,1,0,0:0:0:0:
291,269,162379,1,0,0:0:0:0:
232,281,162444,1,0,0:0:0:0:
173,265,162510,1,0,0:0:0:0:
139,215,162575,1,0,0:0:0:0:
87,184,162640,1,0,0:0:0:0:
31,206,162705,1,0,0:0:0:0:
10,262,162770,1,0,0:0:0:0:
41,314,162836,1,0,0:0:0:0:
134,123,162966,5,0,0:0:0:0:
149,322,163097,1,0,0:0:0:0:
158,95,163227,5,0,0:0:0:0:
109,348,163357,1,0,0:0:0:0:
181,70,163488,5,0,0:0:0:0:
59,354,163618,1,0,0:0:0:0:
208,43,163749,5,0,0:0:0:0:
12,339,163879,1,0,0:0:0:0:
66,90,164010,5,0,0:0:0:0:
66,90,164075,1,0,0:0:0:0:
66,90,164140,1,0,0:0:0:0:
66,90,164205,1,0,0:0:0:0:
66,90,164270,2,0,L|31:138,1,50
216,98,164401,2,0,L|161:122,1,50
327,205,164531,2,0,L|271:183,1,50
315,354,164662,2,0,L|290:299,1,50
250,179,164792,5,0,0:0:0:0:
254,160,164857,1,0,0:0:0:0:
270,140,164923,1,0,0:0:0:0:
295,123,164988,1,0,0:0:0:0:
324,119,165053,1,0,0:0:0:0:
352,127,165118,1,0,0:0:0:0:
375,145,165183,1,0,0:0:0:0:
389,171,165249,1,0,0:0:0:0:
394,200,165314,1,0,0:0:0:0:
388,229,165379,1,0,0:0:0:0:
372,254,165444,1,0,0:0:0:0:
346,269,165510,1,0,0:0:0:0:
317,276,165575,5,0,0:0:0:0:
287,276,165640,1,0,0:0:0:0:
259,265,165705,1,0,0:0:0:0:
234,248,165770,1,0,0:0:0:0:
206,235,165836,1,0,0:0:0:0:
176,237,165901,1,0,0:0:0:0:
149,250,165966,1,0,0:0:0:0:
130,273,166031,1,0,0:0:0:0:
119,301,166097,1,0,0:0:0:0:
124,330,166162,1,0,0:0:0:0:
140,355,166227,1,0,0:0:0:0:
166,368,166292,1,0,0:0:0:0:
195,369,166357,1,0,0:0:0:0:
221,354,166423,1,0,0:0:0:0:
240,331,166488,1,0,0:0:0:0:
245,301,166553,1,0,0:0:0:0:
237,272,166618,5,0,0:0:0:0:
220,247,166683,1,0,0:0:0:0:
193,231,166749,1,0,0:0:0:0:
163,224,166814,1,0,0:0:0:0:
135,211,166879,1,0,0:0:0:0:
114,189,166944,1,0,0:0:0:0:
104,160,167010,1,0,0:0:0:0:
228,36,167140,5,0,0:0:0:0:
81,171,167270,1,0,0:0:0:0:
281,38,167401,5,0,0:0:0:0:
86,139,167531,1,0,0:0:0:0:
330,57,167662,5,0,0:0:0:0:
94,108,167792,1,0,0:0:0:0:
373,87,167923,5,0,0:0:0:0:
107,73,168053,1,0,0:0:0:0:
323,192,168183,5,0,0:0:0:0:
323,192,168249,1,0,0:0:0:0:
323,192,168314,1,0,0:0:0:0:
323,192,168379,1,0,0:0:0:0:
323,192,168444,2,0,P|338:169|344:137,1,50
206,153,168575,2,0,P|191:130|185:98,1,50
343,147,168705,2,0,P|358:124|364:92,1,50
185,108,168836,2,0,P|170:85|164:53,1,50
287,21,168966,5,0,0:0:0:0:
325,14,169031,1,0,0:0:0:0:
364,24,169097,1,0,0:0:0:0:
391,53,169162,1,0,0:0:0:0:
395,92,169227,1,0,0:0:0:0:
381,129,169292,1,0,0:0:0:0:
346,149,169357,1,0,0:0:0:0:
305,151,169423,1,0,0:0:0:0:
269,132,169488,1,0,0:0:0:0:
229,134,169553,1,0,0:0:0:0:
196,157,169618,1,0,0:0:0:0:
176,191,169683,1,0,0:0:0:0:
176,231,169749,5,0,0:0:0:0:
198,263,169814,1,0,0:0:0:0:
234,279,169879,1,0,0:0:0:0:
273,277,169944,1,0,0:0:0:0:
309,260,170010,1,0,0:0:0:0:
342,238,170075,1,0,0:0:0:0:
381,238,170140,1,0,0:0:0:0:
416,256,170205,1,0,0:0:0:0:
433,291,170270,5,0,0:0:0:0:
432,331,170336,1,0,0:0:0:0:
411,365,170401,1,0,0:0:0:0:
372,376,170466,1,0,0:0:0:0:
332,374,170531,1,0,0:0:0:0:
299,349,170597,1,0,0:0:0:0:
287,310,170662,1,0,0:0:0:0:
292,270,170727,1,0,0:0:0:0:
318,240,170792,1,0,0:0:0:0:
350,217,170857,1,0,0:0:0:0:
368,181,170923,1,0,0:0:0:0:
372,141,170988,1,0,0:0:0:0:
354,105,171053,1,0,0:0:0:0:
321,82,171118,1,0,0:0:0:0:
281,80,171183,1,0,0:0:0:0:
212,282,171314,5,0,0:0:0:0:
229,33,171444,1,0,0:0:0:0:
292,270,171575,5,0,0:0:0:0:
115,80,171705,1,0,0:0:0:0:
138,340,171836,5,0,0:0:0:0:
279,110,171966,1,0,0:0:0:0:
24,230,172097,5,0,0:0:0:0:
279,341,172227,1,0,0:0:0:0:
194,105,172357,5,0,0:0:0:0:
194,105,172423,1,0,0:0:0:0:
194,105,172488,1,0,0:0:0:0:
194,105,172553,1,0,0:0:0:0:
176,139,172618,5,0,0:0:0:0:
176,139,172683,1,0,0:0:0:0:
176,139,172749,1,0,0:0:0:0:
176,139,172814,1,0,0:0:0:0:
158,172,172879,5,0,0:0:0:0:
158,172,172944,1,0,0:0:0:0:
158,172,173010,1,0,0:0:0:0:
158,172,173075,1,0,0:0:0:0:
139,206,173140,5,0,0:0:0:0:
139,206,173205,1,0,0:0:0:0:
139,206,173270,2,0,L|109:259,1,50
164,24,173401,2,0,P|213:22|280:79,1,100
312,238,173662,1,0,0:0:0:0:
167,100,173792,1,0,0:0:0:0:
237,288,173923,2,0,L|197:182,1,100
394,50,174183,6,0,P|380:108|313:133,1,100
490,54,174444,2,0,L|493:220,1,150
486,361,174705,2,0,L|490:297,1,50
412,145,174836,1,0,0:0:0:0:
363,344,174966,6,0,L|379:269,1,50
412,145,175097,1,0,0:0:0:0:
486,361,175227,1,0,0:0:0:0:
281,153,175357,2,0,L|338:209,1,50
486,361,175488,2,0,L|398:271,1,100
209,281,175749,5,0,0:0:0:0:
191,290,175814,1,0,0:0:0:0:
172,296,175879,1,0,0:0:0:0:
152,298,175944,1,0,0:0:0:0:
131,295,176010,1,0,0:0:0:0:
113,286,176075,1,0,0:0:0:0:
97,273,176140,1,0,0:0:0:0:
85,256,176205,1,0,0:0:0:0:
78,232,176270,5,0,0:0:0:0:
80,206,176336,1,0,0:0:0:0:
90,183,176401,1,0,0:0:0:0:
108,166,176466,1,0,0:0:0:0:
135,155,176531,1,0,0:0:0:0:
170,152,176597,1,0,0:0:0:0:
200,169,176662,1,0,0:0:0:0:
219,197,176727,1,0,0:0:0:0:
219,231,176792,1,0,0:0:0:0:
203,262,176857,1,0,0:0:0:0:
179,288,176923,1,0,0:0:0:0:
169,321,176988,1,0,0:0:0:0:
176,355,177053,1,0,0:0:0:0:
204,375,177118,1,0,0:0:0:0:
238,376,177183,1,0,0:0:0:0:
266,354,177249,1,0,0:0:0:0:
270,319,177314,6,0,P|269:288|247:256,1,50
85,256,177444,1,0,0:0:0:0:
342,348,177575,5,0,0:0:0:0:
179,103,177705,1,0,0:0:0:0:
376,149,177836,2,0,P|325:152|273:197,1,100
174,356,178097,2,0,L|221:311,1,50
376,149,178227,1,0,0:0:0:0:
64,240,178357,2,0,L|197:250,1,100
406,271,178618,2,0,P|457:268|493:162,1,150
447,21,178879,6,0,L|434:97,1,50
406,271,179010,1,0,0:0:0:0:
331,62,179140,1,0,0:0:0:0:
311,310,179270,2,0,L|292:252,1,50
238,88,179401,1,0,0:0:0:0:
406,271,179531,1,0,0:0:0:0:
219,197,179662,5,0,0:0:0:0:
413,40,179792,1,0,0:0:0:0:
193,13,179923,1,0,0:0:0:0:
339,176,180053,1,0,0:0:0:0:
193,13,180183,2,0,L|237:60,1,50
388,226,180314,1,0,0:0:0:0:
159,88,180444,5,0,0:0:0:0:
97,307,180575,1,0,0:0:0:0:
58,111,180705,6,0,P|103:147|115:227,1,100
287,238,180966,1,0,0:0:0:0:
265,237,181031,1,0,0:0:0:0:
245,238,181097,2,0,P|200:274|188:354,1,100
367,344,181357,1,0,0:0:0:0:
241,119,181488,2,0,L|244:175,1,50
256,357,181618,1,0,0:0:0:0:
439,132,181749,6,0,L|378:142,1,50
182,183,181879,1,0,0:0:0:0:
394,244,182010,1,0,0:0:0:0:
291,16,182140,1,0,0:0:0:0:
297,237,182270,1,0,0:0:0:0:
291,16,182401,5,0,0:0:0:0:
291,45,182466,1,0,0:0:0:0:
292,75,182531,1,0,0:0:0:0:
297,237,182662,2,0,L|295:167,1,50
154,21,182792,2,0,P|161:77|217:109,1,100
85,114,183053,1,0,0:0:0:0:
89,133,183118,1,0,0:0:0:0:
96,151,183183,2,0,P|140:185|202:168,1,100
370,116,183444,1,0,0:0:0:0:
151,302,183575,6,0,L|190:268,1,50
258,131,183705,1,0,0:0:0:0:
229,360,183836,5,0,0:0:0:0:
181,135,183966,1,0,0:0:0:0:
345,296,184097,1,0,0:0:0:0:
295,72,184227,1,0,0:0:0:0:
271,300,184357,1,0,0:0:0:0:
475,145,184488,6,0,L|429:182,1,50
271,300,184618,1,0,0:0:0:0:
454,348,184749,1,0,0:0:0:0:
371,115,184879,6,0,P|344:158|363:224,1,100
173,219,185140,2,0,P|200:262|181:328,1,100
41,255,185401,1,0,0:0:0:0:
41,255,185466,1,0,0:0:0:0:
41,255,185531,1,0,0:0:0:0:
41,255,185597,1,0,0:0:0:0:
41,255,185662,2,0,P|14:212|33:146,1,100
134,44,185923,5,0,0:0:0:0:
134,44,185988,1,0,0:0:0:0:
134,44,186053,1,0,0:0:0:0:
134,44,186118,1,0,0:0:0:0:
127,81,186183,5,0,0:0:0:0:
127,81,186249,1,0,0:0:0:0:
127,81,186314,1,0,0:0:0:0:
127,81,186379,1,0,0:0:0:0:
127,81,186444,6,0,L|100:183,1,100
299,78,186705,2,0,L|203:125,1,100
433,14,186901,1,0,0:0:0:0:
433,14,186966,2,0,L|464:131,1,100
211,249,187227,2,0,L|305:197,1,100
465,247,187488,5,0,0:0:0:0:
454,274,187553,1,0,0:0:0:0:
435,298,187618,1,0,0:0:0:0:
410,314,187683,1,0,0:0:0:0:
385,322,187749,6,0,P|350:328|283:280,1,100
369,122,188010,1,0,0:0:0:0:
328,351,188140,1,0,0:0:0:0:
301,153,188270,2,0,L|271:201,1,50
160,344,188401,1,0,0:0:0:0:
98,75,188531,6,0,L|131:236,1,150
160,344,188792,2,0,L|146:293,1,50
84,169,188923,1,0,0:0:0:0:
278,345,189053,2,0,L|274:185,1,150
185,34,189314,6,0,L|239:92,1,50
34,224,189444,1,0,0:0:0:0:
63,20,189575,2,0,L|47:133,1,100
67,360,189836,2,0,L|82:283,1,50
118,134,189966,1,0,0:0:0:0:
174,307,190097,5,0,0:0:0:0:
199,331,190162,1,0,0:0:0:0:
229,348,190227,1,0,0:0:0:0:
262,356,190292,1,0,0:0:0:0:
296,354,190357,1,0,0:0:0:0:
329,343,190423,1,0,0:0:0:0:
354,319,190488,1,0,0:0:0:0:
366,286,190553,1,0,0:0:0:0:
373,257,190618,5,0,0:0:0:0:
388,237,190683,1,0,0:0:0:0:
409,223,190749,1,0,0:0:0:0:
433,218,190814,1,0,0:0:0:0:
461,228,190879,5,0,0:0:0:0:
484,253,190944,1,0,0:0:0:0:
488,288,191010,1,0,0:0:0:0:
475,320,191075,1,0,0:0:0:0:
445,338,191140,1,0,0:0:0:0:
410,338,191205,1,0,0:0:0:0:
381,317,191270,1,0,0:0:0:0:
361,287,191336,1,0,0:0:0:0:
338,254,191401,5,0,0:0:0:0:
308,227,191466,1,0,0:0:0:0:
269,204,191531,1,0,0:0:0:0:
223,199,191597,1,0,0:0:0:0:
178,205,191662,1,0,0:0:0:0:
140,228,191727,1,0,0:0:0:0:
117,266,191792,1,0,0:0:0:0:
250,302,191923,6,0,L|272:185,1,100
306,31,192183,2,0,L|289:103,1,50
416,221,192314,2,0,L|376:173,1,50
227,18,192444,1,0,0:0:0:0:
178,205,192575,1,0,0:0:0:0:
408,80,192705,2,0,L|350:111,1,50
119,240,192836,1,0,0:0:0:0:
142,33,192966,5,0,0:0:0:0:
138,57,193031,1,0,0:0:0:0:
135,82,193096,1,0,0:0:0:0:
132,107,193161,1,0,0:0:0:0:
129,132,193227,2,0,L|122:196,1,50
23,344,193357,2,0,L|73:303,1,50
268,203,193488,1,0,0:0:0:0:
41,163,193618,5,0,0:0:0:0:
41,163,193683,1,0,0:0:0:0:
41,163,193749,2,0,P|81:132|153:143,1,100
253,297,194010,1,0,0:0:0:0:
41,244,194140,1,0,0:0:0:0:
118,27,194270,6,0,L|84:92,1,50
246,94,194401,2,0,L|293:79,1,50
174,14,194531,6,0,L|112:53,1,50,4|0,0:1|0:0,0:0:0:0:
251,136,194662,2,0,L|299:146,1,50
461,92,194792,5,0,0:0:0:0:
174,14,194923,1,0,0:0:0:0:
179,290,195053,5,0,0:0:0:0:
246,20,195183,1,0,0:0:0:0:
269,250,195314,6,0,L|246:320,1,50,0|0,0:1|0:0,0:0:0:0:
391,72,195444,2,0,L|416:163,1,50
462,319,195575,5,0,0:0:0:0:
176,201,195705,1,0,0:0:0:0:
436,30,195836,5,0,0:0:0:0:
352,327,195966,1,0,0:0:0:0:
142,96,196097,5,0,0:0:0:0:
424,220,196227,1,0,0:0:0:0:
179,290,196357,6,0,B|200:228|251:203|251:203|312:229|416:185|396:50|281:-10|160:37|129:215|246:235|331:264|440:212,1,700
311,337,197401,6,0,P|267:334|227:313,1,75.0000028610231
128,208,197662,1,0,0:0:0:0:
42,350,197792,1,0,0:0:0:0:
42,350,197857,1,0,0:0:0:0:
42,350,197923,2,0,P|86:347|126:326,1,75.0000028610231
48,132,198183,2,0,L|59:230,1,75.0000028610231
46,45,198444,5,0,0:0:0:0:
46,45,198510,1,0,0:0:0:0:
46,45,198575,1,0,0:0:0:0:
138,162,198705,1,0,0:0:0:0:
184,18,198836,1,0,0:0:0:0:
97,139,198966,1,0,0:0:0:0:
246,119,199097,1,0,0:0:0:0:
117,42,199227,5,0,0:0:0:0:
117,42,199292,1,0,0:0:0:0:
117,42,199357,1,0,0:0:0:0:
199,168,199488,1,0,0:0:0:0:
259,31,199618,1,0,0:0:0:0:
319,173,199749,1,0,0:0:0:0:
186,73,199879,2,0,L|260:130,1,75.0000028610231
167,257,200140,5,0,0:0:0:0:
97,139,200270,1,0,0:0:0:0:
99,277,200401,1,0,0:0:0:0:
99,277,200466,1,0,0:0:0:0:
99,277,200531,2,0,L|96:359,1,75.0000028610231
234,353,200727,1,0,0:0:0:0:
234,353,200792,2,0,L|231:271,1,75.0000028610231
356,275,201053,2,0,L|358:349,1,75.0000028610231
488,351,201314,2,0,L|485:276,1,75.0000028610231
402,68,201575,6,0,P|376:103|382:157,1,75.0000028610231
496,206,201836,1,0,0:0:0:0:
294,136,201966,2,0,P|300:179|342:213,1,75.0000028610231
482,81,202227,1,0,0:0:0:0:
342,18,202357,1,0,0:0:0:0:
394,207,202488,5,0,0:0:0:0:
394,207,202553,1,0,0:0:0:0:
394,207,202618,2,0,P|377:255|328:276,1,75.0000028610231
294,136,202879,1,0,0:0:0:0:
288,273,203010,1,0,0:0:0:0:
288,273,203075,1,0,0:0:0:0:
288,273,203140,2,0,P|305:321|354:342,1,75.0000028610231
496,206,203401,1,0,0:0:0:0:
294,136,203531,1,0,0:0:0:0:
428,268,203662,2,0,P|411:220|362:199,1,75.0000028610231
208,152,203923,5,0,0:0:0:0:
208,152,203988,1,0,0:0:0:0:
208,152,204053,2,0,P|210:194|256:235,1,75.0000028610231
161,77,204314,1,0,0:0:0:0:
161,77,204379,1,0,0:0:0:0:
161,77,204444,2,0,P|132:108|136:169,1,75.0000028610231
350,66,204705,2,0,B|315:68|315:68|309:65|309:65|253:67,1,75.0000028610231
86,76,204966,2,0,B|121:78|121:78|127:75|127:75|183:77,1,75.0000028610231
56,353,205227,6,0,P|101:328|110:220,1,150.000005722046
21,138,205618,1,0,0:0:0:0:
28,268,205749,1,0,0:0:0:0:
28,268,205814,1,0,0:0:0:0:
28,268,205879,1,0,0:0:0:0:
86,76,206010,1,0,0:0:0:0:
187,221,206140,1,0,0:0:0:0:
187,221,206205,1,0,0:0:0:0:
187,221,206270,2,0,P|185:261|138:302,1,75.0000028610231
326,212,206531,6,0,P|297:250|341:361,1,150.000005722046
439,255,206923,1,0,0:0:0:0:
276,161,207053,1,0,0:0:0:0:
276,161,207118,1,0,0:0:0:0:
276,161,207183,1,0,0:0:0:0:
316,343,207314,1,0,0:0:0:0:
401,126,207444,1,0,0:0:0:0:
401,126,207510,1,0,0:0:0:0:
401,126,207575,2,0,L|361:222,1,75.0000028610231
470,42,207836,5,0,0:0:0:0:
243,86,207966,1,0,0:0:0:0:
243,86,208031,1,0,0:0:0:0:
243,86,208097,2,0,P|273:59|340:52,1,75.0000028610231
162,105,208357,2,0,P|164:64|206:12,1,75.0000028610231
122,177,208618,2,0,P|94:147|88:80,1,75.0000028610231
300,144,208879,6,0,P|328:169|379:180,1,89.9999972534181
320,36,209075,1,0,0:0:0:0:
320,36,209140,2,0,P|277:73|242:85,1,89.9999972534181
59,33,209401,1,0,0:0:0:0:
241,13,209531,1,0,0:0:0:0:
190,173,209662,1,0,0:0:0:0:
131,19,209792,5,0,0:0:0:0:
131,19,209857,1,0,0:0:0:0:
131,19,209923,2,0,L|162:113,1,89.9999972534181
225,251,210183,1,0,0:0:0:0:
68,205,210314,1,0,0:0:0:0:
300,109,210444,1,0,0:0:0:0:
289,327,210575,1,0,0:0:0:0:
138,268,210705,6,0,B|134:306|134:306|130:314|130:314|124:359,1,89.9999972534181
303,239,210966,2,0,B|299:277|299:277|295:285|295:285|289:330,1,89.9999972534181
458,285,211227,5,0,0:0:0:0:
458,285,211292,1,0,0:0:0:0:
458,285,211357,2,0,L|480:205,1,44.999998626709
387,227,211488,5,0,0:0:0:0:
387,227,211553,1,0,0:0:0:0:
387,227,211618,2,0,L|365:150,1,44.999998626709
487,169,211749,5,0,0:0:0:0:
487,169,211814,1,0,0:0:0:0:
487,169,211879,2,0,L|509:89,1,44.999998626709
391,103,212010,5,0,0:0:0:0:
391,103,212075,1,0,0:0:0:0:
391,103,212140,2,0,L|369:26,1,44.999998626709
484,55,212270,5,0,0:0:0:0:
484,55,212336,1,0,0:0:0:0:
484,55,212401,1,0,0:0:0:0:
484,55,212466,1,0,0:0:0:0:
484,55,212531,1,0,0:0:0:0:
484,55,212597,1,0,0:0:0:0:
484,55,212662,1,0,0:0:0:0:
484,55,212727,1,0,0:0:0:0:
484,55,212792,1,0,0:0:0:0:
484,55,212857,1,0,0:0:0:0:
484,55,212923,1,0,0:0:0:0:
223,23,213053,6,0,B|260:27|260:27|269:31|269:31|314:37,1,89.9999972534181
189,107,213314,5,0,0:0:0:0:
189,107,213379,1,0,0:0:0:0:
189,107,213444,1,0,0:0:0:0:
189,107,213510,1,0,0:0:0:0:
182,144,213575,5,0,0:0:0:0:
182,144,213640,1,0,0:0:0:0:
182,144,213705,1,0,0:0:0:0:
182,144,213771,1,0,0:0:0:0:
175,179,213836,5,0,0:0:0:0:
175,179,213901,1,0,0:0:0:0:
175,179,213966,1,0,0:0:0:0:
175,179,214032,1,0,0:0:0:0:
168,216,214097,5,0,0:0:0:0:
168,216,214162,1,0,0:0:0:0:
168,216,214227,1,0,0:0:0:0:
168,216,214293,1,0,0:0:0:0:
161,254,214357,5,0,0:0:0:0:
152,292,214618,1,0,0:0:0:0:
38,149,214879,5,0,0:0:0:0:
38,149,214944,1,0,0:0:0:0:
38,149,215010,1,0,0:0:0:0:
38,149,215075,1,0,0:0:0:0:
38,149,215140,6,0,B|47:193|47:193|39:220|39:220|55:278,1,119.999996337891
128,46,215401,2,0,B|125:90|125:90|110:114|110:114|111:175,1,119.999996337891
239,2,215662,2,0,B|224:44|224:44|204:63|204:63|189:122,1,119.999996337891
353,4,215923,2,0,B|328:41|328:41|303:54|303:54|273:107,1,119.999996337891
476,198,216183,6,0,B|467:154|467:154|475:127|475:127|459:69,1,119.999996337891
386,301,216444,2,0,B|388:256|388:256|403:232|403:232|402:171,1,119.999996337891
275,345,216705,2,0,B|289:302|289:302|309:283|309:283|324:224,1,119.999996337891
161,343,216966,2,0,B|185:305|185:305|210:292|210:292|240:239,1,119.999996337891
319,127,217227,5,0,0:0:0:0:
293,102,217292,1,0,0:0:0:0:
262,83,217357,1,0,0:0:0:0:
227,72,217423,1,0,0:0:0:0:
191,70,217488,1,0,0:0:0:0:
155,72,217553,1,0,0:0:0:0:
120,81,217618,1,0,0:0:0:0:
89,99,217683,1,0,0:0:0:0:
65,127,217749,1,0,0:0:0:0:
51,160,217814,1,0,0:0:0:0:
45,195,217879,1,0,0:0:0:0:
48,230,217944,1,0,0:0:0:0:
61,263,218010,5,0,0:0:0:0:
84,289,218075,1,0,0:0:0:0:
116,304,218140,1,0,0:0:0:0:
151,307,218205,1,0,0:0:0:0:
185,298,218270,1,0,0:0:0:0:
211,273,218336,1,0,0:0:0:0:
221,238,218401,1,0,0:0:0:0:
212,203,218466,1,0,0:0:0:0:
189,175,218531,1,0,0:0:0:0:
155,161,218597,1,0,0:0:0:0:
119,165,218662,1,0,0:0:0:0:
92,189,218727,1,0,0:0:0:0:
78,221,218792,6,0,P|109:295|220:223,1,250
220,225,219510,1,0,0:0:0:0:
220,225,219575,1,0,0:0:0:0:
220,225,219836,5,0,0:0:0:0:
445,52,219966,1,0,0:0:0:0:
344,309,220097,1,0,0:0:0:0:
323,35,220227,1,0,0:0:0:0:
261,302,220357,1,0,0:0:0:0:
481,136,220488,1,0,0:0:0:0:
481,136,220879,5,0,0:0:0:0:
214,63,221010,1,0,0:0:0:0:
406,258,221140,1,0,0:0:0:0:
232,57,221270,1,0,0:0:0:0:
344,309,221401,1,0,0:0:0:0:
329,35,221531,1,0,0:0:0:0:
130,227,221662,1,0,0:0:0:0:
399,178,221792,1,0,0:0:0:0:
399,178,222183,5,0,0:0:0:0:
158,42,222314,1,0,0:0:0:0:
341,245,222444,1,0,0:0:0:0:
269,6,222575,1,0,0:0:0:0:
269,6,222966,5,0,0:0:0:0:
163,176,223097,1,0,0:0:0:0:
291,23,223227,1,0,0:0:0:0:
143,157,223357,1,0,0:0:0:0:
307,41,223488,2,0,B|256:82|256:82|236:82|236:82|179:130,1,150
186,123,224010,5,0,0:0:0:0:
457,80,224140,1,0,0:0:0:0:
236,242,224270,1,0,0:0:0:0:
385,0,224401,1,0,0:0:0:0:
455,264,224531,1,0,0:0:0:0:
278,51,224662,1,0,0:0:0:0:
278,51,225053,5,0,0:0:0:0:
326,320,225183,1,0,0:0:0:0:
244,56,225314,1,0,0:0:0:0:
203,327,225444,1,0,0:0:0:0:
211,50,225575,1,0,0:0:0:0:
86,294,225705,1,0,0:0:0:0:
180,34,225836,1,0,0:0:0:0:
1,199,225966,1,0,0:0:0:0:
1,199,226357,5,0,0:0:0:0:
276,215,226488,1,0,0:0:0:0:
38,78,226618,1,0,0:0:0:0:
145,332,226749,1,0,0:0:0:0:
145,332,227140,6,0,B|157:283|157:283|195:237,1,100
88,256,227401,2,0,B|81:207|81:207|43:165,1,100
133,82,227662,2,0,B|181:107|181:107|197:150|197:150|241:165|241:165|277:227,1,200
267,211,228183,5,0,0:0:0:0:
57,38,228314,1,0,0:0:0:0:
188,244,228444,1,0,0:0:0:0:
214,12,228575,1,0,0:0:0:0:
73,241,228705,1,0,0:0:0:0:
134,24,228836,1,0,0:0:0:0:
134,24,229227,5,0,0:0:0:0:
121,292,229357,1,0,0:0:0:0:
163,24,229488,1,0,0:0:0:0:
239,281,229618,1,0,0:0:0:0:
188,14,229749,1,0,0:0:0:0:
345,231,229879,1,0,0:0:0:0:
216,0,230010,1,0,0:0:0:0:
439,150,230140,1,0,0:0:0:0:
439,150,230531,5,0,0:0:0:0:
179,71,230662,1,0,0:0:0:0:
425,179,230792,1,0,0:0:0:0:
154,197,230923,1,0,0:0:0:0:
154,197,231314,5,0,0:0:0:0:
154,197,231379,1,0,0:0:0:0:
154,197,231444,1,0,0:0:0:0:
154,197,231510,1,0,0:0:0:0:
154,197,231575,1,0,0:0:0:0:
302,118,231705,1,0,0:0:0:0:
95,258,231836,2,0,B|135:280|135:280|183:278|183:278|213:310|213:310|262:301|262:301|297:326|297:326|335:324|335:324|395:341,1,300
365,332,232357,5,0,0:0:0:0:
430,91,232488,1,0,0:0:0:0:
460,338,232618,1,0,0:0:0:0:
336,119,232749,1,0,0:0:0:0:
272,359,232879,1,0,0:0:0:0:
228,111,233010,1,0,0:0:0:0:
228,111,233401,5,0,0:0:0:0:
57,292,233531,1,0,0:0:0:0:
285,188,233662,1,0,0:0:0:0:
35,196,233792,1,0,0:0:0:0:
272,278,233923,1,0,0:0:0:0:
88,109,234053,1,0,0:0:0:0:
204,329,234183,1,0,0:0:0:0:
156,82,234314,1,0,0:0:0:0:
156,82,234705,5,0,0:0:0:0:
121,328,234836,1,0,0:0:0:0:
278,144,234966,1,0,0:0:0:0:
35,196,235097,1,0,0:0:0:0:
35,196,235488,6,0,L|21:266,3,50
59,70,235749,2,0,L|27:133,3,50
189,79,236010,5,0,0:0:0:0:
189,79,236075,1,0,0:0:0:0:
189,79,236140,1,0,0:0:0:0:
189,79,236205,1,0,0:0:0:0:
189,79,236270,1,0,0:0:0:0:
189,79,236336,1,0,0:0:0:0:
189,79,236401,1,0,0:0:0:0:
247,245,236531,5,0,0:0:0:0:
357,75,236662,1,0,0:0:0:0:
344,96,236727,1,0,0:0:0:0:
331,117,236792,1,0,0:0:0:0:
401,295,236923,1,0,0:0:0:0:
267,160,237053,2,0,L|338:238,1,85.0000016212464
121,328,237314,2,0,L|227:329,1,85.0000016212464
457,275,237575,5,0,0:0:0:0:
429,285,237640,1,0,0:0:0:0:
401,295,237705,1,0,0:0:0:0:
216,262,237836,1,0,0:0:0:0:
340,357,237966,1,0,0:0:0:0:
316,338,238031,1,0,0:0:0:0:
293,320,238096,1,0,0:0:0:0:
135,196,238227,1,0,0:0:0:0:
54,374,238357,6,0,P|39:328|55:278,1,85.0000016212464,2|0,0:0|0:0,0:0:0:0:
177,153,238618,1,0,0:0:0:0:
156,174,238683,1,0,0:0:0:0:
135,196,238748,1,0,0:0:0:0:
189,348,238879,1,0,0:0:0:0:
211,88,239010,1,0,0:0:0:0:
158,272,239140,1,0,0:0:0:0:
277,42,239270,1,0,0:0:0:0:
275,204,239401,5,0,0:0:0:0:
275,204,239466,1,0,0:0:0:0:
275,204,239531,1,0,0:0:0:0:
275,204,239597,1,0,0:0:0:0:
275,204,239662,2,0,P|297:163|291:104,1,85.0000016212464,4|0,0:2|0:0,0:0:0:0:
140,103,239923,2,0,P|118:144|124:203,1,85.0000016212464
325,238,240183,1,4,0:2:0:0:
300,221,240248,1,0,0:0:0:0:
275,204,240313,1,0,0:0:0:0:
277,42,240444,6,0,L|304:150,1,85.0000016212464
341,296,240705,1,4,0:2:0:0:
333,267,240770,1,0,0:0:0:0:
325,238,240835,1,0,0:0:0:0:
384,86,240966,1,0,0:0:0:0:
410,246,241097,1,0,0:0:0:0:
370,2,241227,2,0,L|387:111,1,85.0000016212464
419,301,241488,1,0,0:0:0:0:
393,144,241618,1,0,0:0:0:0:
486,312,241749,5,0,0:0:0:0:
486,312,241814,1,0,0:0:0:0:
486,312,241879,2,0,P|479:268|430:239,1,85.0000016212464
299,304,242140,1,0,0:0:0:0:
486,312,242270,1,0,0:0:0:0:
456,310,242335,1,0,0:0:0:0:
426,309,242400,1,0,0:0:0:0:
214,301,242531,2,0,L|328:305,1,85.0000016212464,2|0,0:0|0:0,0:0:0:0:
192,204,242792,5,0,0:0:0:0:
162,202,242857,1,0,0:0:0:0:
132,201,242922,1,0,0:0:0:0:
156,363,243053,2,0,L|233:279,1,85.0000016212464
192,204,243314,2,0,L|187:90,1,85.0000016212464
54,31,243575,1,0,0:0:0:0:
54,31,243640,1,0,0:0:0:0:
54,31,243705,1,0,0:0:0:0:
54,31,243770,1,0,0:0:0:0:
54,31,243836,5,0,0:0:0:0:
55,194,243966,1,0,0:0:0:0:
201,42,244097,2,0,P|208:88|159:131,1,85.0000016212464
28,110,244357,1,0,0:0:0:0:
28,110,244423,1,0,0:0:0:0:
28,110,244488,1,0,0:0:0:0:
28,110,244553,1,0,0:0:0:0:
28,110,244618,1,0,0:0:0:0:
201,42,244749,1,0,0:0:0:0:
136,264,244879,6,0,L|126:321,2,42.5000008106232
236,188,245140,2,0,L|246:131,2,42.5000008106232
293,299,245401,2,0,L|283:356,2,42.5000008106232
393,223,245662,2,0,L|403:166,2,42.5000008106232
485,314,245923,5,0,0:0:0:0:
485,314,245988,1,0,0:0:0:0:
485,314,246053,1,0,0:0:0:0:
308,231,246183,5,0,0:0:0:0:
308,231,246248,1,0,0:0:0:0:
308,231,246313,1,0,0:0:0:0:
503,149,246444,5,0,0:0:0:0:
503,149,246509,1,0,0:0:0:0:
503,149,246574,1,0,0:0:0:0:
326,66,246704,5,0,0:0:0:0:
326,66,246769,1,0,0:0:0:0:
326,66,246836,1,0,0:0:0:0:
385,303,246966,6,0,L|364:364,2,42.5000008106232
308,231,247227,2,0,L|287:292,2,42.5000008106232
243,145,247488,2,0,L|222:206,2,42.5000008106232
180,58,247749,2,0,L|159:119,2,42.5000008106232
97,220,248010,5,0,0:0:0:0:
97,220,248075,1,0,0:0:0:0:
97,220,248140,1,0,0:0:0:0:
97,220,248205,1,0,0:0:0:0:
126,258,248270,5,0,0:0:0:0:
126,258,248336,1,0,0:0:0:0:
126,258,248401,1,0,0:0:0:0:
126,258,248466,1,0,0:0:0:0:
150,283,248531,6,0,L|137:327,1,42.5000008106232
294,271,248662,2,0,L|307:227,1,42.5000008106232
352,78,248792,1,0,0:0:0:0:
165,167,248923,1,0,0:0:0:0:
418,141,249053,5,0,0:0:0:0:
224,4,249183,1,0,0:0:0:0:
224,243,249314,1,0,0:0:0:0:
352,78,249444,1,0,0:0:0:0:
411,274,249575,1,0,0:0:0:0:
273,124,249705,1,0,0:0:0:0:
210,319,249836,1,0,0:0:0:0:
346,160,249966,6,0,L|305:210,1,42.5000008106232
190,349,250097,1,0,0:0:0:0:
146,150,250227,1,0,0:0:0:0:
312,266,250357,1,0,0:0:0:0:
352,78,250488,1,0,0:0:0:0:
172,310,250618,2,0,L|231:233,1,85.0000016212464
352,78,250879,5,0,0:0:0:0:
339,95,250944,1,0,0:0:0:0:
326,112,251009,1,0,0:0:0:0:
313,129,251074,1,0,0:0:0:0:
301,146,251139,1,0,0:0:0:0:
403,10,251401,5,0,0:0:0:0:
390,27,251466,1,0,0:0:0:0:
377,44,251531,1,0,0:0:0:0:
364,61,251596,1,0,0:0:0:0:
352,78,251662,1,0,0:0:0:0:
339,95,251727,1,0,0:0:0:0:
326,112,251792,1,0,0:0:0:0:
313,129,251857,1,0,0:0:0:0:
301,145,251923,1,0,0:0:0:0:
288,162,251988,1,0,0:0:0:0:
275,179,252053,1,0,0:0:0:0:
148,328,252183,6,0,L|222:243,1,85.0000016212464
317,350,252444,2,0,L|309:237,1,85.0000016212464
218,78,252705,5,0,0:0:0:0:
421,207,252836,1,0,0:0:0:0:
208,98,252966,1,0,0:0:0:0:
246,335,253097,1,0,0:0:0:0:
184,103,253227,1,0,0:0:0:0:
356,269,253357,1,0,0:0:0:0:
160,100,253488,1,0,0:0:0:0:
102,332,253618,1,0,0:0:0:0:
251,166,253749,5,0,0:0:0:0:
251,166,253814,1,0,0:0:0:0:
251,166,253879,1,0,0:0:0:0:
251,166,253944,1,0,0:0:0:0:
251,166,254010,2,0,B|251:195|251:195|229:226,1,50
147,146,254140,2,0,B|147:117|147:117|169:86,1,50
219,187,254270,2,0,B|198:207|198:207|161:213,1,50
159,99,254400,2,0,B|179:78|179:78|216:72,1,50
319,86,254531,5,0,0:0:0:0:
335,96,254596,1,0,0:0:0:0:
352,107,254661,1,0,0:0:0:0:
369,118,254726,1,0,0:0:0:0:
386,129,254792,5,4,0:0:0:0:
411,145,254857,1,0,0:0:0:0:
419,174,254923,1,0,0:0:0:0:
413,203,254988,1,0,0:0:0:0:
392,224,255053,1,0,0:0:0:0:
364,234,255118,1,0,0:0:0:0:
334,227,255183,1,0,0:0:0:0:
310,207,255249,1,0,0:0:0:0:
282,196,255314,1,2,0:0:0:0:
252,196,255379,1,0,0:0:0:0:
224,208,255444,1,0,0:0:0:0:
206,233,255510,1,0,0:0:0:0:
200,262,255575,5,0,0:0:0:0:
205,291,255640,1,0,0:0:0:0:
221,315,255705,1,0,0:0:0:0:
246,330,255770,1,0,0:0:0:0:
276,333,255836,1,4,0:0:0:0:
304,324,255901,1,0,0:0:0:0:
325,303,255966,1,0,0:0:0:0:
351,288,256031,1,0,0:0:0:0:
380,282,256097,1,0,0:0:0:0:
409,285,256162,1,0,0:0:0:0:
435,298,256227,1,0,0:0:0:0:
454,320,256292,1,0,0:0:0:0:
468,293,256357,5,2,0:0:0:0:
471,262,256423,1,0,0:0:0:0:
461,233,256488,1,0,0:0:0:0:
446,206,256553,1,0,0:0:0:0:
439,176,256618,1,0,0:0:0:0:
440,146,256683,1,0,0:0:0:0:
449,117,256749,1,0,0:0:0:0:
467,23,256879,5,0,0:0:0:0:
217,53,257010,1,0,0:0:0:0:
477,133,257140,5,0,0:0:0:0:
227,163,257271,1,0,0:0:0:0:
490,233,257401,5,0,0:0:0:0:
240,263,257532,1,0,0:0:0:0:
505,334,257662,5,0,0:0:0:0:
255,364,257793,1,0,0:0:0:0:
409,277,257923,5,0,0:0:0:0:
409,277,257988,1,0,0:0:0:0:
409,277,258053,1,0,0:0:0:0:
409,277,258118,1,0,0:0:0:0:
409,277,258183,2,0,B|411:308|411:308|439:342,1,50
311,235,258314,2,0,B|290:258|290:258|286:302,1,50
272,148,258444,2,0,B|241:149|241:149|207:177,1,50
315,67,258575,2,0,B|291:46|291:46|247:42,1,50
145,87,258705,5,0,0:0:0:0:
140,106,258770,1,0,0:0:0:0:
135,125,258835,1,0,0:0:0:0:
130,145,258900,1,0,0:0:0:0:
126,164,258965,1,2,0:0:0:0:
121,180,259031,5,0,0:0:0:0:
143,206,259096,1,0,0:0:0:0:
175,219,259161,1,0,0:0:0:0:
208,215,259227,1,2,0:0:0:0:
249,187,259292,1,0,0:0:0:0:
298,192,259357,1,0,0:0:0:0:
333,225,259422,1,0,0:0:0:0:
340,271,259488,5,2,0:0:0:0:
322,312,259553,1,0,0:0:0:0:
282,333,259618,1,0,0:0:0:0:
237,330,259683,1,0,0:0:0:0:
201,301,259749,1,2,0:0:0:0:
191,257,259814,1,0,0:0:0:0:
167,218,259879,1,0,0:0:0:0:
124,202,259944,1,0,0:0:0:0:
95,212,260010,5,4,0:0:0:0:
66,221,260075,1,0,0:0:0:0:
42,229,260140,1,0,0:0:0:0:
23,235,260205,1,0,0:0:0:0:
37,248,260270,5,4,0:0:0:0:
66,257,260335,1,0,0:0:0:0:
90,265,260400,1,0,0:0:0:0:
109,271,260465,1,0,0:0:0:0:
91,281,260531,5,4,0:0:0:0:
62,290,260596,1,0,0:0:0:0:
38,298,260661,1,0,0:0:0:0:
19,304,260726,1,0,0:0:0:0:
37,312,260792,5,4,0:0:0:0:
66,321,260857,1,0,0:0:0:0:
252,356,261053,5,0,0:0:0:0:
157,136,261183,1,0,0:0:0:0:
91,281,261314,5,0,0:0:0:0:
186,61,261444,1,0,0:0:0:0:
229,220,261575,5,0,0:0:0:0:
134,0,261705,1,0,0:0:0:0:
338,51,261836,5,0,0:0:0:0:
158,210,261966,1,0,0:0:0:0:
186,61,262097,5,0,0:0:0:0:
186,61,262162,1,0,0:0:0:0:
186,61,262227,1,0,0:0:0:0:
186,61,262292,1,0,0:0:0:0:
186,61,262357,2,0,L|129:35,1,50
276,89,262488,2,0,L|254:30,1,50
331,168,262618,2,0,L|357:110,1,50
329,253,262749,2,0,L|387:231,1,50
297,334,262879,5,0,0:0:0:0:
227,177,263010,1,0,0:0:0:0:
452,273,263140,1,0,0:0:0:0:
452,273,263205,1,0,0:0:0:0:
452,273,263270,1,0,0:0:0:0:
452,273,263336,1,0,0:0:0:0:
452,273,263401,1,0,0:0:0:0:
224,275,263531,1,0,0:0:0:0:
186,61,263662,6,0,L|184:192,1,100
184,364,263923,2,0,L|185:303,1,50
157,113,264053,1,0,0:0:0:0:
329,253,264183,2,0,L|283:215,1,50
65,191,264314,2,0,L|111:229,1,50
336,338,264444,5,0,0:0:0:0:
369,330,264509,1,0,0:0:0:0:
397,309,264574,1,0,0:0:0:0:
415,279,264639,1,0,0:0:0:0:
419,245,264704,1,0,0:0:0:0:
418,83,264836,5,0,0:0:0:0:
491,346,264966,2,0,L|445:301,1,50
300,158,265097,1,0,0:0:0:0:
369,330,265227,1,0,0:0:0:0:
369,160,265357,1,0,0:0:0:0:
250,301,265488,5,0,0:0:0:0:
227,289,265553,1,0,0:0:0:0:
205,277,265618,1,0,0:0:0:0:
183,265,265683,1,0,0:0:0:0:
161,254,265749,5,0,0:0:0:0:
147,233,265814,1,0,0:0:0:0:
139,209,265879,1,0,0:0:0:0:
139,184,265944,1,0,0:0:0:0:
146,159,266010,1,0,0:0:0:0:
159,138,266075,1,0,0:0:0:0:
178,122,266140,1,0,0:0:0:0:
201,113,266205,1,0,0:0:0:0:
230,111,266270,5,0,0:0:0:0:
259,119,266336,1,0,0:0:0:0:
286,140,266401,1,0,0:0:0:0:
301,171,266466,1,0,0:0:0:0:
323,197,266531,1,0,0:0:0:0:
354,213,266597,1,0,0:0:0:0:
388,213,266662,1,0,0:0:0:0:
420,199,266727,1,0,0:0:0:0:
438,169,266792,1,0,0:0:0:0:
442,134,266857,1,0,0:0:0:0:
429,101,266923,1,0,0:0:0:0:
401,79,266988,1,0,0:0:0:0:
321,82,267053,6,0,P|331:32|401:6,1,100
501,156,267314,1,0,0:0:0:0:
301,155,267444,1,0,0:0:0:0:
301,155,267510,1,0,0:0:0:0:
301,155,267575,1,0,0:0:0:0:
208,13,267705,2,0,P|169:46|182:120,1,100
202,246,267966,1,0,0:0:0:0:
202,246,268031,1,0,0:0:0:0:
202,246,268097,2,0,P|197:294|160:326,1,100
126,239,268357,6,0,P|143:193|187:172,1,100
295,304,268618,1,0,0:0:0:0:
118,203,268749,2,0,P|146:164|194:155,1,100
295,304,269010,1,0,0:0:0:0:
119,167,269140,2,0,P|157:136|206:140,1,100
295,304,269401,5,0,0:0:0:0:
65,299,269531,1,0,0:0:0:0:
132,78,269662,1,0,0:0:0:0:
195,298,269792,1,0,0:0:0:0:
40,126,269923,2,0,L|119:213,1,100
243,348,270183,1,0,0:0:0:0:
243,348,270249,1,0,0:0:0:0:
243,348,270314,1,0,0:0:0:0:
378,157,270444,6,0,P|346:182|315:249,1,85.0000016212464
383,59,270705,1,0,0:0:0:0:
383,59,270770,1,0,0:0:0:0:
383,59,270836,2,0,P|342:54|273:79,1,85.0000016212464
201,182,271097,1,0,0:0:0:0:
214,25,271227,2,0,P|254:20|323:45,1,85.0000016212464
434,119,271488,5,0,0:0:0:0:
258,292,271618,1,0,0:0:0:0:
503,254,271749,1,0,0:0:0:0:
283,142,271879,1,0,0:0:0:0:
400,365,272010,1,0,0:0:0:0:
434,119,272140,5,0,0:0:0:0:
434,119,272205,1,0,0:0:0:0:
434,119,272270,1,0,0:0:0:0:
462,321,272401,5,0,0:0:0:0:
283,223,272531,2,0,P|327:225|379:257,1,85.0000016212464
81,257,272792,1,0,0:0:0:0:
81,257,272857,1,0,0:0:0:0:
81,257,272923,2,0,P|113:227|172:213,1,85.0000016212464
307,311,273183,1,0,0:0:0:0:
222,183,273314,2,0,P|189:153|130:139,1,85.0000016212464
89,331,273575,5,0,0:0:0:0:
31,118,273705,1,0,0:0:0:0:
26,285,273836,1,0,0:0:0:0:
84,72,273966,1,0,0:0:0:0:
160,280,274097,1,0,0:0:0:0:
41,191,274227,5,0,0:0:0:0:
41,191,274292,1,0,0:0:0:0:
41,191,274357,1,0,0:0:0:0:
66,358,274488,1,0,0:0:0:0:
174,167,274618,6,0,P|139:182|112:243,1,85.0000016212464
274,134,274879,2,0,P|258:99|198:72,1,85.0000016212464
236,268,275140,1,0,0:0:0:0:
350,94,275270,1,0,0:0:0:0:
350,94,275336,1,0,0:0:0:0:
350,94,275401,2,0,P|359:134|346:174,1,85.0000016212464
236,268,275662,5,0,0:0:0:0:
236,268,275727,1,0,0:0:0:0:
236,268,275792,2,0,L|219:325,1,42.5000008106232
307,231,275923,1,0,0:0:0:0:
307,231,275988,1,0,0:0:0:0:
307,231,276053,2,0,L|324:288,1,42.5000008106232
346,358,276183,5,0,0:0:0:0:
462,168,276314,1,0,0:0:0:0:
198,183,276444,2,0,L|246:199,1,42.5000008106232
447,257,276575,1,0,0:0:0:0:
280,53,276705,2,0,P|325:66|358:122,1,85.0000016212464
198,183,276966,2,0,P|152:169|120:114,1,85.0000016212464
214,29,277227,2,0,L|165:63,1,42.5000008106232
131,277,277357,2,0,L|141:218,1,42.5000008106232
261,142,277488,2,0,P|272:185|261:223,1,85.0000016212464
209,322,277749,5,0,0:0:0:0:
26,198,277879,1,0,0:0:0:0:
188,141,278010,1,0,0:0:0:0:
5,265,278140,1,0,0:0:0:0:
26,45,278270,1,0,0:0:0:0:
165,218,278401,1,0,0:0:0:0:
142,15,278531,2,0,L|126:74,1,42.5000008106232
93,220,278662,1,0,0:0:0:0:
299,125,278792,6,0,L|243:150,1,42.5000008106232
384,174,278923,2,0,L|324:184,1,42.5000008106232
460,244,279053,2,0,L|399:238,1,42.5000008106232
509,332,279183,2,0,L|452:311,1,42.5000008106232
264,242,279314,2,0,L|354:275,1,85.0000016212464
154,339,279575,2,0,L|64:306,1,85.0000016212464
155,183,279836,5,0,0:0:0:0:
170,168,279901,1,0,0:0:0:0:
189,159,279966,1,0,0:0:0:0:
210,157,280031,1,0,0:0:0:0:
230,162,280096,1,0,0:0:0:0:
248,174,280162,1,0,0:0:0:0:
261,191,280227,1,0,0:0:0:0:
267,211,280292,1,0,0:0:0:0:
266,232,280357,1,0,0:0:0:0:
258,252,280422,1,0,0:0:0:0:
244,268,280488,1,0,0:0:0:0:
226,278,280553,1,0,0:0:0:0:
205,282,280618,5,0,0:0:0:0:
184,275,280683,1,0,0:0:0:0:
164,269,280748,1,0,0:0:0:0:
143,263,280813,1,0,0:0:0:0:
127,259,280879,5,0,0:0:0:0:
107,268,280944,1,0,0:0:0:0:
93,290,281010,1,0,0:0:0:0:
92,319,281075,1,0,0:0:0:0:
109,347,281140,1,0,0:0:0:0:
145,357,281205,1,0,0:0:0:0:
180,343,281270,1,0,0:0:0:0:
190,305,281336,1,0,0:0:0:0:
216,277,281401,1,0,0:0:0:0:
252,264,281466,1,0,0:0:0:0:
288,273,281531,1,0,0:0:0:0:
315,299,281597,1,0,0:0:0:0:
321,336,281662,1,0,0:0:0:0:
142,312,281792,5,0,0:0:0:0:
321,336,281923,2,0,L|265:348,1,42.5000008106232
177,192,282053,2,0,L|233:204,1,42.5000008106232
391,251,282183,1,0,0:0:0:0:
278,90,282314,1,0,0:0:0:0:
293,270,282444,2,0,L|284:157,1,85.0000016212464
384,47,282705,5,0,0:0:0:0:
384,47,282770,1,0,0:0:0:0:
384,47,282836,1,0,0:0:0:0:
384,47,282901,1,0,0:0:0:0:
384,47,282966,2,0,L|347:150,1,85.0000016212464
144,180,283227,5,0,0:0:0:0:
144,180,283292,1,0,0:0:0:0:
144,180,283357,1,0,0:0:0:0:
144,180,283423,1,0,0:0:0:0:
144,180,283488,2,0,L|181:283,1,85.0000016212464
362,330,283749,2,0,L|390:250,1,85.0000016212464
182,94,284010,6,0,L|225:127,1,50
84,218,284140,2,0,L|41:251,1,50
72,32,284270,5,0,0:0:0:0:
172,259,284401,1,0,0:0:0:0:
275,54,284531,5,0,0:0:0:0:
49,105,284662,1,0,0:0:0:0:
308,239,284792,5,0,0:0:0:0:
387,22,284923,1,0,0:0:0:0:
193,32,285053,5,0,0:0:0:0:
410,111,285184,1,0,0:0:0:0:
221,124,285314,5,0,0:0:0:0:
142,341,285445,1,0,0:0:0:0:
48,212,285575,5,0,3:0:0:0:
48,212,285640,1,0,3:0:0:0:
48,212,285705,1,0,3:0:0:0:
48,212,285770,1,0,3:0:0:0:
48,212,285836,2,0,L|147:247,1,100
299,294,286097,5,0,0:0:0:0:
299,294,286227,1,0,0:0:0:0:
441,274,286357,5,0,0:0:0:0:
441,274,286488,1,0,0:0:0:0:
244,349,286618,5,0,0:0:0:0:
441,274,286749,1,0,0:0:0:0:
441,274,286814,1,0,0:0:0:0:
441,274,286879,1,0,0:0:0:0:
295,221,287010,1,0,0:0:0:0:
361,335,287140,6,0,P|370:288|338:230,1,85.0000016212464
227,175,287401,1,0,0:0:0:0:
227,175,287466,1,0,0:0:0:0:
227,175,287531,2,0,P|218:128|250:70,1,85.0000016212464
329,9,287792,1,0,0:0:0:0:
299,138,287923,2,0,B|301:176|301:176|295:181|295:181|295:250,1,85.0000016212464
191,285,288183,5,0,0:0:0:0:
191,285,288314,1,0,0:0:0:0:
129,162,288444,5,0,0:0:0:0:
129,162,288575,1,0,0:0:0:0:
71,342,288705,5,0,0:0:0:0:
109,232,288836,1,0,0:0:0:0:
109,232,288901,1,0,0:0:0:0:
109,232,288966,1,0,0:0:0:0:
209,361,289097,1,0,0:0:0:0:
30,232,289227,6,0,P|39:189|79:161,1,85.0000016212464
201,136,289488,1,0,0:0:0:0:
201,136,289553,1,0,0:0:0:0:
201,136,289618,2,0,P|192:93|152:65,1,85.0000016212464
20,44,289879,1,0,0:0:0:0:
179,207,290010,2,0,B|220:207|220:207|226:202|226:202|266:201,1,85.0000016212464
436,187,290270,5,0,0:0:0:0:
436,187,290401,1,0,0:0:0:0:
323,78,290531,5,0,0:0:0:0:
323,78,290662,1,0,0:0:0:0:
483,263,290792,5,0,0:0:0:0:
390,118,290923,1,0,0:0:0:0:
390,118,290988,1,0,0:0:0:0:
390,118,291053,1,0,0:0:0:0:
421,313,291183,1,0,0:0:0:0:
466,185,291314,6,0,L|471:47,1,112.500004291535,2|0,0:0|0:0,0:0:0:0:
474,5,291575,1,0,0:0:0:0:
366,143,291705,2,0,L|363:231,1,75.0000028610231,2|0,0:0|0:0,0:0:0:0:
259,276,291966,1,0,0:0:0:0:
259,276,292031,1,0,0:0:0:0:
259,276,292097,2,0,L|261:201,1,75.0000028610231,2|0,0:0|0:0,0:0:0:0:
146,343,292357,5,0,0:0:0:0:
147,318,292422,1,0,0:0:0:0:
148,293,292487,1,0,0:0:0:0:
150,268,292552,1,0,0:0:0:0:
151,243,292617,1,0,0:0:0:0:
162,109,292749,1,0,0:0:0:0:
48,226,292879,6,0,L|9:284,1,50
59,95,293010,2,0,L|98:153,1,50
152,243,293140,1,0,0:0:0:0:
169,267,293205,1,0,0:0:0:0:
191,287,293270,1,0,0:0:0:0:
216,303,293335,1,0,0:0:0:0:
245,312,293401,1,4,1:0:0:0:
374,298,293531,1,0,0:0:0:0:
496,169,293662,6,0,P|483:215|439:261,1,100,4|0,0:1|0:0,0:0:0:0:
362,71,293923,1,0,0:0:0:0:
362,71,293988,1,0,0:0:0:0:
362,71,294053,1,0,0:0:0:0:
362,71,294118,1,0,0:0:0:0:
362,71,294183,2,0,P|385:112|386:176,1,100,4|0,0:1|0:0,0:0:0:0:
255,254,294444,1,0,0:0:0:0:
256,83,294575,1,0,0:0:0:0:
257,345,294705,1,0,0:0:0:0:
308,147,294836,5,0,0:0:0:0:
308,147,294901,1,0,0:0:0:0:
308,147,294966,2,0,P|320:181|277:250,1,100
169,253,295227,5,0,0:0:0:0:
169,253,295292,1,0,0:0:0:0:
169,253,295357,1,0,0:0:0:0:
169,253,295423,1,0,0:0:0:0:
169,253,295488,2,0,L|58:253,1,100
124,70,295749,1,0,0:0:0:0:
117,283,295879,1,0,0:0:0:0:
219,160,296010,5,0,0:0:0:0:
242,171,296075,1,0,0:0:0:0:
264,181,296140,1,0,0:0:0:0:
287,192,296205,1,0,0:0:0:0:
309,203,296270,6,0,L|370:233,1,50
472,99,296401,2,0,L|411:128,1,50
304,219,296531,2,0,L|370:226,1,50
420,65,296662,2,0,L|373:113,1,50
305,236,296792,2,0,L|370:220,1,50
362,51,296923,2,0,L|335:112,1,50
404,340,297053,6,0,P|433:293|421:224,1,100
237,268,297314,1,0,0:0:0:0:
197,273,297379,1,0,0:0:0:0:
157,278,297444,1,0,0:0:0:0:
117,283,297509,1,0,0:0:0:0:
81,286,297575,2,0,L|27:291,1,50
188,348,297705,2,0,L|242:343,1,50
309,203,297836,5,0,0:0:0:0:
309,203,297901,1,0,0:0:0:0:
309,203,297966,2,0,L|358:198,1,50
441,35,298097,5,0,0:0:0:0:
406,31,298162,1,0,0:0:0:0:
371,28,298227,1,0,0:0:0:0:
336,25,298292,1,0,0:0:0:0:
301,22,298357,6,0,L|229:18,1,50
179,68,298488,2,0,L|106:63,1,50
251,144,298618,2,0,L|322:158,1,50
393,234,298749,2,0,L|464:248,1,50
326,305,298879,2,0,L|254:290,1,50
171,333,299010,2,0,L|100:318,1,50
8,232,299140,6,0,L|106:248,1,100
365,359,299401,1,0,0:0:0:0:
135,96,299531,1,0,0:0:0:0:
171,333,299662,2,0,L|167:259,1,50
244,27,299792,2,0,L|246:109,1,50
256,358,299923,1,0,0:0:0:0:
74,60,300053,1,0,0:0:0:0:
18,250,300183,6,0,L|96:178,1,100
319,166,300379,1,0,0:0:0:0:
319,166,300444,2,0,L|397:238,1,100
49,310,300705,1,0,0:0:0:0:
247,19,300836,1,0,0:0:0:0:
400,332,300966,5,0,0:0:0:0:
162,73,301097,1,0,0:0:0:0:
287,308,301227,2,0,L|265:373,1,50
52,126,301357,2,0,L|65:191,1,50
147,369,301488,1,0,0:0:0:0:
274,47,301618,1,0,0:0:0:0:
367,364,301749,5,0,0:0:0:0:
440,50,301879,1,0,0:0:0:0:
201,252,302010,1,0,0:0:0:0:
512,230,302140,1,0,0:0:0:0:
274,47,302270,1,0,0:0:0:0:
461,291,302401,5,0,0:0:0:0:
190,148,302531,1,0,0:0:0:0:
495,125,302662,1,0,0:0:0:0:
272,342,302792,1,0,0:0:0:0:
398,111,302923,5,0,0:0:0:0:
255,72,303053,2,0,L|274:195,1,100
272,342,303314,1,0,0:0:0:0:
272,342,303379,1,0,0:0:0:0:
272,342,303444,2,0,L|291:219,1,100
196,67,303705,1,0,0:0:0:0:
112,288,303836,5,0,0:0:0:0:
108,263,303901,1,0,0:0:0:0:
104,238,303966,1,0,0:0:0:0:
100,213,304031,1,0,0:0:0:0:
96,189,304096,1,0,0:0:0:0:
66,49,304227,1,0,0:0:0:0:
120,338,304357,5,0,0:0:0:0:
116,313,304422,1,0,0:0:0:0:
112,288,304487,1,0,0:0:0:0:
108,263,304552,1,0,0:0:0:0:
104,239,304617,1,0,0:0:0:0:
124,360,304749,1,0,0:0:0:0:
33,193,304879,5,0,0:0:0:0:
245,283,305010,1,0,0:0:0:0:
15,287,305140,1,0,0:0:0:0:
204,157,305270,2,0,L|106:225,1,100
139,26,305531,5,0,0:0:0:0:
107,63,305596,1,0,0:0:0:0:
107,112,305661,1,0,0:0:0:0:
257,64,305792,1,0,0:0:0:0:
107,63,305923,1,0,0:0:0:0:
111,111,305988,1,0,0:0:0:0:
145,146,306053,1,0,0:0:0:0:
257,64,306184,1,0,0:0:0:0:
21,91,306314,5,0,0:0:0:0:
21,91,306379,1,0,0:0:0:0:
21,91,306444,2,0,L|58:197,1,100
277,188,306705,2,0,L|240:294,1,100
145,146,306966,1,0,0:0:0:0:
375,145,307097,1,0,0:0:0:0:
176,259,307227,1,0,0:0:0:0:
405,268,307357,1,0,0:0:0:0:
219,113,307488,5,0,0:0:0:0:
219,113,307553,1,0,0:0:0:0:
219,113,307618,2,0,L|209:185,1,50
341,66,307749,1,0,0:0:0:0:
341,66,307814,1,0,0:0:0:0:
341,66,307879,2,0,L|283:109,1,50
436,101,308010,5,0,0:0:0:0:
436,101,308075,1,0,0:0:0:0:
436,101,308140,1,0,0:0:0:0:
436,101,308205,1,0,0:0:0:0:
443,145,308270,5,0,0:0:0:0:
443,145,308335,1,0,0:0:0:0:
443,145,308400,1,0,0:0:0:0:
443,145,308465,1,0,0:0:0:0:
451,187,308531,5,0,0:0:0:0:
451,187,308596,1,0,0:0:0:0:
451,187,308661,1,0,0:0:0:0:
451,187,308726,1,0,0:0:0:0:
459,227,308792,5,0,0:0:0:0:
482,328,308923,1,0,0:0:0:0:
255,183,309053,5,0,0:0:0:0:
450,62,309183,1,0,0:0:0:0:
384,283,309314,1,0,0:0:0:0:
214,128,309444,1,0,0:0:0:0:
